Доспехи бога все части скачать торрент


rutor.org :: Доспехи Бога: Дилогия / Armour of God: Dilogy (1986-1991) BDRip 1080p ::: Скачать торрент

main-rutor.org

Информация о фильмеНазвание: Доспехи БогаОригинальное название: Armour of God / Long xiong hu diГод выхода: 1986Жанр: Боевик, комедия, приключенияРежиссер: Джеки Чан, Эрик ЦанВ ролях: Джеки Чан, Алан Там, Розамунд Кван, Лола Форнер, Божидар Смилянич, Кен Бойл, Джон Ладальски, Роберт О’Брайэн, Борис Грегорич, Алисия Шонте, Вивиан Маклайф, Стефани Эванс, Линда Денлий, Кенни Би, Беннетт Пэнг, Карина Лау, Кларенс Фок Ииу-леунг, Дэнни Йип, Вейн Арчер

О фильме: «Азиатский ястреб» — так назвали героя Джеки в Европе. Когда он похитил в Африке ритуальный меч, то не предполагал, что это начало опасных приключений. Оказывается, что меч — часть древних доспехов Бога, и если их уничтожить, то в мире будут править силы Ужаса и Зла. Силы Зла, которые укрылись в неприступном монастыре, узнают, что у Джеки есть доступ к остальным доспехам. Они похищают девушку, которую любит Ястреб, и требуют выкупа. Понимая, что одной ловкостью ему не справиться с полчищами бандитов, Джеки добровольно становится человеком — бомбой. Но этот козырь он приберег на самый крайний случай…

Страна: Югославия, ГонконгСтудия: Golden Harvest Company Ltd. Paragon Films Ltd.Продолжительность: 01:28:31Перевод: Авторский (одноголосый, закадровый) Андрей Гаврилов + Профессиональный (двухголосый, закадровый) телеканал НТВ + Професиональный (двухголосый, закадровый) П.Гланц и И.Королёва + Профессиональный (двухголосый, закадровый) Союз Видео

ФайлКодек: x264Качество: BDRip 1080p (источник: HDTRACKER / Blu-ray Remux / 1080p)Видео: 1920х1080 (16:9), 11390 Kbps, 23.976 fps, 0.229 bit/pixelАудио #1: 48.0 kHz, AC3 Dolby Digital, 3/2 (L,C,R,l,r) + LFE ch, 448 kbps [Авторский, А. Гаврилов]Аудио #2: 48.0 kHz, AC3 Dolby Digital, 2/0 (L,R) ch, 192 kbps [Двухголосый, телеканал НТВ]Аудио #3: 48.0 kHz, AC3 Dolby Digital, 2/0 (L,R) ch, 640 kbps [Двухголосый, П.Гланц и И.Королёва]Аудио #4: 48.0 kHz, AC3 Dolby Digital, 2/0 (L,R) ch, 192 kbps [Двухголосый, Союз Видео]Субтитры: Отсутствуют

Семпл

x264

x264 [info]: frame I:1257 Avg QP:19.91 size:174307 x264 [info]: frame P:27963 Avg QP:23.70 size: 87393 x264 [info]: frame B:98109 Avg QP:24.94 size: 49906

MediaInfo

General Unique ID : 197116134761830498058566383921002152427 (0x944B2FC807B81A729C6672BF07BB81EB) Complete name : E:Armour.of.God.Dilogy.1986-1991.x264.BDRip.1080pArmour.of.God.1986.x264.BDRip.1080p.mkv Format : Matroska Format version : Version 4 / Version 2 File size : 7.95 GiB Duration : 1h 28mn Overall bit rate : 12.9 Mbps Encoded date : UTC 2013-02-15 06:38:21 Writing application : mkvmerge v6.0.0 ('Coming Up For Air') built on Jan 20 2013 09:52:00 Writing library : libebml v1.3.0 + libmatroska v1.4.0

Video ID : 1 Format : AVC Format/Info : Advanced Video Codec Format profile : [email protected] Format settings, CABAC : Yes Format settings, ReFrames : 4 frames Codec ID : V_MPEG4/ISO/AVC Duration : 1h 28mn Bit rate : 11.4 Mbps Width : 1 920 pixels Height : 1 080 pixels Display aspect ratio : 16:9 Frame rate mode : Constant Frame rate : 23.976 fps Color space : YUV Chroma subsampling : 4:2:0 Bit depth : 8 bits Scan type : Progressive Bits/(Pixel*Frame) : 0.229 Stream size : 6.88 GiB (87%) Writing library : x264 core 129 r2245 bc13772 Encoding settings : cabac=1 / ref=4 / deblock=1:-3:-3 / analyse=0x3:0x133 / me=tesa / subme=11 / psy=1 / psy_rd=1.00:0.07 / mixed_ref=1 / me_range=32 / chroma_me=1 / trellis=2 / 8x8dct=1 / cqm=0 / deadzone=21,11 / fast_pskip=0 / chroma_qp_offset=-3 / threads=12 / lookahead_threads=2 / sliced_threads=0 / nr=0 / decimate=0 / interlaced=0 / bluray_compat=0 / constrained_intra=0 / bframes=5 / b_pyramid=2 / b_adapt=2 / b_bias=0 / direct=3 / weightb=1 / open_gop=0 / weightp=2 / keyint=240 / keyint_min=23 / scenecut=40 / intra_refresh=0 / rc_lookahead=60 / rc=2pass / mbtree=1 / bitrate=11390 / ratetol=1.0 / qcomp=0.60 / qpmin=0 / qpmax=69 / qpstep=4 / cplxblur=20.0 / qblur=0.5 / ip_ratio=1.40 / aq=1:1.00 Language : Chinese Default : Yes Forced : No

Audio #1 ID : 2 Format : AC-3 Format/Info : Audio Coding 3 Mode extension : CM (complete main) Format settings, Endianness : Big Codec ID : A_AC3 Duration : 1h 28mn Bit rate mode : Constant Bit rate : 448 Kbps Channel(s) : 6 channels Channel positions : Front: L C R, Side: L R, LFE Sampling rate : 48.0 KHz Bit depth : 16 bits Compression mode : Lossy Stream size : 284 MiB (3%) Title : AC3 5.1ch 448 kbps - Авторский, А. Гаврилов Language : Russian Default : Yes Forced : No

Audio #2 ID : 3 Format : AC-3 Format/Info : Audio Coding 3 Mode extension : CM (complete main) Format settings, Endianness : Big Codec ID : A_AC3 Duration : 1h 28mn Bit rate mode : Constant Bit rate : 192 Kbps Channel(s) : 2 channels Channel positions : Front: L R Sampling rate : 48.0 KHz Bit depth : 16 bits Compression mode : Lossy Stream size : 122 MiB (1%) Title : AC3 2.0ch 192 kbps - Двухголосый, телеканал НТВ Language : Russian Default : No Forced : No

Audio #3 ID : 4 Format : AC-3 Format/Info : Audio Coding 3 Mode extension : CM (complete main) Format settings, Endianness : Big Codec ID : A_AC3 Duration : 1h 28mn Bit rate mode : Constant Bit rate : 640 Kbps Channel(s) : 2 channels Channel positions : Front: L R Sampling rate : 48.0 KHz Bit depth : 16 bits Compression mode : Lossy Stream size : 405 MiB (5%) Title : AC3 2.0ch 640 kbps - Двухголосый, П.Гланц и И.Королёва Language : Russian Default : No Forced : No

Audio #4 ID : 5 Format : AC-3 Format/Info : Audio Coding 3 Mode extension : CM (complete main) Format settings, Endianness : Big Codec ID : A_AC3 Duration : 1h 28mn Bit rate mode : Constant Bit rate : 192 Kbps Channel(s) : 2 channels Channel positions : Front: L R Sampling rate : 48.0 KHz Bit depth : 16 bits Compression mode : Lossy Stream size : 122 MiB (1%) Title : AC3 2.0ch 192 kbps - Двухголосый, Союз Видео Language : Russian Default : No Forced : No

Menu 00:00:00.000 : en:00:00:00.000 00:05:04.304 : en:00:05:04.304 00:12:38.132 : en:00:12:38.132 00:16:14.974 : en:00:16:14.974 00:23:52.431 : en:00:23:52.431 00:28:11.690 : en:00:28:11.690 00:37:34.252 : en:00:37:34.252 00:41:36.411 : en:00:41:36.411 00:46:30.788 : en:00:46:30.788 00:51:32.089 : en:00:51:32.089 00:57:40.457 : en:00:57:40.457 01:03:07.784 : en:01:03:07.784 01:07:17.033 : en:01:07:17.033 01:12:38.354 : en:01:12:38.354 01:18:52.728 : en:01:18:52.728

Информация о фильмеНазвание: Доспехи Бога 2: Операция КондорОригинальное название: The Armour of God 2: Operation Condor / Fei ying gai wakГод выхода: 1991Жанр: Боевик, триллер, комедия, криминал, приключенияРежиссер: Джеки ЧанВ ролях: Джеки Чан, Ева Кобо, Шоко Икеда, Дэниэл Минтц, Альдо Самбрелл, Кен Гудман, Лин Персивал, Брюс Фонтейн, Уэйн Арчер

О фильме: Азиатский Ястреб возвращается! На этот раз ему предстоит новая работа, из-за которой наш герой опять приезжает в Мадрид. Некий загадочный миллионер предлагает Ястребу заняться поисками нацистских сокровищ, которые спрятаны в глубине африканской пустыни. Он передает ключ к сокровищнице, соглашается финансировать экспедицию и отправляет с Ястребом попутчицу — специалиста по Африке Аду. Во-время, своего пребывания в Мадриде, Ястреб знакомится с немецкой девушкой Эльзой, которая разыскивает своего деда, пропавшего во время войны в Африке. После ряда приключений Эльза тоже присоединяется к экспедиции.

Страна: ГонконгСтудия: Golden Harvest Company Ltd. Paragon Films Ltd.Продолжительность: 01:46:29Перевод: Профессиональный (двухголосый, закадровый) телеканал НТВ + Авторский (одноголосый, закадровый) Александр Кашкин + Професиональный (двухголосый, закадровый) П.Гланц и И.Королёва

ФайлКодек: x264Качество: BDRip 1080p (источник: HD VIDEO / Blu-ray Remux / 1080p)Видео: 1920х808 (2.40:1), 9668 Kbps, 23.976 fps, 0.260 bit/pixelАудио #1: 48.0 kHz, AC3 Dolby Digital, 2/0 (L,R) ch, 192 kbps [Двухголосый, телеканал НТВ]Аудио #2: 48.0 kHz, AC3 Dolby Digital, 2/0 (L,R) ch, 192 kbps [Авторский, А. Кашкин]Аудио #3: 48.0 kHz, AC3 Dolby Digital, 3/2 (L,C,R,l,r) + LFE ch, 640 kbps [Двухголосый, П.Гланц и И.Королёва]Субтитры: Русские, английские

Семпл

x264

x264 [info]: frame I:1833 Avg QP:15.39 size:147628 x264 [info]: frame P:34447 Avg QP:18.99 size: 75810 x264 [info]: frame B:116904 Avg QP:20.03 size: 41393

MediaInfo

General Unique ID : 184728982234767856127678761005876617950 (0x8AF982025724A476B42E2E6D4345A2DE) Complete name : E:Armour.of.God.Dilogy.1986-1991.x264.BDRip.1080pThe.Armour.of.God.2.Operation.Condor.1991.x264.BDRip.1080p.mkv Format : Matroska Format version : Version 4 / Version 2 File size : 7.95 GiB Duration : 1h 46mn Overall bit rate : 10.7 Mbps Encoded date : UTC 2013-02-15 08:30:47 Writing application : mkvmerge v6.0.0 ('Coming Up For Air') built on Jan 20 2013 09:52:00 Writing library : libebml v1.3.0 + libmatroska v1.4.0

Video ID : 1 Format : AVC Format/Info : Advanced Video Codec Format profile : [email protected] Format settings, CABAC : Yes Format settings, ReFrames : 5 frames Codec ID : V_MPEG4/ISO/AVC Duration : 1h 46mn Bit rate : 9 668 Kbps Width : 1 920 pixels Height : 808 pixels Display aspect ratio : 2.40:1 Frame rate mode : Constant Frame rate : 23.976 fps Color space : YUV Chroma subsampling : 4:2:0 Bit depth : 8 bits Scan type : Progressive Bits/(Pixel*Frame) : 0.260 Stream size : 7.03 GiB (88%) Writing library : x264 core 129 r2245 bc13772 Encoding settings : cabac=1 / ref=5 / deblock=1:-3:-3 / analyse=0x3:0x133 / me=tesa / subme=11 / psy=1 / psy_rd=1.00:0.10 / mixed_ref=1 / me_range=32 / chroma_me=1 / trellis=2 / 8x8dct=1 / cqm=0 / deadzone=21,11 / fast_pskip=0 / chroma_qp_offset=-3 / threads=12 / lookahead_threads=2 / sliced_threads=0 / nr=0 / decimate=0 / interlaced=0 / bluray_compat=0 / constrained_intra=0 / bframes=5 / b_pyramid=2 / b_adapt=2 / b_bias=0 / direct=3 / weightb=1 / open_gop=0 / weightp=2 / keyint=240 / keyint_min=23 / scenecut=40 / intra_refresh=0 / rc_lookahead=60 / rc=2pass / mbtree=1 / bitrate=9668 / ratetol=1.0 / qcomp=0.60 / qpmin=0 / qpmax=69 / qpstep=4 / cplxblur=20.0 / qblur=0.5 / ip_ratio=1.40 / aq=1:1.00 Language : Chinese Default : Yes Forced : No

Audio #1 ID : 2 Format : AC-3 Format/Info : Audio Coding 3 Mode extension : CM (complete main) Format settings, Endianness : Big Codec ID : A_AC3 Duration : 1h 46mn Bit rate mode : Constant Bit rate : 192 Kbps Channel(s) : 2 channels Channel positions : Front: L R Sampling rate : 48.0 KHz Bit depth : 16 bits Compression mode : Lossy Stream size : 146 MiB (2%) Title : AC3 2.0ch 192 kbps - Двухголосый, телеканал НТВ Language : Russian Default : Yes Forced : No

Audio #2 ID : 3 Format : AC-3 Format/Info : Audio Coding 3 Mode extension : CM (complete main) Format settings, Endianness : Big Codec ID : A_AC3 Duration : 1h 46mn Bit rate mode : Constant Bit rate : 192 Kbps Channel(s) : 2 channels Channel positions : Front: L R Sampling rate : 48.0 KHz Bit depth : 16 bits Compression mode : Lossy Stream size : 146 MiB (2%) Title : AC3 2.0ch 192 kbps - Авторский, А. Кашкин Language : Russian Default : No Forced : No

Audio #3 ID : 4 Format : AC-3 Format/Info : Audio Coding 3 Mode extension : CM (complete main) Format settings, Endianness : Big Codec ID : A_AC3 Duration : 1h 46mn Bit rate mode : Constant Bit rate : 640 Kbps Channel(s) : 6 channels Channel positions : Front: L C R, Side: L R, LFE Sampling rate : 48.0 KHz Bit depth : 16 bits Compression mode : Lossy Stream size : 487 MiB (6%) Title : AC3 5.1ch 640 kbps - Двухголосый, П.Гланц и И.Королёва Language : Russian Default : No Forced : No

Text #1 ID : 5 Format : UTF-8 Codec ID : S_TEXT/UTF8 Codec ID/Info : UTF-8 Plain Text Title : Русские Language : Russian Default : No Forced : No

Text #2 ID : 6 Format : UTF-8 Codec ID : S_TEXT/UTF8 Codec ID/Info : UTF-8 Plain Text Title : Английские Language : English Default : No Forced : No

Menu 00:00:00.000 : zh: 00:05:00.000 : zh: 00:10:00.000 : zh: 00:15:00.000 : zh: 00:20:00.000 : zh: 00:25:00.000 : zh: 00:30:00.000 : zh: 00:35:00.000 : zh: 00:40:00.000 : zh: 00:45:00.000 : zh: 00:50:00.000 : zh: 00:55:00.000 : zh: 01:00:00.000 : zh: 01:05:00.000 : zh: 01:10:00.000 : zh: 01:15:00.000 : zh: 01:20:00.000 : zh: 01:25:00.000 : zh: 01:30:00.000 : zh: 01:35:00.000 : zh: 01:40:00.000 : zh: 01:45:00.000 : zh:

Trilogy / 1986, 1991, 2012 / BDRip 720p

zlotracker.org

Категория: Фильмы:HD

Название: Доспехи богаОригинальное название: Armour of GodСлоган: «Jackie Chan in his greatest adventure ever!»Год выпуска: 1986Страна: Гонконг, ЮгославияЖанр: Боевик, комедия, приключенияПродолжительность: 01:34:00Перевод: Профессиональное (многоголосое) [НТВ+]Язык: Русский + АнглийскийВыпущено: Golden Harvest Company Ltd.

Режиссёр: Джеки ЧанВ ролях: Джеки Чан, Алан Там, Розамунд Кван, Лола Форнер, Божидар Смилянич, Кен Бойл, Джон Ладальски, Роберт О’Брайэн, Борис Грегорич, Марсия Чишолм

Описание: «Азиатский ястреб» — так назвали героя Джеки в Европе. Когда он похитил в Африке ритуальный меч, то не предполагал, что это начало опасных приключений. Оказывается, что меч — часть древних доспехов Бога, и если их уничтожить, то в мире будут править силы Ужаса и Зла.Силы Зла, которые укрылись в неприступном монастыре, узнают, что у Джеки есть доступ к остальным доспехам. Они похищают девушку, которую любит Ястреб, и требуют выкупа.Понимая, что одной ловкостью ему не справиться с полчищами бандитов, Джеки добровольно становится человеком — бомбой. Но этот козырь он приберег на самый крайний случай…

Качество: BDRip 720pФормат: mkvВидео: 1280х720(1.80:1), 24 fps, x264 ~ 5054 kbps avg, 0.25 bit/pixel Аудио: AC3, 192 Kb/s (2 ch), English: AC3, 448 Kb/s (2 ch)Субтитры: EnglishДополнительно: Сохранены оригинальные чаптеры, как на Blu-Ray.

Название: Доспехи Бога 2 - Операция "Кондор"Оригинальное название: Armour Of God 2 - Operation "Condor"Слоган: «This summer, action takes flight.»Год выпуска: 1991Страна: ГонконгЖанр: Боевик, комедия, приключенияПродолжительность: 01:49:39Перевод: Профессиональное (многоголосое) [НТВ+]Язык: Русский + АнглийскийВыпущено: Golden Harvest Company Ltd.

Режиссёр: Джеки ЧанВ ролях: Джеки Чан, Кэрол «До До» Чэн, Ева Кобо, Шоко Икеда, Альдо Самбрелл, Кен Гудман, Стиви Тарталия, Лин Персивал, Брюс Фонтейн, Уэйн Арчер

Описание: Азиатский Ястреб возвращается! На этот раз ему предстоит новая работа, из-за которой наш герой опять приезжает в Мадрид. Некий загадочный миллионер предлагает Ястребу заняться поисками нацистских сокровищ, которые спрятаны в глубине африканской пустыни. Он передает ключ к сокровищнице, соглашается финансировать экспедицию и отправляет с Ястребом попутчицу — специалиста по Африке Аду. Во-время, своего пребывания в Мадриде, Ястреб знакомится с немецкой девушкой Эльзой, которая разыскивает своего деда, пропавшего во время войны в Африке. После ряда приключений Эльза тоже присоединяется к экспедиции.

Качество: BDRip 720pФормат: mkvВидео: 1280х536(1.80:1), 24 fps, x264 ~ 5403 Kb/s, 0.25 bit/pixel Аудио: AC3, 192 Kb/s (2 ch), English: AC3, 640 Kb/s (6 ch)Субтитры: English

Название: Доспехи Бога 3: Миссия ЗодиакОригинальное название: Armour Of God 2 - Chinese ZodiacСлоган: «Охота за сокровищами началась»Год выпуска: 2012Страна: Гонконг, КитайЖанр: Боевик, комедия, приключенияПродолжительность: 02:02:56Перевод: Дублированное [Лицензия]Язык: РусскийВыпущено: Emperor Classic Films

Режиссёр: Джеки ЧанВ ролях: Джеки Чан, Оливер Платт, Квон Сан У, Ляо Фань, Синтхун Яо, Чжан Ланьсинь, Лаура Вейссбеккер, Эмили Гуйо, Кэйтлин Дешель, Кенни Джи

Описание: Главный герой истории — работающий по всему миру охотник за сокровищами Джей Си по кличке Ястреб. Известный антиквар предлагает ему отыскать шесть редких статуэток в виде голов животных. В свое время эти бронзовые скульптуры входили в набор из 12-ти предметов, олицетворявших знаки зодиака. Фигурки украшали фонтан легендарного Летнего дворца на окраине Пекина. В 1860 году величественное сооружение было разграблено и разрушено англо-французскими войсками на исходе Второй опиумной войны, а статуэтки безвозвратно утеряны.

Качество: BDRip 720pФормат: mkvВидео: 1280х534(1.80:1), 24 fps, x264 ~ 5873 Kb/s, 0.25 bit/pixel Аудио: AC3, 640 Kb/s (6 ch), MPEG Layer 3, 2 ch, ~256.00 kbps avgСубтитры: Russian, EnglishДополнительно: Сохранены оригинальные чаптеры, как на Blu-Ray.

Раздают: 0Качают: 1Скачавших: 66Из них пользователи: 7Список скачавшихСкорость U/D:0байт/0байт

Разбанил: DGEk916

Поделиться:

/ Armour of God / Long xiong hu di ( / Jackie Chan) [1987, , , , , , DVDRip-AVC] [ + ] AVO + Original Eng Dub

D:\MKV\Armour_of_God.mkv General Unique ID : 203213953561822457929083129656011374232 (0x98E19575C3DED22193B624ADCC5FBE98) Complete name : D:\MKV\Armour_of_God.mkv Format : Matroska Format version : Version 2 File size : 2.05 GiB Duration : 1h 37mn Overall bit rate : 3 004 Kbps Encoded date : UTC 2011-12-08 17:00:52 Writing application : mkvmerge v5.0.1 ('Es ist Sommer') built on Oct 9 2011 11:55:43 Writing library : libebml v1.2.2 + libmatroska v1.3.0 Video #1 ID : 1 Format : AVC Format/Info : Advanced Video Codec Format profile : [email protected] Format settings, CABAC : Yes Format settings, ReFrames : 4 frames Codec ID : V_MPEG4/ISO/AVC Duration : 1h 37mn Bit rate : 2 500 Kbps Width : 704 pixels Height : 464 pixels Display aspect ratio : 16:9 Original display aspect ratio : 16:9 Frame rate : 23.976 fps Color space : YUV Chroma subsampling : 4:2:0 Bit depth : 8 bits Scan type : Progressive Bits/(Pixel*Frame) : 0.319 Stream size : 1.66 GiB (81%) Writing library : x264 core 112 Encoding settings : cabac=1 / ref=4 / deblock=1:-1:0 / analyse=0x3:0x133 / me=umh / subme=9 / psy=1 / psy_rd=1.00:0.00 / mixed_ref=1 / me_range=32 / chroma_me=1 / trellis=2 / 8x8dct=1 / cqm=0 / deadzone=21,11 / fast_pskip=0 / chroma_qp_offset=-2 / threads=6 / sliced_threads=0 / nr=0 / decimate=1 / interlaced=0 / constrained_intra=0 / bframes=4 / b_pyramid=2 / b_adapt=2 / b_bias=0 / direct=2 / weightb=1 / open_gop=0 / weightp=2 / keyint=240 / keyint_min=23 / scenecut=40 / intra_refresh=0 / rc=2pass / mbtree=0 / bitrate=2500 / ratetol=1.0 / qcomp=0.60 / qpmin=10 / qpmax=51 / qpstep=4 / cplxblur=20.0 / qblur=0.5 / ip_ratio=1.40 / pb_ratio=1.30 / aq=1:1.00 Language : English Color primaries : BT.601-6 525, BT.1358 525, BT.1700 NTSC, SMPTE 170M Transfer characteristics : BT.709-5, BT.1361 Matrix coefficients : BT.601-6 525, BT.1358 525, BT.1700 NTSC, SMPTE 170M Audio #2 ID : 2 Format : AC-3 Format/Info : Audio Coding 3 Mode extension : CM (complete main) Codec ID : A_AC3 Duration : 1h 37mn Bit rate mode : Constant Bit rate : 192 Kbps Channel(s) : 2 channels Channel positions : Front: L R Sampling rate : 48.0 KHz Bit depth : 16 bits Compression mode : Lossy Delay relative to video : 19s 300ms Stream size : 134 MiB (6%) Title : wite LORELEI SONG Language : Russian Audio #3 ID : 3 Format : AC-3 Format/Info : Audio Coding 3 Mode extension : CM (complete main) Codec ID : A_AC3 Duration : 1h 37mn Bit rate mode : Constant Bit rate : 192 Kbps Channel(s) : 2 channels Channel positions : Front: L R Sampling rate : 48.0 KHz Bit depth : 16 bits Compression mode : Lossy Stream size : 134 MiB (6%) Title : wite FLIGHT OF THE DRAGON Language : English Audio #4 ID : 4 Format : AC-3 Format/Info : Audio Coding 3 Mode extension : CM (complete main) Codec ID : A_AC3 Duration : 1h 37mn Bit rate mode : Constant Bit rate : 128 Kbps Channel(s) : 1 channel Channel positions : Front: C Sampling rate : 48.0 KHz Bit depth : 16 bits Compression mode : Lossy Stream size : 89.6 MiB (4%) Title : wite LORELEI SONG Language : English Menu 00:00:00.000 : en:Chapter 1 00:01:59.494 : en:Chapter 2 00:04:47.662 : en:Chapter 3 00:06:15.416 : en:Chapter 4 00:09:21.852 : en:Chapter 5 00:11:51.335 : en:Chapter 6 00:15:55.579 : en:Chapter 7 00:20:25.349 : en:Chapter 8 00:23:57.519 : en:Chapter 9 00:27:47.040 : en:Chapter 10 00:30:21.861 : en:Chapter 11 00:33:48.401 : en:Chapter 12 00:35:50.857 : en:Chapter 13 00:40:36.475 : en:Chapter 14 00:44:00.346 : en:Chapter 15 00:47:56.540 : en:Chapter 16 00:55:29.284 : en:Chapter 17 01:00:44.057 : en:Chapter 18 01:06:59.181 : en:Chapter 19 01:10:11.332 : en:Chapter 20 01:12:39.480 : en:Chapter 21 01:16:57.404 : en:Chapter 22 01:20:21.608 : en:Chapter 23 01:22:52.425 : en:Chapter 24 01:24:40.825 : en:Chapter 25 01:26:25.263 : en:Chapter 26 01:28:35.018 : en:Chapter 27 01:32:17.573 : en:Chapter 28

unionpeer.com

Доспехи Бога 1986 - скачать бесплатно через торрент в хорошем качестве. Без регистрации

www.kinovit.net

Название: Доспехи бога / Long xiong hu di / Armour of God (1986) BDRip-AVC от 0ptimus | P, P2, A | Китайская версия
Качество видео: BDRip-AVC
Перевод: Профессиональный многоголосый, профессиональный двухголосый, авторский одноголосый
Видео: h.264 2449 Кбит/с, 1024x556, 23.976 кадр/с
Аудио: • №1: Русский (AC3, 6 ch, 384 Кбит/с) Профессиональный многоголосый [Омикрон]
Скачать

Загрузка начнется в течение 5 сек.

2.73 GB

Название: Доспехи Бога / Armour of God / Long xiong hu di (1986) BDRip-AVC от Youtracker | P
Качество видео: BDRip-AVC
Перевод: Профессиональный (многоголосый, закадровый) студия "Омикрон&quot
Формат видео: MKV
Видео: 1024x554 (16:9), 23.976 fps, h364 ~ 2747 kbps avg, 0.162 bit/pixel
Аудио: 48 kHz, АС3 6 ch, 448 kbps, русский
Скачать

Загрузка начнется в течение 5 сек.

2.19 GB

Название: Доспехи Бога / Armour of God / Long xiong hu di (1986) BDRip от Youtracker | P
Качество видео: BDRip
Перевод: Профессиональный (многоголосый, закадровый) студия "Омикрон&quot
Формат видео: AVI
Видео: 720x384 (1.875:1), 23.976 fps, XViD ~ 1671 kbps avg, 0.252 bit/pixel
Аудио: 48 kHz, АС3 6 ch, 448 kbps, русский
Скачать

Загрузка начнется в течение 5 сек.

1.46 GB

Название: Доспехи Бога / Armour of God / Long xiong hu di (1986) BDRip-AVC от Тorrent-Хzona | P
Качество видео: BDRip-AVC
Перевод: Профессиональный многоголосый закадровый, студия «Омикрон»
Формат видео: MKV
Видео: MPEG4 AVC, 1024*576, 1750 Кбит/сек, 30 кадров/сек
Аудио: AC3, 48,0 КГц, 640 Кбит/сек, 6 каналов
Скачать

Загрузка начнется в течение 5 сек.

1.64 GB

Название: Доспехи бога / Armour of God (1987) BDRip | P, Р2, А
Качество видео: BDRip (Blu-Ray Remux (1080p))
Перевод: Профессиональный многоголосый, профессиональный двухголосый, авторский одноголосый
Видео: XviD, 2068 Кбит/с, 720x400, 23.976 кадр/с
Аудио: Русский (АС3, 2 ch, 192 Кбит/с) (Профессиональный многоголосый - НТВ )Русский (АС3, 2 ch, 192 Кбит/с) (Профессиональный многоголосый - РТР )Русский (АС3, 2 ch, 192 Кбит/с) (Профессиональный многоголосый - Союз Видео )Русский (АС3, 2 ch, 192 Кбит/с) (Профессиональный двухголосый - Гланц и Королёва )Русский (АС3, 6 ch, 448 Кбит/с) (Авторский одноголосый - Гаврилов)
Скачать

Загрузка начнется в течение 5 сек.

2.05 GB

Название: Доспехи Бога: Дилогия / Armour of God: Dilogy (1986-1991) BDRip 1080p
Качество видео: BDRip 1080p (источник: HDTRACKER / Blu-ray Remux / 1080p)BDRip 1080p (источник: HD VIDEO / Blu-ray Remux / 1080p)
Перевод: Авторский (одноголосый, закадровый) Андрей Гаврилов + Профессиональный (двухголосый, закадровый) телеканал НТВ + Професиональный (двухголосый, закадровый) П.Гланц и И.Королёва + Профессиональный (двух
Видео: x264 1920х1080 (16:9), 11390 Kbps, 23.976 fps, 0.229 bit/pixel1920х808 (2.40:1), 9668 Kbps, 23.976 fps, 0.260 bit/pixel
Аудио: 48.0 kHz, AC3 Dolby Digital, 3/2 (L,C,R,l,r) + LFE ch, 448 kbps [Авторский, А. Гаврилов]48.0 kHz, AC3 Dolby Digital, 2/0 (L,R) ch, 192 kbps [Двухголосый, телеканал НТВ]48.0 kHz, AC3 Dolby Digital, 2/0 (L,R) ch, 192 kbps [Двухголосый, телеканал НТВ]48.0 kHz, AC3 Dolby Digital, 2/0 (L,R) ch, 192 kbps [Авторский, А. Кашкин]48.0 kHz, AC3 Dolby Digital, 2/0 (L,R) ch, 640 kbps [Двухголосый, П.Гланц и И.Королёва]48.0 kHz, AC3 Dolby Digital, 3/2 (L,C,R,l,r) + LFE ch, 640 kbps [Двухголосый, П.Гланц и И.Королёва]48.0 kHz, AC3 Dolby Digital, 2/0 (L,R) ch, 192 kbps [Двухголосый, Союз Видео]
Скачать

Загрузка начнется в течение 5 сек.

15.91 GB

Скачать торрент "Доспехи Бога. Трилогия (1986,1991,2012) MP4"

роизводство: Гонконг, Югославия, Golden Harvest Company, Paragon Films Ltd., Towa Productions, Beijing Dragon Garden Culture & Art, Emperor Film Production Жанр: Боевик, Комедия, Приключения

Режиссер: Джеки Чан, Эрик Цан Актеры: Джеки Чан, Алан Там, Розамунд Кван, Лола Форнер, Божидар Смилянич, Кен Бойл, Джон Ладальски, Роберт О’Брайэн, Борис Грегорич, Марсия Чишолм, Ева Кобо, Шоко Икеда, Дэниэл Минтц, Альдо Самбрелл, Кен Гудман, Лин Персивал, Брюс Фонтейн, Квон Сан У, Ляо Фань, Синтхун Яо, Чжан Ланьсинь, Лаура Вейссбеккер, Оливер Платт, Шу Ци, Кэйтлин Дешель, Кенни Джи

Описание: «Азиатский ястреб» — так назвали героя Джеки в Европе. Когда он похитил в Африке ритуальный меч, то не предполагал, что это начало опасных приключений. Оказывается, что меч — часть древних доспехов Бога, и если их уничтожить, то в мире будут править силы Ужаса и Зла. Азиатский Ястреб возвращается! На этот раз ему предстоит новая работа, из-за которой наш герой опять приезжает в Мадрид. Некий загадочный миллионер предлагает Ястребу заняться поисками нацистских сокровищ, которые спрятаны в глубине африканской пустыни. Он передает ключ к сокровищнице, соглашается финансировать экспедицию и отправляет с Ястребом попутчицу — специалиста по Африке Аду. Главный герой истории — работающий по всему миру охотник за сокровищами Джей Си по кличке Ястреб. Известный антиквар предлагает ему отыскать шесть редких статуэток в виде голов животных. В свое время эти бронзовые скульптуры входили в набор из 12-ти предметов, олицетворявших знаки зодиака.

Продолжительность: 01:37:54 | 01:46:39 | 02:02:56 Перевод: Дублированный, Многоголосый закадровый студия «Омикрон», НТВ, Одноголосый закадровый Юрий Живов (с VHS), Дольский Качество видео: HDRip

Доспехи Бога / Armour of God / Lung hing foo dai (1986) HDRip

Прoизводство: Гонконг, Югославия, Golden Harvest Company, Golden Way Films Ltd., Jadran Film Жaнр: Боевик, Комедия, Приключения

Режиссер: Джеки Чан, Саммо Хун Актeры: Джеки Чан, Алан Там, Розамунд Кван, Лола Форнер, Божидар Смилянич, Кен Бойл, Джон Ладальски, Роберт О’Брайэн, Борис Грегорич, Марсия Чишолм

Опиcание: «Азиатский ястреб» - так назвали героя Джеки в Европе. Когда он похитил в Африке ритуальный меч, то не предполагал, что это начало опасных приключений. Оказывается, что меч - часть древних доспехов Бога, и если их уничтожить, то в мире будут править силы Ужаса и Зла. Силы Зла, которые укрылись в неприступном монастыре, узнают, что у Джеки есть доступ к остальным доспехам. Они похищают девушку, которую любит Ястреб, и требуют выкупа. Понимая, что одной ловкостью ему не справиться с полчищами бандитов, Джеки добровольно становится человеком - бомбой. Но этот козырь он приберег на самый крайний случай…

Продолжительноcть: 01:37:54 Качество видео: HDRip

Доспехи бога 2: Операция Кондор / The Armour of God 2: Operation Condor / Fei ying gai wak (1991)

Прoизводство: Гонконг, Golden Harvest Company, Paragon Films Ltd. Жaнр: Боевик, Комедия, Приключения

Режиccер: Джеки Чан Aктеры: Джеки Чан, Ева Кобо, Шоко Икеда, Дэниэл Минтц, Альдо Самбрелл, Кен Гудман, Лин Персивал, Брюс Фонтейн, Уэйн Арчер

Опиcание: Азиатский Ястреб возвращается! На этот раз ему предстоит новая работа, из-за которой наш герой опять приезжает в Мадрид. Некий загадочный миллионер предлагает Ястребу заняться поисками нацистских сокровищ, которые спрятаны в глубине африканской пустыни. Он передает ключ к сокровищнице, соглашается финансировать экспедицию и отправляет с Ястребом попутчицу — специалиста по Африке Аду. Во-время, своего пребывания в Мадриде, Ястреб знакомится с немецкой девушкой Эльзой, которая разыскивает своего деда, пропавшего во время войны в Африке. После ряда приключений Эльза тоже присоединяется к экспедиции.

Продoлжительность: 01:46:39 Качество видео: HDRip

Доспехи Бога 3: Миссия Зодиак / The Armour of God 3: Chinese Zodiac / Sap ji sang ciu (2012) HDRip

Прoизводство: Гонконг, Китай, Beijing Dragon Garden Culture & Art, Beijing Sparkle Roll International Culture Industry, Emperor Film Production Жaнр: Боевик, Комедия, Приключения

Режиccер: Джеки Чан Aктеры: Джеки Чан, Квон Сан У, Ляо Фань, Синтхун Яо, Чжан Ланьсинь, Лаура Вейссбеккер, Оливер Платт, Шу Ци, Кэйтлин Дешель, Кенни Джи

Опиcание: Главный герой истории — работающий по всему миру охотник за сокровищами Джей Си по кличке Ястреб. Известный антиквар предлагает ему отыскать шесть редких статуэток в виде голов животных. В свое время эти бронзовые скульптуры входили в набор из 12-ти предметов, олицетворявших знаки зодиака. Фигурки украшали фонтан легендарного Летнего дворца на окраине Пекина. В 1860 году величественное сооружение было разграблено и разрушено англо-французскими войсками на исходе Второй опиумной войны, а статуэтки безвозвратно утеряны. Сначала Джей Си с командой помощников отправляется во Францию, поскольку две статуэтки хранятся у одного из французских коллекционеров. В процессе операции по изъятию бронзовых скульптур из хорошо охраняемого замка Джей Си знакомится с Коко — китайской студенткой, учащейся в Париже. Девушка принимает активное участие в глобальной кампании по возвращению утраченных культурных ценностей в страны, откуда они были вывезены. Попутно Джей Си наживает себе злейшего врага в лице Пьера, шефа охраны замка Шато Марсо. Вместе с тем, охотник за сокровищами обретает верного друга в лице Кэтрин, разорившейся аристократки, в доме которой он находит одну из статуэток. Коко и Кэтрин присоединяются к компании Ястреба. Группа в обновленном составе направляется на тропический остров, где среди обломков севшего на мель корабля спрятаны еще две статуэтки. В тропиках Джею Си и его друзьям противостоит банда разношерстных пиратов. Только благодаря безупречным боевым навыкам героя удается одержать верх. Вернувшись домой, Джей Си с удивлением узнает, что таинственный заказчик уже собрал шесть других статуэток. Ничего удивительного в том, что Ястреб собирается преподать ему урок хороших манер.

Продoлжительность: 02:02:56 Качество видео: HDRip

mega-trek.com


Смотрите также