Несколько минут после полуночи скачать торрент


Скачать торрент Несколько минут после полуночи / Minutes Past Midnight (2016) BDRip 720p

Информация о фильмеНазвание: Несколько минут после полуночиОригинальное название: Minutes Past MidnightГод выхода: 2016Жанр: ужасы, триллерРежиссер: Robert Boocheck, Ли Кронин, Francisco Sonic KimВ ролях: Джейсон Флеминг, Барбара Стил, Мика Бурем, Оуэн МакДоннел, Стив Уолл, Артур Дарвилл

О фильме: После полуночи на земле воцаряется ужас в самых разных своих проявлениях. Демоны, каннибалы, убийцы, призраки и монстры заполоняют мир… В картине представлено девять мини-историй.

Страна: КанадаСтудия: Indiecan Entertainment, Rue Morgue Magazine, Unstable Ground ProductionsПродолжительность: 01:38:05Перевод: любительский одноголосный, закадровый [Хихикающий доктор]

ФайлКодек: H.264Качество: BDRip 720pВидео: AVC , 1280x720 (16:9), 23.976 fps ~ 4865 KbpsЗвук: AC3, 48 KHz, 6 ch ~ 640 Kb/s (русский) AC3, 48 KHz, 6 ch ~ 640 Kb/s (английский)Субтитры: английские

MI:

Общее Уникальный идентификатор : 243241584694051252896477058856889464286 (0xB6FEA00B06BA79E4AEA14581BC59B5DE) Полное имя : Q:TorFMinutes.Past.Midnight.2016.720p.mkv Формат : Matroska Версия формата : Version 2 Размер файла : 4,21 Гбайт Продолжительность : 1 ч. 38 м. Общий поток : 6145 Кбит/сек Дата кодирования : UTC 2017-08-18 10:09:08 Программа кодирования : mkvmerge v5.4.0 ('Piper') built on Mar 10 2012 13:34:39 Библиотека кодирования : libebml v1.2.3 + libmatroska v1.3.0

Видео Идентификатор : 1 Формат : AVC Формат/Информация : Advanced Video Codec Профиль формата : [email protected] Параметр CABAC формата : Да Параметр ReFrames формата : 5 кадров Идентификатор кодека : V_MPEG4/ISO/AVC Продолжительность : 1 ч. 38 м. Битрейт : 4864 Кбит/сек Ширина : 1280 пикселей Высота : 720 пикселей Соотношение сторон : 16:9 Частота кадров : 23,976 кадра/сек Цветовое пространство : YUV Субдискретизация насыщенности : 4:2:0 Битовая глубина : 8 бит Тип развёртки : Прогрессивная Бит/(Пиксели*Кадры) : 0.220 Размер потока : 3,25 Гбайт (77%) Библиотека кодирования : x264 core 152 r2851 ba24899 Настройки программы : cabac=1 / ref=5 / deblock=1:-3:-3 / analyse=0x3:0x113 / me=umh / subme=8 / psy=1 / psy_rd=1.00:0.25 / mixed_ref=1 / me_range=24 / chroma_me=1 / trellis=1 / 8x8dct=1 / cqm=0 / deadzone=21,11 / fast_pskip=1 / chroma_qp_offset=-4 / threads=22 / lookahead_threads=3 / sliced_threads=0 / nr=0 / decimate=1 / interlaced=0 / bluray_compat=0 / constrained_intra=0 / bframes=3 / b_pyramid=2 / b_adapt=1 / b_bias=0 / direct=3 / weightb=1 / open_gop=0 / weightp=2 / keyint=240 / keyint_min=24 / scenecut=40 / intra_refresh=0 / rc_lookahead=50 / rc=2pass / mbtree=1 / bitrate=4864 / ratetol=1.0 / qcomp=0.60 / qpmin=0 / qpmax=69 / qpstep=4 / cplxblur=20.0 / qblur=0.5 / ip_ratio=1.40 / aq=1:0.75 Язык : English Default : Да Forced : Нет DURATION : 01:38:05.296000000 NUMBER_OF_FRAMES : 141106 NUMBER_OF_BYTES : 3577419267 _STATISTICS_WRITING_APP : mkvmerge v14.0.0 ('Flow') 64bit _STATISTICS_WRITING_DATE_UTC : 2017-08-07 22:49:30 _STATISTICS_TAGS : BPS DURATION NUMBER_OF_FRAMES NUMBER_OF_BYTES

Аудио #1 Идентификатор : 2 Формат : AC-3 Формат/Информация : Audio Coding 3 Расширение режима : CM (complete main) Идентификатор кодека : A_AC3 Продолжительность : 1 ч. 38 м. Вид битрейта : Постоянный Битрейт : 640 Кбит/сек Каналы : 6 каналов Расположение каналов : Front: L C R, Side: L R, LFE Частота : 48,0 КГц Битовая глубина : 16 бит Метод сжатия : С потерями Размер потока : 449 Мбайт (10%) Заголовок : xixidok Язык : Russian Default : Да Forced : Нет

Аудио #2 Идентификатор : 3 Формат : AC-3 Формат/Информация : Audio Coding 3 Расширение режима : CM (complete main) Идентификатор кодека : A_AC3 Продолжительность : 1 ч. 38 м. Вид битрейта : Постоянный Битрейт : 640 Кбит/сек Каналы : 6 каналов Расположение каналов : Front: L C R, Side: L R, LFE Частота : 48,0 КГц Битовая глубина : 16 бит Метод сжатия : С потерями Размер потока : 449 Мбайт (10%) Заголовок : 6 ch ENG Язык : English Default : Нет Forced : Нет

Текст Идентификатор : 4 Формат : UTF-8 Идентификатор кодека : S_TEXT/UTF8 Идентификатор кодека/Информация : UTF-8 Plain Text Язык : English Default : Нет Forced : Нет

Меню 00:00:00.000 : en:00:00:00.000 00:06:32.642 : en:00:06:32.642 00:15:16.249 : en:00:15:16.249 00:24:15.329 : en:00:24:15.329 00:36:48.415 : en:00:36:48.415 00:50:36.575 : en:00:50:36.575 01:06:14.721 : en:01:06:14.721 01:14:03.856 : en:01:14:03.856 01:29:00.752 : en:01:29:00.752 01:34:51.060 : en:01:34:51.060 01:38:04.879 : en:01:38:04.879

krutor.org

rutor.org :: Несколько минут после полуночи / Minutes Past Midnight (2016) BDRip 720p

main-rutor.org

Информация о фильмеНазвание: Несколько минут после полуночиОригинальное название: Minutes Past MidnightГод выхода: 2016Жанр: ужасы, триллерРежиссер: Robert Boocheck, Ли Кронин, Francisco Sonic KimВ ролях: Джейсон Флеминг, Барбара Стил, Мика Бурем, Оуэн МакДоннел, Стив Уолл, Артур Дарвилл

О фильме: После полуночи на земле воцаряется ужас в самых разных своих проявлениях. Демоны, каннибалы, убийцы, призраки и монстры заполоняют мир… В картине представлено девять мини-историй.

Страна: КанадаСтудия: Indiecan Entertainment, Rue Morgue Magazine, Unstable Ground ProductionsПродолжительность: 01:38:05Перевод: любительский одноголосный, закадровый [Хихикающий доктор]

ФайлКодек: H.264Качество: BDRip 720pВидео: AVC, 1280x720 (16:9), 23.976 fps ~ 4865 KbpsЗвук: AC3, 48 KHz, 6 ch ~ 640 Kb/s (русский) AC3, 48 KHz, 6 ch ~ 640 Kb/s (английский)Субтитры: английские

MI:

Общее Уникальный идентификатор : 243241584694051252896477058856889464286 (0xB6FEA00B06BA79E4AEA14581BC59B5DE) Полное имя : Q:TorFMinutes.Past.Midnight.2016.720p.mkv Формат : Matroska Версия формата : Version 2 Размер файла : 4,21 Гбайт Продолжительность : 1 ч. 38 м. Общий поток : 6145 Кбит/сек Дата кодирования : UTC 2017-08-18 10:09:08 Программа кодирования : mkvmerge v5.4.0 ('Piper') built on Mar 10 2012 13:34:39 Библиотека кодирования : libebml v1.2.3 + libmatroska v1.3.0

Видео Идентификатор : 1 Формат : AVC Формат/Информация : Advanced Video Codec Профиль формата : [email protected] Параметр CABAC формата : Да Параметр ReFrames формата : 5 кадров Идентификатор кодека : V_MPEG4/ISO/AVC Продолжительность : 1 ч. 38 м. Битрейт : 4864 Кбит/сек Ширина : 1280 пикселей Высота : 720 пикселей Соотношение сторон : 16:9 Частота кадров : 23,976 кадра/сек Цветовое пространство : YUV Субдискретизация насыщенности : 4:2:0 Битовая глубина : 8 бит Тип развёртки : Прогрессивная Бит/(Пиксели*Кадры) : 0.220 Размер потока : 3,25 Гбайт (77%) Библиотека кодирования : x264 core 152 r2851 ba24899 Настройки программы : cabac=1 / ref=5 / deblock=1:-3:-3 / analyse=0x3:0x113 / me=umh / subme=8 / psy=1 / psy_rd=1.00:0.25 / mixed_ref=1 / me_range=24 / chroma_me=1 / trellis=1 / 8x8dct=1 / cqm=0 / deadzone=21,11 / fast_pskip=1 / chroma_qp_offset=-4 / threads=22 / lookahead_threads=3 / sliced_threads=0 / nr=0 / decimate=1 / interlaced=0 / bluray_compat=0 / constrained_intra=0 / bframes=3 / b_pyramid=2 / b_adapt=1 / b_bias=0 / direct=3 / weightb=1 / open_gop=0 / weightp=2 / keyint=240 / keyint_min=24 / scenecut=40 / intra_refresh=0 / rc_lookahead=50 / rc=2pass / mbtree=1 / bitrate=4864 / ratetol=1.0 / qcomp=0.60 / qpmin=0 / qpmax=69 / qpstep=4 / cplxblur=20.0 / qblur=0.5 / ip_ratio=1.40 / aq=1:0.75 Язык : English Default : Да Forced : Нет DURATION : 01:38:05.296000000 NUMBER_OF_FRAMES : 141106 NUMBER_OF_BYTES : 3577419267 _STATISTICS_WRITING_APP : mkvmerge v14.0.0 ('Flow') 64bit _STATISTICS_WRITING_DATE_UTC : 2017-08-07 22:49:30 _STATISTICS_TAGS : BPS DURATION NUMBER_OF_FRAMES NUMBER_OF_BYTES

Аудио #1 Идентификатор : 2 Формат : AC-3 Формат/Информация : Audio Coding 3 Расширение режима : CM (complete main) Идентификатор кодека : A_AC3 Продолжительность : 1 ч. 38 м. Вид битрейта : Постоянный Битрейт : 640 Кбит/сек Каналы : 6 каналов Расположение каналов : Front: L C R, Side: L R, LFE Частота : 48,0 КГц Битовая глубина : 16 бит Метод сжатия : С потерями Размер потока : 449 Мбайт (10%) Заголовок : xixidok Язык : Russian Default : Да Forced : Нет

Аудио #2 Идентификатор : 3 Формат : AC-3 Формат/Информация : Audio Coding 3 Расширение режима : CM (complete main) Идентификатор кодека : A_AC3 Продолжительность : 1 ч. 38 м. Вид битрейта : Постоянный Битрейт : 640 Кбит/сек Каналы : 6 каналов Расположение каналов : Front: L C R, Side: L R, LFE Частота : 48,0 КГц Битовая глубина : 16 бит Метод сжатия : С потерями Размер потока : 449 Мбайт (10%) Заголовок : 6 ch ENG Язык : English Default : Нет Forced : Нет

Текст Идентификатор : 4 Формат : UTF-8 Идентификатор кодека : S_TEXT/UTF8 Идентификатор кодека/Информация : UTF-8 Plain Text Язык : English Default : Нет Forced : Нет

Меню 00:00:00.000 : en:00:00:00.000 00:06:32.642 : en:00:06:32.642 00:15:16.249 : en:00:15:16.249 00:24:15.329 : en:00:24:15.329 00:36:48.415 : en:00:36:48.415 00:50:36.575 : en:00:50:36.575 01:06:14.721 : en:01:06:14.721 01:14:03.856 : en:01:14:03.856 01:29:00.752 : en:01:29:00.752 01:34:51.060 : en:01:34:51.060 01:38:04.879 : en:01:38:04.879

Скачать торрент Несколько минут после полуночи / Minutes Past Midnight (2016) BDRip 1080p

Производство: Канада, Indiecan Entertainment, Rue Morgue Magazine, Unstable Ground ProductionsЖанр: Ужасы, Триллер

Режиссер: Ли КронинАктеры: Джейсон Флеминг, Барбара Стил, Мика Бурем, Оуэн МакДоннел, Стив Уолл, Артур Дарвилл.

Описание:После полуночи на землю приходит ужас в самых разных своих проявлениях. Демоны, каннибалы, убийцы, призраки и монстры заполоняют мир в таких сверхъестественных, фантастичних и просто ужасных историях. В картине представлено девять мини-фильмов ужасов

Продолжительность: 01:38:05Качество видео: BDRip (1080p)Перевод / озвучка: anton1 / Любительский, одноголосый [Хихикающий доктор] Субтитры: Английские

Видео: AVC/H.264, 9653 Кбит/с, 1920x1080Аудио 1: Русский (AC3, 6 ch, 640 Кбит/с)Аудио 2: Английский (DTS, 6 ch, 1509 Кбит/с)

Семпл

Mediainfo:

общее Уникальный идентификатор : 175887819174888647959075245508387489115 (0x8452C30406C48EFBA2553F26C45D455B) Полное имя : E:MMMMMinutes.Past.Midnight.2016.1080p.BDRip.x264.mkv Формат : Matroska Версия формата : Version 4 / Version 2 Размер файла : 8,09 Гбайт Продолжительность : 1 ч. 38 м. Общий поток : 11,8 Мбит/сек Дата кодирования : UTC 2017-08-17 15:37:59 Программа кодирования : mkvmerge v6.9.1 ('Blue Panther') 64bit built on Apr 18 2014 18:23:38 Библиотека кодирования : libebml v1.3.0 + libmatroska v1.4.1

Видео Идентификатор : 1 Формат : AVC Формат/Информация : Advanced Video Codec Профиль формата : [email protected] Параметр CABAC формата : Да Параметр ReFrames формата : 4 кадра Идентификатор кодека : V_MPEG4/ISO/AVC Продолжительность : 1 ч. 38 м. Битрейт : 9653 Кбит/сек Ширина : 1920 пикселей Высота : 1080 пикселей Соотношение сторон : 16:9 Режим частоты кадров : Постоянный Частота кадров : 23,976 (24000/1001) кадра/сек Цветовое пространство : YUV Субдискретизация насыщенности : 4:2:0 Битовая глубина : 8 бит Тип развёртки : Прогрессивная Бит/(Пиксели*Кадры) : 0.194 Размер потока : 6,45 Гбайт (80%) Библиотека кодирования : x264 core 152 r2851 ba24899 Настройки программы : cabac=1 / ref=4 / deblock=1:-3:-3 / analyse=0x3:0x113 / me=umh / subme=8 / psy=1 / psy_rd=1.00:0.25 / mixed_ref=1 / me_range=24 / chroma_me=1 / trellis=1 / 8x8dct=1 / cqm=0 / deadzone=21,11 / fast_pskip=1 / chroma_qp_offset=-4 / threads=30 / lookahead_threads=5 / sliced_threads=0 / nr=0 / decimate=1 / interlaced=0 / bluray_compat=0 / constrained_intra=0 / bframes=3 / b_pyramid=2 / b_adapt=1 / b_bias=0 / direct=3 / weightb=1 / open_gop=0 / weightp=2 / keyint=240 / keyint_min=24 / scenecut=40 / intra_refresh=0 / rc_lookahead=50 / rc=2pass / mbtree=1 / bitrate=9653 / ratetol=1.0 / qcomp=0.60 / qpmin=0 / qpmax=69 / qpstep=4 / cplxblur=20.0 / qblur=0.5 / ip_ratio=1.40 / aq=1:0.75 Default : Да Forced : Нет

Аудио #1 Идентификатор : 2 Формат : AC-3 Формат/Информация : Audio Coding 3 Расширение режима : CM (complete main) Параметр Endianness формата : Big Идентификатор кодека : A_AC3 Продолжительность : 1 ч. 38 м. Вид битрейта : Постоянный Битрейт : 640 Кбит/сек Каналы : 6 каналов Расположение каналов : Front: L C R, Side: L R, LFE Частота : 48,0 КГц Частота кадров : 31,250 кадров/сек (1536 spf) Метод сжатия : С потерями Размер потока : 449 Мбайт (5%) Заголовок : xixidoktor Язык : Russian Default : Да Forced : Нет

Аудио #2 Идентификатор : 3 Формат : DTS Формат/Информация : Digital Theater Systems Режим : 16 Параметр Endianness формата : Big Идентификатор кодека : A_DTS Продолжительность : 1 ч. 38 м. Вид битрейта : Постоянный Битрейт : 1509 Кбит/сек Каналы : 6 каналов Расположение каналов : Front: L C R, Side: L R, LFE Частота : 48,0 КГц Частота кадров : 93,750 кадра/сек (512 spf) Битовая глубина : 24 бит Метод сжатия : С потерями Размер потока : 1,03 Гбайт (13%) Заголовок : original Язык : English Default : Нет Forced : Нет

Текст Идентификатор : 4 Формат : UTF-8 Идентификатор кодека : S_TEXT/UTF8 Идентификатор кодека/Информация : UTF-8 Plain Text Язык : English Default : Нет Forced : Нет

Меню 00:00:00.000 : en:00:00:00.000 00:06:32.642 : en:00:06:32.642 00:15:16.249 : en:00:15:16.249 00:24:15.329 : en:00:24:15.329 00:36:48.415 : en:00:36:48.415 00:50:36.575 : en:00:50:36.575 01:06:14.721 : en:01:06:14.721 01:14:03.856 : en:01:14:03.856 01:29:00.752 : en:01:29:00.752 01:34:51.060 : en:01:34:51.060 01:38:04.879 : en:01:38:04.879

krutor.org

Скачать торрент Несколько минут после полуночи / Minutes Past Midnight (2016) BDRip 1080p

Производство: Канада, Indiecan Entertainment, Rue Morgue Magazine, Unstable Ground ProductionsЖанр: Ужасы, Триллер

Режиссер: Ли КронинАктеры: Джейсон Флеминг, Барбара Стил, Мика Бурем, Оуэн МакДоннел, Стив Уолл, Артур Дарвилл.

Описание:После полуночи на землю приходит ужас в самых разных своих проявлениях. Демоны, каннибалы, убийцы, призраки и монстры заполоняют мир в таких сверхъестественных, фантастичних и просто ужасных историях. В картине представлено девять мини-фильмов ужасов

Продолжительность: 01:38:05Качество видео: BDRip (1080p)Перевод / озвучка: anton1 / Любительский, одноголосый [Хихикающий доктор] Субтитры: Английские

Видео: AVC/H.264, 9653 Кбит/с, 1920x1080Аудио 1: Русский (AC3, 6 ch, 640 Кбит/с)Аудио 2: Английский (DTS, 6 ch, 1509 Кбит/с)

Семпл

Mediainfo:

общее Уникальный идентификатор : 175887819174888647959075245508387489115 (0x8452C30406C48EFBA2553F26C45D455B) Полное имя : E:MMMMMinutes.Past.Midnight.2016.1080p.BDRip.x264.mkv Формат : Matroska Версия формата : Version 4 / Version 2 Размер файла : 8,09 Гбайт Продолжительность : 1 ч. 38 м. Общий поток : 11,8 Мбит/сек Дата кодирования : UTC 2017-08-17 15:37:59 Программа кодирования : mkvmerge v6.9.1 ('Blue Panther') 64bit built on Apr 18 2014 18:23:38 Библиотека кодирования : libebml v1.3.0 + libmatroska v1.4.1

Видео Идентификатор : 1 Формат : AVC Формат/Информация : Advanced Video Codec Профиль формата : [email protected] Параметр CABAC формата : Да Параметр ReFrames формата : 4 кадра Идентификатор кодека : V_MPEG4/ISO/AVC Продолжительность : 1 ч. 38 м. Битрейт : 9653 Кбит/сек Ширина : 1920 пикселей Высота : 1080 пикселей Соотношение сторон : 16:9 Режим частоты кадров : Постоянный Частота кадров : 23,976 (24000/1001) кадра/сек Цветовое пространство : YUV Субдискретизация насыщенности : 4:2:0 Битовая глубина : 8 бит Тип развёртки : Прогрессивная Бит/(Пиксели*Кадры) : 0.194 Размер потока : 6,45 Гбайт (80%) Библиотека кодирования : x264 core 152 r2851 ba24899 Настройки программы : cabac=1 / ref=4 / deblock=1:-3:-3 / analyse=0x3:0x113 / me=umh / subme=8 / psy=1 / psy_rd=1.00:0.25 / mixed_ref=1 / me_range=24 / chroma_me=1 / trellis=1 / 8x8dct=1 / cqm=0 / deadzone=21,11 / fast_pskip=1 / chroma_qp_offset=-4 / threads=30 / lookahead_threads=5 / sliced_threads=0 / nr=0 / decimate=1 / interlaced=0 / bluray_compat=0 / constrained_intra=0 / bframes=3 / b_pyramid=2 / b_adapt=1 / b_bias=0 / direct=3 / weightb=1 / open_gop=0 / weightp=2 / keyint=240 / keyint_min=24 / scenecut=40 / intra_refresh=0 / rc_lookahead=50 / rc=2pass / mbtree=1 / bitrate=9653 / ratetol=1.0 / qcomp=0.60 / qpmin=0 / qpmax=69 / qpstep=4 / cplxblur=20.0 / qblur=0.5 / ip_ratio=1.40 / aq=1:0.75 Default : Да Forced : Нет

Аудио #1 Идентификатор : 2 Формат : AC-3 Формат/Информация : Audio Coding 3 Расширение режима : CM (complete main) Параметр Endianness формата : Big Идентификатор кодека : A_AC3 Продолжительность : 1 ч. 38 м. Вид битрейта : Постоянный Битрейт : 640 Кбит/сек Каналы : 6 каналов Расположение каналов : Front: L C R, Side: L R, LFE Частота : 48,0 КГц Частота кадров : 31,250 кадров/сек (1536 spf) Метод сжатия : С потерями Размер потока : 449 Мбайт (5%) Заголовок : xixidoktor Язык : Russian Default : Да Forced : Нет

Аудио #2 Идентификатор : 3 Формат : DTS Формат/Информация : Digital Theater Systems Режим : 16 Параметр Endianness формата : Big Идентификатор кодека : A_DTS Продолжительность : 1 ч. 38 м. Вид битрейта : Постоянный Битрейт : 1509 Кбит/сек Каналы : 6 каналов Расположение каналов : Front: L C R, Side: L R, LFE Частота : 48,0 КГц Частота кадров : 93,750 кадра/сек (512 spf) Битовая глубина : 24 бит Метод сжатия : С потерями Размер потока : 1,03 Гбайт (13%) Заголовок : original Язык : English Default : Нет Forced : Нет

Текст Идентификатор : 4 Формат : UTF-8 Идентификатор кодека : S_TEXT/UTF8 Идентификатор кодека/Информация : UTF-8 Plain Text Язык : English Default : Нет Forced : Нет

Меню 00:00:00.000 : en:00:00:00.000 00:06:32.642 : en:00:06:32.642 00:15:16.249 : en:00:15:16.249 00:24:15.329 : en:00:24:15.329 00:36:48.415 : en:00:36:48.415 00:50:36.575 : en:00:50:36.575 01:06:14.721 : en:01:06:14.721 01:14:03.856 : en:01:14:03.856 01:29:00.752 : en:01:29:00.752 01:34:51.060 : en:01:34:51.060 01:38:04.879 : en:01:38:04.879

mrutor.org


Смотрите также