Скачать торрент яблочное зернышко проект альфа


rutor.org :: Проект Альфа / Яблочное зёрнышко Альфа / Appleseed Alpha (2014) BDRip-AVC | iPad

Проект Альфа (Яблочное зёрнышко Альфа) / Appleseed Alpha (2014) BDRip-AVC | iPad | P

Название: Проект Альфа (Яблочное зёрнышко Альфа)Оригинальное название: Appleseed AlphaГод выхода: 2014Жанр: мультфильм, боевик, приключения, фантастикаРежиссер: Синдзи АрамакиВ ролях: Люси Кристиан, Дэвид Матранга, Элизабет Бунч, Вендель Калверт, Адам Гиббс, Крис Хатчинсон, Брина Паленсия, Джош Шелтз

О фильме: На основе комиксов, от создателя Призрак в доспехах, молодой солдат Дюнан и киборг Бриарей, пережив третью мировую войну, путешествуют по апокалиптическому Нью-Йорку, в поисках легендарного города Олимпа, будущего оплота человечества.

Страна: Япония, СШАСтудия: Stage 6 Films, Lucent Pictures Entertainment, Sola Digital Arts

Продолжительность: 01:33:15Перевод: Русский профессиональный многоголосый закадровый

ФайлКодек: H.264Качество: BDRip-AVC [576p]Видео: 1024x576 (16:9) at 24.000 fps, AVC at 2 800 kbpsЗвук: 1: АAС 2.0 170 kbps - Русский профессиональный многоголосый закадровый 2: АAС 2.0 170 kbps - АнглийскийСубтитры: Русские, английские

MI

General Complete name : C:CREATE264mod1outAppleseed.Alpha.2014.576p.P.m4v Format : MPEG-4 Codec ID : M4V File size : 2.06 GiB Duration : 1h 33mn Overall bit rate mode : Variable Overall bit rate : 3 159 Kbps Movie name : Проект Альфа / Яблочное зёрнышко Альфа Performer : Shinji Aramaki Genre : Action & Adventure ContentType : Short Film Deion : На основе комиксов, от создателя Призрак в доспехах, молодой солдат Дюнан и киборг Бриарей, пережив третью мировую войну, путешествуют по апокалиптическому Нью-Йорку, в поисках легендарного города Олимпа, будущего оплота человечества. Recorded date : UTC 2014-07-22 08:00:00 Encoded date : UTC 2014-09-04 19:28:32 Tagged date : UTC 2014-09-04 19:40:55 Copyright : Sola Digital Arts, Stage 6 Films Cover : Yes ContentRating : mpaa|PG-13|300|

Title/Sort : Appleseed Alpha LongDeion : На основе комиксов, от создателя Призрак в доспехах, молодой солдат Дюнан и киборг Бриарей, пережив третью мировую войну, путешествуют по апокалиптическому Нью-Йорку, в поисках легендарного города Олимпа, будущего оплота человечества. AppleStoreCatalogID : 886930644 Vendor : Apple:vendor_id:2014-837990

Video ID : 1 Format : AVC Format/Info : Advanced Video Codec Format profile : [email protected] Format settings, CABAC : Yes Format settings, ReFrames : 9 frames Codec ID : avc1 Codec ID/Info : Advanced Video Coding Duration : 1h 33mn Bit rate : 2 805 Kbps Maximum bit rate : 19.1 Mbps Width : 1 024 pixels Height : 576 pixels Display aspect ratio : 16:9 Frame rate mode : Constant Frame rate : 23.976 fps Color space : YUV Chroma subsampling : 4:2:0 Bit depth : 8 bits Scan type : Progressive Bits/(Pixel*Frame) : 0.198 Stream size : 1.83 GiB (89%) Language : English Encoded date : UTC 2014-09-04 19:28:32 Tagged date : UTC 2014-09-04 19:29:00

Audio #1 ID : 2 Format : AAC Format/Info : Advanced Audio Codec Format profile : LC Codec ID : 40 Duration : 1h 33mn Bit rate mode : Variable Bit rate : 165 Kbps Maximum bit rate : 222 Kbps Channel(s) : 2 channels Channel positions : Front: L R Sampling rate : 48.0 KHz Compression mode : Lossy Stream size : 110 MiB (5%) Title : MVO _iTunes Russia_ Language : Russian Encoded date : UTC 2014-09-04 19:22:19 Tagged date : UTC 2014-09-04 19:29:00

Audio #2 ID : 3 Format : AAC Format/Info : Advanced Audio Codec Format profile : LC Codec ID : 40 Duration : 1h 33mn Bit rate mode : Variable Bit rate : 177 Kbps Maximum bit rate : 223 Kbps Channel(s) : 2 channels Channel positions : Front: L R Sampling rate : 48.0 KHz Compression mode : Lossy Stream size : 118 MiB (6%) Language : English Encoded date : UTC 2014-09-04 19:26:14 Tagged date : UTC 2014-09-04 19:29:00

Text #1 ID : 4 Format : Timed Text Muxing mode : sbtl Codec ID : tx3g Duration : 1h 33mn Bit rate mode : Variable Bit rate : 82 bps Stream size : 56.0 KiB (0%) Title : Full Language : Russian Encoded date : UTC 2014-09-04 19:29:00 Tagged date : UTC 2014-09-04 19:29:00

Text #2 ID : 5 Format : Timed Text Muxing mode : sbtl Codec ID : tx3g Duration : 1h 33mn Bit rate mode : Variable Bit rate : 52 bps Stream size : 35.2 KiB (0%) Title : Full Language : English Encoded date : UTC 2014-09-04 19:29:00 Tagged date : UTC 2014-09-04 19:29:00

Menu ID : 6 Codec ID : text Duration : 1h 33mn Encoded date : UTC 2014-09-04 19:29:29 Tagged date : UTC 2014-09-04 19:29:29 Bit rate mode : VBR

iTunes tags

Sort Name: Appleseed Alpha XID: Apple:vendor_id:2014-837990 Content ID: 886930644 Copyright: Sola Digital Arts, Stage 6 Films ScreenWriters: Марианн Кравчик, Масамунэ Сиро Producers: Джозеф Чоу Director: Синдзи Арамаки Cast: Luci Christian (Deunan Knute), David Matranga (Briareos Hecatonchires), Wendel Calvert (Two Horns (voice)), Adam Gibbs (Olson (voice)), Elizabeth Bunch (Nyx (voice)), Chris Hutchinson (Matthews (voice)), Josh Sheltz (Talos (voice)) Rating: PG-13 Long Deion: На основе комиксов, от создателя Призрак в доспехах, молодой солдат Дюнан и киборг Бриарей, пережив третью мировую войну, путешествуют по апокалиптическому Нью-Йорку, в поисках легендарного города Олимпа, будущего оплота человечества. Deion: На основе комиксов, от создателя Призрак в доспехах, молодой солдат Дюнан и киборг Бриарей, пережив третью мировую войну, путешествуют по апокалиптическому Нью-Йорку, в поисках легендарного города Олимпа, будущего оплота человечества. Release Date: 2014-07-22T08:00:00Z Genre: Action & Adventure Artist: Shinji Aramaki Name: Проект Альфа / Яблочное зёрнышко Альфа

x264

x264 [info]: frame I:937 Avg QP:13.60 size:110646 x264 [info]: frame P:29478 Avg QP:18.24 size: 33049 x264 [info]: frame B:103745 Avg QP:21.27 size: 8525 x264 [info]: consecutive B-frames: 3.2% 3.1% 10.8% 16.0% 15.0% 23.4% 9.2% 6.8% 5.0% 2.4% 1.3% 0.6% 1.0% 1.4% 0.6% x264 [info]: mb I I16..4: 15.0% 50.0% 35.0% x264 [info]: mb P I16..4: 1.3% 6.6% 2.4% P16..4: 29.8% 29.9% 13.1% 5.0% 1.4% skip:10.6% x264 [info]: mb B I16..4: 0.1% 0.9% 0.3% B16..8: 31.9% 14.2% 2.2% direct: 4.2% skip:46.1% L0:39.9% L1:43.5% BI:16.6% x264 [info]: 8x8 transform intra:63.3% inter:39.2% x264 [info]: coded y,uvDC,uvAC intra: 83.6% 61.3% 40.7% inter: 16.8% 9.7% 5.3% x264 [info]: i16 v,h,dc,p: 14% 12% 14% 60% x264 [info]: i8 v,h,dc,ddl,ddr,vr,hd,vl,hu: 9% 12% 8% 9% 13% 12% 13% 11% 14% x264 [info]: i4 v,h,dc,ddl,ddr,vr,hd,vl,hu: 11% 12% 7% 9% 15% 12% 12% 10% 12% x264 [info]: i8c dc,h,v,p: 32% 36% 18% 14% x264 [info]: Weighted P-Frames: Y:6.3% UV:3.4% x264 [info]: ref P L0: 56.8% 9.7% 14.5% 6.1% 4.1% 3.2% 2.5% 1.6% 1.4% 0.3% 0.0% x264 [info]: ref B L0: 83.3% 7.8% 3.9% 1.6% 1.3% 0.9% 0.8% 0.3% x264 [info]: ref B L1: 93.6% 6.4% x264 [info]: kb/s:2805.50

main-rutor.org

( ) / Appleseed Alpha (2014) BDRip 1080p NNNB

: , , , , -, , .

: BDRip 1080p ( Blu-ray): 1912x1080, 11850 /, 23.976 /, AVC, x264, [email protected], 0.239 /[*], 2pass 1: AC3 5.1 48 kHz 384 kbps - () - iTunes Russia 2: AC3 5.1 48 kHz 640 kbps - English

Format : MatroskaFormat version : Version 2File size : 8.38 GiBDuration : 1h 33mnOverall bit rate : 12.9 MbpsMovie name : Appleseed Alpha.(2014).BDRip.1080p.[denis100]Encoded date : UTC 2014-08-28 13:56:00Writing application : mkvmerge v5.8.0 ('No Sleep / Pillow') built on Sep 2 2012 15:37:04Writing library : libebml v1.2.3 + libmatroska v1.3.0

VideoID : 1Format : AVCFormat/Info : Advanced Video CodecFormat profile : [email protected]Format settings, CABAC : YesFormat settings, ReFrames : 4 framesCodec ID : V_MPEG4/ISO/AVCDuration : 1h 33mnBit rate : 11.9 MbpsWidth : 1 912 pixelsHeight : 1 080 pixelsDisplay aspect ratio : 16:9Frame rate mode : ConstantFrame rate : 23.976 fpsColor space : YUVChroma subsampling : 4:2:0Bit depth : 8 bitsScan type : ProgressiveBits/(Pixel*Frame) : 0.239Stream size : 7.55 GiB (90%)Title : Appleseed Alpha.(2014).BDRip.1080p.[denis100].CHDWriting library : x264 core 142 r2431 ac76440Encoding settings : cabac=1 / ref=4 / deblock=1:-3:-3 / analyse=0x3:0x113 / me=umh / subme=10 / psy=1 / psy_rd=1.10:0.10 / mixed_ref=1 / me_range=32 / chroma_me=1 / trellis=2 / 8x8dct=1 / cqm=0 / deadzone=21,11 / fast_pskip=0 / chroma_qp_offset=-2 / threads=6 / lookahead_threads=1 / sliced_threads=0 / nr=0 / decimate=1 / interlaced=0 / bluray_compat=0 / constrained_intra=0 / bframes=6 / b_pyramid=2 / b_adapt=2 / b_bias=0 / direct=3 / weightb=1 / open_gop=0 / weightp=2 / keyint=250 / keyint_min=23 / scenecut=40 / intra_refresh=0 / rc=2pass / mbtree=0 / bitrate=11850 / ratetol=2.0 / qcomp=0.70 / qpmin=0 / qpmax=69 / qpstep=4 / cplxblur=20.0 / qblur=0.5 / ip_ratio=1.40 / pb_ratio=1.30 / aq=2:1.00Language : EnglishDefault : YesForced : No

Audio #1ID : 2Format : AC-3Format/Info : Audio Coding 3Mode extension : CM (complete main)Format settings, Endianness : BigCodec ID : A_AC3Duration : 1h 33mnBit rate mode : ConstantBit rate : 384 KbpsChannel(s) : 6 channelsChannel positions : Front: L C R, Side: L R, LFESampling rate : 48.0 KHzBit depth : 16 bitsCompression mode : LossyStream size : 256 MiB (3%)Title : () [iTunes Russia]Language : RussianDefault : YesForced : No

Audio #2ID : 3Format : AC-3Format/Info : Audio Coding 3Mode extension : CM (complete main)Format settings, Endianness : BigCodec ID : A_AC3Duration : 1h 33mnBit rate mode : ConstantBit rate : 640 KbpsChannel(s) : 6 channelsChannel positions : Front: L C R, Side: L R, LFESampling rate : 48.0 KHzBit depth : 16 bitsCompression mode : LossyStream size : 427 MiB (5%)Title : EnglishLanguage : EnglishDefault : NoForced : No

Text #1ID : 4Format : UTF-8Codec ID : S_TEXT/UTF8Codec ID/Info : UTF-8 Plain TextTitle : FullLanguage : RussianDefault : NoForced : No

Text #2ID : 5Format : UTF-8Codec ID : S_TEXT/UTF8Codec ID/Info : UTF-8 Plain TextTitle : FullLanguage : EnglishDefault : NoForced : No

Text #3ID : 6Format : UTF-8Codec ID : S_TEXT/UTF8Codec ID/Info : UTF-8 Plain TextTitle : SDHLanguage : EnglishDefault : NoForced : No

Menu00:00:00.000 : :Chapter 100:05:09.935 : :Chapter 200:09:07.839 : :Chapter 300:14:45.968 : :Chapter 400:19:39.261 : :Chapter 500:29:15.629 : :Chapter 600:33:53.615 : :Chapter 700:38:17.462 : :Chapter 800:44:42.972 : :Chapter 900:51:24.123 : :Chapter 1000:56:58.040 : :Chapter 1101:02:53.478 : :Chapter 1201:08:48.875 : :Chapter 1301:13:17.435 : :Chapter 1401:19:03.072 : :Chapter 1501:24:49.167 : :Chapter 16

hdreactor.info

Мультфильм Проект Альфа / Яблочное зёрнышко Альфа / Appleseed Alpha 2014 скачать торрент

Коротко о фильме "Проект Альфа / Яблочное зёрнышко Альфа" - Действие посвящено боевой биографии Дюнан и Бриарея до попадания в Олимп.

Коротко о фильме "Проект Альфа / Яблочное зёрнышко Альфа" - Действие посвящено боевой биографии Дюнан и Бриарея до попадания в Олимп.

Проект Альфа

Оригинальное название Appleseed Alpha
Фильм выпущен: 2014
Страна (кинокомпания): Япония, США
Pежиссер: Синдзи Арамаки
Сценарий фильма: Марианн Кравчик, Масамунэ Сиро
Продюсер фильма: Джозеф Чоу, Джои Гобео, Эйчи Камагата
Оператор:
Композитор: Тецуя Такахаси
Художники:
Монтаж: Япония, США
Жанр фильма: мультфильм, боевик, приключения, фантастика
Премьера (мир): 22 июля 2014
премьера (Pоссия):
продолжительность90 мин

В главных ролях:

Josh Sheltz, Брина Паленсиа, Крис Хатчинсон, Адам Гиббс, Вендел Кэлверт, Элизабет Банч, Дэвид Матранга, Люси Кристиан и другие ...

 

Трейлер фильма:

 

Фильм Проект Альфа / Appleseed Alpha скачать торрент - новинка кино 2014

В фильме "Проект Альфа" - молодая женщина-солдат Деунэн и ее киборг-партнер Бриэреос выживают в ходе Третей мировой войны, занимаясь поисками будущей надежды, легендарного города Олимпа



Параметры: 21.06.2015 BDRip 1080 от SuperMin, 5,75 Гб

Формат: BDRip 1080 от SuperMin, AC3, размер файла: 5,75 ГбВидео: 1920x1080, - 8440 Кбит/сАудио: Русский: AC3, 6 каналов, 384 Кбит/сПеревод (озвучивание): Русский профессиональный (многоголосый закадровый)

Параметры: 16.10.2014 BDRip 720p от Leonardo and Scarabey | P, 2,81 Гб

Формат: BDRip 720p Исходник: Blu-ray, MKV, AVC, AC3, размер файла: 2,81 ГбВидео: 1280x720, AVC - AVC at 3842 Кбит/сАудио: Русский: AC3, 6 каналов, 384 Кбит/сПеревод (озвучивание): Профессиональный (многоголосый закадровый) Пифагор

Параметры: 02.09.2014 BDRip-AVC от HELLYWOOD | iTunes, 2,18 Гб

Формат: BDRip-AVC, MKV, AC3, размер файла: 2,18 ГбВидео: 1024x576, H.264 -Аудио: Русский: AC3, 6 каналов, 384 Кбит/с / English: AC3, 6 каналов, 448 Кбит/сПеревод (озвучивание): Профессиональный (многоголосый закадровый) [iTunes]

Параметры: 28.08.2014 HDRip | iTunes, 1,37 Гб

Формат: HDRip, AVI, XviD, AC3, размер файла: 1,37 ГбВидео: 720x400, XviD - 1705 Кбит/сАудио: AC3, 6 каналов, 384 Кбит/сПеревод (озвучивание): Профессиональное (многоголосое) [iTunes]

Скачать торрент файлы фильма Проект Альфа / Appleseed Alpha: на сайте Вы можете получить ссылку на торрент файлы или скачать сами торрент файлы, в которых находится информация о местонахождении фильмов, сериалов у пользователей.

 

 

xn--h1adlsl.xn--p1ai

Проект Альфа / Яблочное зёрнышко Альфа / Appleseed Alpha (мультфильм, 2014) скачать торрент - Фильм Проект Альфа / Яблочное зёрнышко Альфа

Коротко о фильме "Проект Альфа / Яблочное зёрнышко Альфа" - Действие посвящено боевой биографии Дюнан и Бриарея до попадания в Олимп.

Проект Альфа

Оригинальное название Appleseed Alpha
Фильм выпущен: 2014
Страна (кинокомпания): Япония, США
Pежиссер: Синдзи Арамаки
Сценарий фильма: Марианн Кравчик, Масамунэ Сиро
Продюсер фильма: Джозеф Чоу, Джои Гобео, Эйчи Камагата
Оператор:
Композитор: Тецуя Такахаси
Художники:
Монтаж:
Жанр фильма: мультфильм, боевик, приключения, фантастика
Премьера (мир): 22 июля 2014
премьера (Pоссия):
продолжительность90 мин
В главных ролях:
Josh Sheltz
Брина Паленсиа
Крис Хатчинсон
Адам Гиббс
Вендел Кэлверт
Элизабет Банч
Дэвид Матранга
Люси Кристиан
и другие ...

Трейлер фильма:

 

Скачать фильм Проект Альфа / Яблочное зёрнышко Альфа / Appleseed Alpha - новинка кино 2014

В фильме "Проект Альфа / Яблочное зёрнышко Альфа" - молодая женщина-солдат Деунэн и ее киборг-партнер Бриэреос выживают в ходе Третей мировой войны, занимаясь поисками будущей надежды, легендарного города Олимпа

Скачать файлы .torrent Appleseed Alpha (фильм)

на сайте Вы можете получить ссылку на торрент файлы или скачать сами торрент файлы, в которых находится информация о местонахождении фильмов, сериалов у пользователей.

--> Всего 4

Параметры: 21.06.2015 BDRip 1080 от SuperMin, 5,75 Гб

Формат: BDRip 1080 от SuperMin, AC3, размер файла: 5,75 ГбВидео: 1920x1080, - 8440 Кбит/сАудио: Русский: AC3, 6 каналов, 384 Кбит/сПеревод (озвучивание): Русский профессиональный (многоголосый закадровый)

Параметры: 16.10.2014 BDRip 720p от Leonardo and Scarabey | P, 2,81 Гб

Формат: BDRip 720p Исходник: Blu-ray, MKV, AVC, AC3, размер файла: 2,81 ГбВидео: 1280x720, AVC - AVC at 3842 Кбит/сАудио: Русский: AC3, 6 каналов, 384 Кбит/сПеревод (озвучивание): Профессиональный (многоголосый закадровый) Пифагор

Параметры: 02.09.2014 BDRip-AVC от HELLYWOOD | iTunes, 2,18 Гб

Формат: BDRip-AVC, MKV, AC3, размер файла: 2,18 ГбВидео: 1024x576, H.264 -Аудио: Русский: AC3, 6 каналов, 384 Кбит/с / English: AC3, 6 каналов, 448 Кбит/сПеревод (озвучивание): Профессиональный (многоголосый закадровый) [iTunes]

Параметры: 28.08.2014 HDRip | iTunes, 1,37 Гб

Формат: HDRip, AVI, XviD, AC3, размер файла: 1,37 ГбВидео: 720x400, XviD - 1705 Кбит/сАудио: AC3, 6 каналов, 384 Кбит/сПеревод (озвучивание): Профессиональное (многоголосое) [iTunes]

 

hotkit.ru


Смотрите также