Скачать 50 оттенков серого полная версия торрент


Пятьдесят оттенков серого через торрент

Общее Уникальный идентификатор : 254318374728330226949473079409530888922 (0xBF53EFF4D726A15C9A2CBBEC4497E2DA) Полное имя : 50.Ottenkov.Serogo.2014.Extended.DUAL.BDRip.x264.-HELLYWOOD.mkv Формат : Matroska Версия формата : Version 4 / Version 2 Размер файла : 2,18 Гбайт Продолжительность : 2 ч. 8 м. Общий поток : 2431 Кбит/сек Название фильма : Fifty Shades of Grey (2015) [Extended] - HELLYWOOD Дата кодирования : UTC 2015-05-29 18:15:26 Программа кодирования : mkvmerge v5.9.0 ('On The Loose') built on Dec 15 2012 16:39:58 Библиотека кодирования : libebml v1.3.0 + libmatroska v1.4.0

Видео Идентификатор : 1 Формат : AVC Формат/Информация : Advanced Video Codec Профиль формата : [email protected] Параметр CABAC формата : Да Параметр ReFrames формата : 10 кадров Идентификатор кодека : V_MPEG4/ISO/AVC Продолжительность : 2 ч. 8 м. Битрейт : 1533 Кбит/сек Ширина : 1032 пикселя Высота : 430 пикселей Соотношение сторон : 2,40:1 Режим частоты кадров : Постоянный Частота кадров : 23,976 кадра/сек Цветовое пространство : YUV Субдискретизация насыщенности : 4:2:0 Битовая глубина : 8 бит Тип развёртки : Прогрессивная Бит/(Пиксели*Кадры) : 0.144 Размер потока : 1,33 Гбайт (61%) Заголовок : potroks Библиотека кодирования : x264 core 146 r2538 121396c Настройки программы : cabac=1 / ref=10 / deblock=1:-2:-2 / analyse=0x3:0x113 / me=umh / subme=11 / psy=1 / psy_rd=1.01:0.03 / mixed_ref=1 / me_range=48 / chroma_me=1 / trellis=2 / 8x8dct=1 / cqm=0 / deadzone=21,11 / fast_pskip=0 / chroma_qp_offset=-3 / threads=9 / lookahead_threads=2 / sliced_threads=0 / nr=0 / decimate=1 / interlaced=0 / bluray_compat=0 / constrained_intra=0 / bframes=11 / b_pyramid=2 / b_adapt=2 / b_bias=0 / direct=3 / weightb=1 / open_gop=0 / weightp=2 / keyint=250 / keyint_min=23 / scenecut=40 / intra_refresh=0 / rc_lookahead=60 / rc=2pass / mbtree=0 / bitrate=1533 / ratetol=1.0 / qcomp=0.70 / qpmin=0 / qpmax=69 / qpstep=4 / cplxblur=20.0 / qblur=0.5 / vbv_maxrate=14000 / vbv_bufsize=14000 / nal_hrd=none / filler=0 / ip_ratio=1.35 / pb_ratio=1.25 / aq=1:0.80 Язык : English Default : Да Forced : Нет

Аудио #1 Идентификатор : 2 Формат : AC-3 Формат/Информация : Audio Coding 3 Расширение режима : CM (complete main) Параметр Endianness формата : Big Идентификатор кодека : A_AC3 Продолжительность : 2 ч. 8 м. Вид битрейта : Постоянный Битрейт : 448 Кбит/сек Каналы : 6 каналов Расположение каналов : Front: L C R, Side: L R, LFE Частота : 48,0 КГц Битовая глубина : 16 бит Метод сжатия : С потерями Размер потока : 412 Мбайт (18%) Заголовок : Dub | DD 5.1 @ 448 kbps - Blu-Ray CEE Язык : Russian Default : Да Forced : Нет

Аудио #2 Идентификатор : 3 Формат : AC-3 Формат/Информация : Audio Coding 3 Расширение режима : CM (complete main) Параметр Endianness формата : Big Идентификатор кодека : A_AC3 Продолжительность : 2 ч. 8 м. Вид битрейта : Постоянный Битрейт : 448 Кбит/сек Каналы : 6 каналов Расположение каналов : Front: L C R, Side: L R, LFE Частота : 48,0 КГц Битовая глубина : 16 бит Метод сжатия : С потерями Размер потока : 412 Мбайт (18%) Заголовок : Original | DD 5.1 @ 448 kbps Язык : English Default : Нет Forced : Нет

Текст #1 Идентификатор : 4 Формат : UTF-8 Идентификатор кодека : S_TEXT/UTF8 Идентификатор кодека/Информация : UTF-8 Plain Text Заголовок : форс. Язык : Russian Default : Да Forced : Нет

Текст #2 Идентификатор : 5 Формат : UTF-8 Идентификатор кодека : S_TEXT/UTF8 Идентификатор кодека/Информация : UTF-8 Plain Text Заголовок : Blu-Ray Язык : Russian Default : Нет Forced : Нет

Текст #3 Идентификатор : 6 Формат : UTF-8 Идентификатор кодека : S_TEXT/UTF8 Идентификатор кодека/Информация : UTF-8 Plain Text Заголовок : Blu-Ray Язык : Ukrainian Default : Нет Forced : Нет

Текст #4 Идентификатор : 7 Формат : UTF-8 Идентификатор кодека : S_TEXT/UTF8 Идентификатор кодека/Информация : UTF-8 Plain Text Заголовок : Full Язык : English Default : Нет Forced : Нет

Текст #5 Идентификатор : 8 Формат : UTF-8 Идентификатор кодека : S_TEXT/UTF8 Идентификатор кодека/Информация : UTF-8 Plain Text Заголовок : SDH Язык : English Default : Нет Forced : Нет

Текст #6 Идентификатор : 9 Формат : UTF-8 Идентификатор кодека : S_TEXT/UTF8 Идентификатор кодека/Информация : UTF-8 Plain Text Заголовок : SDH-Colored Язык : English Default : Нет Forced : Нет

Меню 00:00:00.000 : en:00:00:00.000 00:10:25.917 : en:00:10:25.917 00:14:27.158 : en:00:14:27.158 00:20:30.563 : en:00:20:30.563 00:24:04.318 : en:00:24:04.318 00:29:48.578 : en:00:29:48.578 00:35:06.980 : en:00:35:06.980 00:40:17.957 : en:00:40:17.957 00:46:32.748 : en:00:46:32.748 00:50:21.393 : en:00:50:21.393 00:57:04.212 : en:00:57:04.212 01:02:18.985 : en:01:02:18.985 01:06:49.797 : en:01:06:49.797 01:14:27.088 : en:01:14:27.088 01:22:15.264 : en:01:22:15.264 01:31:10.882 : en:01:31:10.882 01:38:13.804 : en:01:38:13.804 01:46:20.165 : en:01:46:20.165 01:53:18.750 : en:01:53:18.750 02:01:41.419 : en:02:01:41.419

piratbit.ru

Пятьдесят оттенков серого (2015) (Fifty Shades of Grey)

Я читала книгу, по которой снят фильм. Хватило меня, правда, только на первую часть трилогии. Книга мне абсолютно не понравилась, но фильм всё равно ждала. Думаю, даже из незамысловатой истории, может получиться неплохое кино, если участники всех этапов работы над ним не обделены талантом. В данном случае было ещё необходимо переработать сюжет. На это я и возложила свои надежды, которые в итоге не оправдались. Поскольку книгу я уже плохо помню, скажу без уверенности, фильм почти в точности повторяет книгу, за исключением незначительных деталей. Никакого переосмысления истории нет. Фильм равнозначен книге. Не хуже, не лучше. Такая же жвачка.

Если бы я была режиссером, и у меня бы была «свобода воли», я бы внесла следующие правки в повествование:

1) Во-первых, Анастейша не была бы девственницей. По-моему, так глупо было делать её девственницей по сюжету. Тут вообще без комментариев.

2) Сюжет был бы более линейным, и никакого ванильного секса в начале не было бы вообще. Анастейша хотя бы ради интереса согласилась на такие отношения, а уж потом начала метаться, и тогда не было бы этого неправдоподобного уламывания. Почему неправдоподобного? Ну, я лично не верю, что такой (да и вообще любой другой адекватный) парень, как бы ему не приглянулась девушка, будет принуждать её к тому, что ей явно не по душе. Он найдет себе другую девушку, которой всё это будет интересно. Внешность и средства позволяют выбирать и выбирать. Да-да, я понимаю, что это история для романтичных особ, которым бы хотелось почувствовать себя той, ради которой мужик пойдет на всё, лишь бы она была с ним. Но лично мне неинтересно смотреть сказки.

3) Диалоги подверглись бы изменениям. Если бы я начала считать неловкие паузы в фильме, я бы, наверно, сбилась со счета. Была куча незавершенных диалогов, где актерам нечего было делать, и они выражали что-то непонятное своим лицом. Я жду, вот сейчас он/она что-то ответит, а он/она или делает глупое лицо, или перескакивает на другую тему.

Пробегусь по остальным косякам. 1) Это фраза в комнате с красными освещением — «Ты покраснела». Она способно перечеркнуть всё хорошее, что могло бы быть в фильме. Нужно быть внимательнее к мелочам. 2) Волосатые ноги на фоне заката. Это смотрится странно в эпоху, когда люди сбривают себе всё до состояния голого пупса. Хотя, мне кажется, это выглядело мило. Но, думаю, 99% так не покажется. 3) Секс может был и красивый, но БДСМ там было очень мало. Как и в книге в общем-то. Когда Грей порол Анастейшу в последней сцене, и она глубоко страдала в этот момент (я, кстати, тут прониклась ее страданиями), мне на ум пришла «Нимфоманка», где главную героиню пороли до кровавых ссадин. А «Нимфоманка» не о БДСМ вроде как. Но вообще «Оттенки» рассчитаны на романтичных барышень, которым жесть будет не по нраву. Так что косяком отсутствие жестких БДСМ-сцен нельзя назвать. 4) При неплохом саунде абсолютно убогая фоновая музыка. Мне она резанула по ушам в сценах подписания договора и встрече в магазине. Эдакий комичный фон. Выглядело дешево и нелепо. 5) Также мне не понравился интерьер в апартаментах Грея. Вообще я плохо разбираюсь в дизайне интерьера, но этот мне показался безвкусным, хоть вокруг него и развернулась отдельная эпопея. Даже на этом сайте написано очень много о том, кто над ним работал.

Игра актеров не понравилась, особенно игра Дакоты Джонсон. Я изначально её не видела в этой роли. На мой взгляд, с её внешностью нужно играть оторв, стервозных дамочек и девушек легкого поведения. Но когда смотрела фильм, её внешность для меня ушла на второй план, на первый вылезло отсутствие таланта. Дорнан тоже так себе сыграл, хотя внешне он соответствовал образу Грея больше, чем Дакота — Стил. Предполагаю, что дело ещё в том, что сами герои в фильме получились картонными. В книге, какая бы она не была ужасная, они более «живые». Да, герои в фильме несколько отличаются от книжных. Грей у Дорнана получился мягче (я до выхода фильма заметила, что у актера добрые глаза и очень мягкий взгляд). Плюс, мне показалось, у него иногда тряслись руки. Трясущимися руками он неловко заплетал косу главной героине перед любовными утехами. Казалось, он сам боится того, что сейчас произойдёт. Дакота похожа аутистку. Кстати, понравилась её фигура. Выглядела она сексуально.

П. С: Кто смотрел Команату Томми Вайсо, заметят, что создатели «50 Оттенков» скопипастили сцену оттуда: когда главные герои застают развлекающихся на диване друзей Стил. Один в один! Да и вообще у этих фильмов есть что-то общее. Те же глупые диалоги, опять же комната… «50 Оттенков» можно было бы назвать «Комната-2»)

www.fast-torrent.ru

Скачать торрент Пятьдесят оттенков серого / Fifty Shades of Grey (2015) BDRip 1080p | Unrated Cut

Информация о фильмеНазвание: Пятьдесят оттенков серогоОригинальное название: Fifty Shades of GreyГод выхода: 2015Жанр: мелодрамаРежиссер: Сэм Тейлор-ДжонсонВ ролях: Джейми Дорнан, Дакота Джонсон, Люк Граймс, Виктор Расук, Элоиза Мамфорд, Марша Гей Харден, Рита Ора, Макс Мартини, Каллум Кит Ренни, Дженнифер Или

О фильме: Анастейша Стил — скромная студентка, живущая вместе с близкой подругой-сокурсницей Кейт. За неделю до выпускного в университете, Анастейша, по просьбе заболевшей Кейт заменить её, берёт интервью у молодого красавца-миллиардера Кристиана Грея. Интервью складывается не очень удачно, и Анастейша не думает, что они когда-либо встретятся вновь. Неожиданно Грей появляется в хозяйственном магазине, где девушка работает продавцом. Их знакомство продолжается, и Анастейша постепенно узнаёт о тайных сексуальных увлечениях богача...

Выпущено: Universal PicturesПродолжительность: 02:08:29Перевод: Дублированный (лицензия)

ФайлКодек: x264Качество: BDRip (источник: Blu-ray Disc)Видео: 1920x800 (2,40:1), 23.976 fps, 7750 kbpsАудио #1: AC-3, 6 ch, 448 kbps (Rus)Аудио #2: AC-3, 6 ch, 448 kbps (Eng)Субтитры: Русские (форс,полные), АнглийскиеСкачать: сэмпл

Скриншоты

MI

General Unique ID : 233237573993939045899384648008074329905 (0xAF77EC3C09E09E158BC45B00F620FF31) Complete name : D:Fifty.Shades.of.Grey.Unrated.Cut.2015.BDRip.1080p.Rus.Eng.mkv Format : Matroska Format version : Version 2 File size : 7.76 GiB Duration : 2h 8mn Overall bit rate : 8 648 Kbps Movie name : Пятьдесят оттенков серого / Fifty Shades of Grey (2015) | Unrated Cut Encoded date : UTC 2015-05-30 15:27:18 Writing application : mkvmerge v5.8.0 ('No Sleep / Pillow') built on Sep 2 2012 15:37:04 Writing library : libebml v1.2.3 + libmatroska v1.3.0 Attachements : cover.png / logfile.log

Video ID : 1 Format : AVC Format/Info : Advanced Video Codec Format profile : [email protected] Format settings, CABAC : Yes Format settings, ReFrames : 5 frames Codec ID : V_MPEG4/ISO/AVC Duration : 2h 8mn Bit rate : 7 750 Kbps Width : 1 920 pixels Height : 800 pixels Display aspect ratio : 2.40:1 Frame rate mode : Constant Frame rate : 23.976 fps Color space : YUV Chroma subsampling : 4:2:0 Bit depth : 8 bits Scan type : Progressive Bits/(Pixel*Frame) : 0.210 Stream size : 6.80 GiB (88%) Title : Пятьдесят оттенков серого / Fifty Shades of Grey (2015) | Unrated Cut Writing library : x264 core 146 r0+2586 e393126 t_mod_Custom [[email protected] X86_64] Encoding settings : cabac=1 / ref=5 / deblock=1:-3:-3 / analyse=0x3:0x133 / me=umh / subme=10 / psy=1 / fade_compensate=0.00 / psy_rd=1.05:0.00 / mixed_ref=1 / me_range=32 / chroma_me=1 / trellis=2 / 8x8dct=1 / cqm=0 / deadzone=21,11 / fast_pskip=0 / chroma_qp_offset=-2 / threads=12 / lookahead_threads=3 / sliced_threads=0 / nr=0 / decimate=1 / interlaced=0 / bluray_compat=0 / constrained_intra=0 / fgo=0 / bframes=10 / b_pyramid=2 / b_adapt=2 / b_bias=0 / direct=3 / weightb=1 / open_gop=0 / weightp=2 / keyint=240 / keyint_min=23 / scenecut=40 / intra_refresh=0 / rc=2pass / mbtree=0 / bitrate=7750 / ratetol=1.0 / qcomp=0.70 / qpmin=0:0:0 / qpmax=69:69:69 / qpstep=4 / cplxblur=20.0 / qblur=0.5 / ip_ratio=1.40 / pb_ratio=1.30 / aq=1:0.70 / aq-sensitivity=10.00 / aq-factor=1.00:1.00:1.00 / aq2=0 / aq3=0 Language : English Default : Yes Forced : No

Audio #1 ID : 2 Format : AC-3 Format/Info : Audio Coding 3 Mode extension : CM (complete main) Format settings, Endianness : Big Codec ID : A_AC3 Duration : 2h 8mn Bit rate mode : Constant Bit rate : 448 Kbps Channel(s) : 6 channels Channel positions : Front: L C R, Side: L R, LFE Sampling rate : 48.0 KHz Bit depth : 16 bits Compression mode : Lossy Stream size : 412 MiB (5%) Title : Дубляж, Blu-ray CEE Language : Russian Default : Yes Forced : No

Audio #2 ID : 3 Format : AC-3 Format/Info : Audio Coding 3 Mode extension : CM (complete main) Format settings, Endianness : Big Codec ID : A_AC3 Duration : 2h 8mn Bit rate mode : Constant Bit rate : 448 Kbps Channel(s) : 6 channels Channel positions : Front: L C R, Side: L R, LFE Sampling rate : 48.0 KHz Bit depth : 16 bits Compression mode : Lossy Stream size : 412 MiB (5%) Title : English Language : English Default : No Forced : No

Text #1 ID : 4 Format : UTF-8 Codec ID : S_TEXT/UTF8 Codec ID/Info : UTF-8 Plain Text Title : Russian (Forced) Language : Russian Default : Yes Forced : No

Text #2 ID : 5 Format : UTF-8 Codec ID : S_TEXT/UTF8 Codec ID/Info : UTF-8 Plain Text Title : Russian Language : Russian Default : No Forced : No

Text #3 ID : 6 Format : UTF-8 Codec ID : S_TEXT/UTF8 Codec ID/Info : UTF-8 Plain Text Title : English Language : English Default : No Forced : No

Text #4 ID : 7 Format : UTF-8 Codec ID : S_TEXT/UTF8 Codec ID/Info : UTF-8 Plain Text Title : English (SDH) Language : English Default : No Forced : No

Text #5 ID : 8 Format : UTF-8 Codec ID : S_TEXT/UTF8 Codec ID/Info : UTF-8 Plain Text Title : English (SDH Colored) Language : English Default : No Forced : No

Menu 00:00:00.000 : :Chapter 01 00:10:25.916 : :Chapter 02 00:14:27.157 : :Chapter 03 00:20:30.562 : :Chapter 04 00:24:04.317 : :Chapter 05 00:29:48.578 : :Chapter 06 00:35:06.979 : :Chapter 07 00:40:17.957 : :Chapter 08 00:46:32.748 : :Chapter 09 00:50:21.393 : :Chapter 10 00:57:04.212 : :Chapter 11 01:02:18.985 : :Chapter 12 01:06:49.797 : :Chapter 13 01:14:27.087 : :Chapter 14 01:22:15.263 : :Chapter 15 01:31:10.882 : :Chapter 16 01:38:13.804 : :Chapter 17 01:46:20.165 : :Chapter 18 01:53:18.750 : :Chapter 19 02:01:41.419 : :Chapter 20

x264

x264 [info]: frame I:1305 Avg QP:10.97 size:235740 x264 [info]: frame P:42162 Avg QP:12.56 size: 81652 x264 [info]: frame B:141381 Avg QP:14.97 size: 26289 x264 [info]: consecutive B-frames: 2.1% 4.3% 15.3% 9.2% 16.5% 46.7% 4.6% 0.3% 0.6% 0.1% 0.3%

krutor.org

Скачать Пятьдесят оттенков серого через торрент

Категория: Фильмы 9691 0 Торрент добавлен: 23-04-2015 Рейтинг:

2015 / драма, мелодрамаФильм: Пятьдесят оттенков серогоОригинальное название фильма: Fifty Shades of GreyВыпущено: СШАРежиссер: Сэм Тейлор-ДжонсонВ ролях: Дженнифер Или, Джейми Дорнан, Дакота Джонсон, Люк Граймс

Сюжет киноленты расскажет о непростых отношениях студентки Анастейши с молодым предпринимателем Кристианом, который уговаривает эту юную особу заключить с ним соглашение, в результате которого ее существование будет находиться под полным его контролем. В этом странном контракте также есть пункт о неразглашении, что делает данное соглашение секретным, а значит, Кристиан может делать, что угодно с Анастейшей и никто об этом даже не узнает.

 

Трейлер к фильму Пятьдесят оттенков серого

 

Пятьдесят оттенков серого скачать торрент

Качество:  Blu-Ray Remux (1080p)Видео:  MPEG-4 AVC, 21992 Кбит/с, 1920x1080, 23.976 кадр/сАудио:  Русский (AC3, 6 ch, 384 Кбит/с), английский (DTS-HD МА, 6 ch, 3397 Кбит/с)Дублированный

23,01 Gb

Качество:  BDRip (1080p)Видео:  MPEG-4 AVC, 7777 Кбит/с, 1920x800, 23.976 кадр/сАудио:  Русский (AC3, 6 ch, 384 Кбит/с), английский (DTS, 6 ch, 1509 Кбит/с)Дублированный

8,68 Gb

Формат: AVIКачество: HDRipВидео: XviD, 1420 kb/s, 688x288Аудио: AC3, 192 kb/s (2 ch)Дублированное [iTunes]

1,46 Gb

Вы находитесь на странице, где можете совершенно бесплатно скачать фильм Пятьдесят оттенков серого в хорошем качестве через торрент, в любом формате, который больше всего вам на данный момент подходит. Скачивание осуществляется через торрент, что означает максимально высокую скорость загрузки. Желаем Вам приятного просмотра!. Не забудь поделиться своими впечатлениями после того как посмотришь фильм Пятьдесят оттенков серого.

Информация Посетители, находящиеся в группе Гости, не могут оставлять комментарии к данной публикации.

psp-gu.ru


Смотрите также