Бегущий по лезвию фильм 1982 hd режиссерская версия скачать торрент


Бегущий по лезвию (1982) (Blade Runner)

Про фильм «Бегущий по лезвию бритвы» я знал, что у него есть 7 версий и минимум три русских озвучки, и это мешало просмотру: с которой начать? На существование фильма я вышел через сериал «За гранью», про который решил, всё-таки, не оставлять слов, потому что финал третьего меня сценарно страшно разочаровал. Несмотря на мультяшную серию, где все агенты ФБР перекушали ЛСД. И я ожидал пересмотреть смутное детское воспоминание с «губернатором Арчи» в главной роли (перепутал с «Бегущим человеком»), а в итоге получил отличный актёрский дуэт Харрисона Форда и Рутгера Хауэра. Плюс к этому отличная сайнс-фикшн картинка и безупречная музыка. И что особенно потрясло: темп фильма! Я посмотрел режиссёрскую резку с открытым финалом. Другие и не нужно. Просто от музыки и пульсации происходящего я впал в транс, из которого было очень обидно выходить. Привлёк не тот мир, а сладость нахождения в трансе созерцания альтернативного мира. Можно говорить, что сценарные реплики Харрисона Форда одна хуже другой, что нет особой актёрской игры... Зато есть такая атмосфера, что всеобщая замороженность и заторможенность только играет на осознание: смотришь шедевр. Я уже задавался вопросом о том, как отделить хороший фильм от плохого. Пишу про те, что зацепили. Есть фильмы для отдыха, есть фильмы для встряски, есть фильмы для памяти. В них проваливаешься и улыбаешься собственным воспоминаниям, переживаниям, ощущениям. К этому фильму я вернусь ещё много раз. Не из-за сюжета, не из-за волшебной музыки Вангелиса, не из-за визуальных нонсенсов, а из-за сладкой тягучести самого созданного Ридли Скоттом пространства, новых и новых деталей происходящего в нём, страшной красоты увядания земной цивилизации. Из деталей: порадовали в городской толпе будущего рядом идущие английские панки и всемирные кришнаиты. Порадовала шутка по поводу Кэрролловской сказки «Сквозь стекло» (кстати, фанаты «За гранью" обратите внимание на Наблюдателя!). Порадовала облизанная Высоцким тема оживших манекенов. У Ф.К. Дика в книге тема «андроидов» этически рассмотрена со всех сторон. В фильме не успеваешь понять (главный андроид приходит за продлением жизни), что они - не люди. Тут больше представляешь себе вопросы национализма, вычленение чужака в арийски-верном государстве. И семитские черты главной героини (Рэйчел Розен) только подстёгивают эту версию происходящего. Любовной линии между Живым и Неживым не ощущается. Есть история любви между Чистильщиком и Изгоем, стирание границы. Со второго просмотра по некоторым деталям начинаешь понимать, что они - реально чужие. Но люди сами по себе все чужие друг другу в этом увядающем мире. Потому андроид - не худшая партия. Они - не такие. И это даёт надежду. Потому что «такие» привели эту планету к смерти. Над фильмом работали отличные дизайнеры. Каждый грим и жест оттачивался в течении продолжительного периода. Здесь нет ничего случайного. И вторая любящая пара, влюблённые роботы - настолько же ирреальны, как охотник и дичь в первом случае. Привкус «Заводного апельсина» сначала чуть было не вывел меня из благостного «кивания" показываемому, но жестокая "невинность" робота-убийцы, её любопытство, её позёрство удержали моё наслаждение фильмом на самой грани. Кукла мыслит, кукла желает, кукла фантазирует. От этой детскости ты ошалеваешь настолько, что влюбляешься в «холодную игрушку», болеешь за неё. Я люблю фильмы, где «всех жалко». Где все - плохие. И все - «хорошие люди» по Иешуа. Всем тяжело. И всё делают нечто, что не поддаётся шаблонной морали. И именно здесь я увидел Рутгера Хауэра таким, как его представила Светлана Мартынчик в роли Джуффина Халли. Андроид Рэй - вершина технической эволюции. Он - сверхчеловек. И он не собирается снисходить до человека, встраиваться в психологию человека. Он хочет жить. А жить времени не осталось. И его конфликт с Человеком-Создателем в невозможности продления собственной жизни, в краткости , в умирании всего накопленного эстетического и этического опыта. Когда я читал «Лабиринты Ехо», то представлял хитрого ветерана-силовика. На самом деле упоминание Рутгера Хауэра ведёт нас к андроиду Рэю, именно к этому фильму, где он в одних плавках и с седыми волосами гоняется за собственным охотником. Рэй не мстит охотнику Рику Декарту за подругу и друзей, за всех «отправленных в увольнение». Он играется. И это игра психологий, а не мышцев. И Рэй наслаждается нелогичностью Охотника. И Рэй спасает Охотнику жизнь, потому что самое ценное - именно Жизнь как таковая. И у Охотника есть шанс жить дальше, а у Рэя уже нет, его «пружинка» раскрылась до конца. И то, как Неживой пытается сохранить в себе чувство жизни, главное сокровище фильма. А «засыпание» Рэя я пересмотрел раза четыре. Этот монолог, который когда-нибудь скажет перед смертью сам Джуффин. «У меня была вечность, наполненная страхом и великолепием. Как она может прекратиться?» У такого фильма не может быть финала. Его и нет. И однажды включивший этот фильм, остаётся в нём навсегда. Именно из фильма «Бегущий по лезвию»(а после и книги «Мечтают ли андроиды об электроовцах?») пришёл мой текст «Линия жизни" (шесть стихотворений)

дивно молвит октябрь гнева заливает апрель тоски рыбы сами раскинут невод и порежут себя в куски

то что стало тебе во благо и меня на паях везёт не цеди мне на жабры влагу мне по вкусу аргон-азот

этот шёпот незримых женщин это радио от футур окликает не вслед ушедшим а не знавшим номенклатур - - -

мы себя назвали птицы обещая перелёт к тем пределам, где дымится побережье млеко-мёд

вместо крыльев сиплый клёкот и стоят передо мной грохот Сербии далёкой запах скумбрии родной - - -

посещающим зал ожидания: наша совесть на вес пера все мы в юности были джедаями повзрослевшим – своя игра

кто напомнит мне имя кортика что находит изъян в броне? это страшное детство корчится фотографией в портмоне - - -

первым окончилось время лягушек и сов тот кто не голос а множество голосов строил свой храм на останках панельных трущоб это резерв но чутьё обещало ещё

титры ползут на корейском играет труба я размотал и снимаю повязку со лба - - -

всё что запомнил пишу на отдельном листе

раз) во дворе заскрипевшая карусель два) магазины забиты собачьей едой три) на дороге раздавленный рядовой номер четырнадцать двести семнадцать сто пять

вымерз от гайморовых до пят - - -

линия жизни стала намного длинней

тихое счастье нескольких зимних дней

температура по Цельсию выше нуля

то что за окнами это теперь не Земля

не пригодятся салазки миники бегунки

я разрезал ладонь о твои позвонки - - -

март 2012 (с) Сергей Ивкин

Кстати, когда создатели фильма предложили Ф.К. Дику весьма круглую сумму за написание романа на основе киносценария, автор сказал: «У меня есть дом и плеер с наушниками, больше мне ничего не нужно. На что я буду тратить эти деньги? Тем более, что роман «Мечтают ли андроиды об электроовцах?» уже написан». Так и вышли параллельно фильм и книга с разными сюжетами. Совпадают только имена главных персонажей: Рик Декарт и Рэйчел Розен.

www.fast-torrent.ru

РУТОРГ :: Бегущий по лезвию / Blade Runner (1982) BDRip 1080p от R.G. HD-Films | 60 fps

Название: Бегущий по лезвиюОригинальное название: Blade RunnerГод выпуска: 1982Страна: США, Гонконг, ВеликобританияЖанр: фантастика, триллер, драма, мелодрамаПродолжительность: 01:57:36Перевод: ДубляжСубтитры:Русские (Полные), английские (полные)Вид субтитров Вшитые, отключаемыеРежиссер: Ридли Скотт / Ridley ScottВ ролях: Харрисон Форд (Rick Deckard), Рутгер Хауэр (Roy Batty), Шон Янг (Rachael), Эдвард Джеймс Олмос (Gaff), М. Эммет Уолш (Bryant), Дэрил Ханна (Pris), Уильям Сэндерсон (J.F. Sebastian), Брайон Джеймс (Leon Kowalski), Джо Тёркел (Dr. Eldon Tyrell), Джоанна Кэссиди (Zhora), Джеймс Хонг (Hannibal Chew), Морган Полл (Holden)Описание: Отставной детектив Рик Декард вновь восстановлен в полиции Лос-Анджелеса для поиска возглавляемой Роем Батти группы киборгов, совершившей побег из космической колонии на Землю. В полиции считают, что киборги пытаются встретиться с Эндолом Тайреллом, руководителем корпорации, ставящей эксперименты над кибернетическим интеллектом. Рик Декард получает задание выяснить мотивы действий киборгов, а затем уничтожить их.Рейтингimdb.com: 8.20 (368 874)MPAA: R - Лицам до 17 лет обязательно присутствие взрослогоАвтор рипа:Tiberiumsun69Качество: BDRip 1080p / 60 FPSФормат: MKVВидео кодек: AVCАудио кодек:AC3Видео: AVC, 1920x800, 10536 kbps, 59,940 fpsАудио №1: русский / AC3 / 5.1 / 48 kHz / 640 kbps / 16 bit |Дубляж| Аудио №2: русский / AC3 / 5.1 / 48 kHz / 640 kbps / 16 bit |Многоголосный, закадровый Киномания| Аудио №3: английский / AC3 / 5.1 / 48 kHz / 640 kbps / 16 bitГлавы Есть

Внимание!

Перед скачиванием обязательно проверьте сэмпл на своем оборудовании.

Благодарности

Raven за помощ при создании релиза и обложки

MI

General Unique ID : 254611464693784284997565523759139873947 (0xBF8C626849AC105396EF85F9D187649B) Complete name : A:1080p 60fpsБегущий по лезвию 1080p 60fps.mkv Format : Matroska Format version : Version 4 / Version 2 File size : 10.4 GiB Duration : 1h 57mn Overall bit rate : 12.7 Mbps Encoded date : UTC 2014-09-13 05:47:41 Writing application : mkvmerge v6.9.1 ('Blue Panther') 64bit built on Apr 18 2014 18:23:38 Writing library : libebml v1.3.0 + libmatroska v1.4.1

Video ID : 1 Format : AVC Format/Info : Advanced Video Codec Format profile : [email protected] Format settings, CABAC : Yes Format settings, ReFrames : 4 frames Codec ID : V_MPEG4/ISO/AVC Duration : 1h 57mn Bit rate : 10.5 Mbps Width : 1 920 pixels Height : 800 pixels Display aspect ratio : 2.40:1 Frame rate : 59.940 fps Color space : YUV Chroma subsampling : 4:2:0 Bit depth : 8 bits Scan type : Progressive Bits/(Pixel*Frame) : 0.114 Stream size : 8.66 GiB (83%) Writing library : x264 core 133 r2334 a3ac64b Encoding settings : cabac=1 / ref=4 / deblock=1:-1:-1 / analyse=0x3:0 / me=umh / subme=9 / psy=1 / psy_rd=1.00:0.10 / mixed_ref=1 / me_range=42 / chroma_me=0 / trellis=2 / 8x8dct=1 / cqm=0 / deadzone=21,11 / fast_pskip=0 / chroma_qp_offset=-3 / threads=12 / lookahead_threads=1 / sliced_threads=0 / nr=0 / decimate=0 / interlaced=0 / bluray_compat=0 / constrained_intra=0 / bframes=5 / b_pyramid=2 / b_adapt=2 / b_bias=0 / direct=1 / weightb=1 / open_gop=0 / weightp=2 / keyint=599 / keyint_min=59 / scenecut=40 / intra_refresh=0 / rc=crf / mbtree=0 / crf=15.0 / qcomp=0.60 / qpmin=0 / qpmax=69 / qpstep=4 / ip_ratio=1.40 / pb_ratio=1.30 / aq=0 Language : English Default : Yes Forced : No

Audio #1 ID : 2 Format : AC-3 Format/Info : Audio Coding 3 Mode extension : CM (complete main) Codec ID : A_AC3 Duration : 1h 57mn Bit rate mode : Constant Bit rate : 640 Kbps Channel(s) : 6 channels Channel positions : Front: L C R, Side: L R, LFE Sampling rate : 48.0 KHz Bit depth : 16 bits Compression mode : Lossy Stream size : 538 MiB (5%) Title : Дубляж Language : Russian Default : Yes Forced : No

Audio #2 ID : 3 Format : AC-3 Format/Info : Audio Coding 3 Mode extension : CM (complete main) Codec ID : A_AC3 Duration : 1h 57mn Bit rate mode : Constant Bit rate : 640 Kbps Channel(s) : 6 channels Channel positions : Front: L C R, Side: L R, LFE Sampling rate : 48.0 KHz Bit depth : 16 bits Compression mode : Lossy Stream size : 538 MiB (5%) Title : Многоголосный, закадровый Киномания Language : Russian Default : No Forced : No

Audio #3 ID : 4 Format : AC-3 Format/Info : Audio Coding 3 Mode extension : CM (complete main) Codec ID : A_AC3 Duration : 1h 57mn Bit rate mode : Constant Bit rate : 640 Kbps Channel(s) : 6 channels Channel positions : Front: L C R, Side: L R, LFE Sampling rate : 48.0 KHz Bit depth : 16 bits Compression mode : Lossy Stream size : 538 MiB (5%) Title : Оригинал Language : English Default : No Forced : No

Text #1 ID : 5 Format : UTF-8 Codec ID : S_TEXT/UTF8 Codec ID/Info : UTF-8 Plain Text Title : Полные Language : Russian Default : No Forced : No

Text #2 ID : 6 Format : UTF-8 Codec ID : S_TEXT/UTF8 Codec ID/Info : UTF-8 Plain Text Title : Полные Language : English Default : No Forced : No

Menu 00:00:00.000 : en:Chapter 1 00:02:58.177 : en:Chapter 2 00:04:31.980 : en:Chapter 3 00:07:25.111 : en:Chapter 4 00:11:18.260 : en:Chapter 5 00:12:58.569 : en:Chapter 6 00:16:58.183 : en:Chapter 7 00:22:38.815 : en:Chapter 8 00:25:04.878 : en:Chapter 9 00:27:58.343 : en:Chapter 10 00:30:21.486 : en:Chapter 11 00:36:19.177 : en:Chapter 12 00:41:30.321 : en:Chapter 13 00:42:23.998 : en:Chapter 14 00:45:56.335 : en:Chapter 15 00:48:44.463 : en:Chapter 16 00:55:18.898 : en:Chapter 17 00:57:27.277 : en:Chapter 18 00:59:44.998 : en:Chapter 19 01:01:49.414 : en:Chapter 20 01:03:16.000 : en:Chapter 21 01:07:44.393 : en:Chapter 22 01:12:39.521 : en:Chapter 23 01:16:13.527 : en:Chapter 24 01:20:12.474 : en:Chapter 25 01:22:34.532 : en:Chapter 26 01:27:07.513 : en:Chapter 27 01:28:45.236 : en:Chapter 28 01:34:02.219 : en:Chapter 29 01:36:54.308 : en:Chapter 30 01:41:12.316 : en:Chapter 31 01:42:37.276 : en:Chapter 32 01:44:31.807 : en:Chapter 33 01:45:56.266 : en:Chapter 34 01:49:04.496 : en:Chapter 35 01:52:21.734 : en:Chapter 36 01:57:36.591 : en:Chapter 37

Просьба к переливающим на другие сайты, в оформлении указывайте пожалуйста авторство рипа - Tiberiumsun69

xn--c1avfbif.org

rutor.org :: Бегущий по Лезвию / Бегущий по лезвию бритвы / Blade Runner (1982) DVDRip от Scarabey

Год выпуска: 1982Страна: СШАЖанр: драма, триллер, фантастика, киберпанкПродолжительность: 01:52:05Перевод: Профессиональный (полное дублирование) Субтитры: нет

Режиссер: Ридли Скотт В ролях: Харрисон Форд, Рутгер Хауэр, Шон Янг, Эдвард Джеймс Олмос, М. Эммет Уолш, Дэрил Ханна, Уильям Сэндерсон, Брайон Джеймс, Джо Туркел, Джоэнна Кэссиди

Описание: Лос-Анжелес, ноябрь 2019 года. Рика Декарда (Харрисон Форд), охотника за репликантами (киборгами, искусственными людьми), вызывают из отпуска в связи с опаснейшим случаем побега репликантов модели «Nexus−6». Уже убит один блейд-раннер (охотник за репликантами, англ. Blade Runner, переводится как «бегущий по лезвию»). Группа беглецов состоит из командира боевого отряда Роя Батти (Рутгер Хауэр), солдата Леона (Брайон Джеймс), проститутки-убийцы Зоры (Джоана Кессиди) и «базовой модели для удовольствия» Прис (Дэрил Ханна). Босс Декарда Браянт рассказывает ему о подробностях, в частности о том, что срок жизни модели «Nexus−6» составляет 4 года, и даёт ему напарника Гаффа. Декард отправляется в компанию «Tyrell Corporation», где производят репликантов, чтобы узнать, работает ли тест Войта Кампффа (некий аналог теста Тьюринга и полиграфа, помогающий отличить репликанта от человека, придуман Филипом Диком, впервые упоминается в романе «Мечтают ли андроиды об электроовцах?») на модели «Nexus−6». Здесь Декард знакомится с молодой секретаршей Тайрелла Рейчел (Шон Янг) и выясняет, что она — экспериментальный репликант с имплантированной памятью и эмоциональностью как у человека.

Качество: DVDRipФормат: AVI

Видео: 704x304 (2.32:1), 25 fps, XviD build 50 ~1650 kbps avg, 0.31 bit/pixelАудио: 48 kHz, AC3 Dolby Digital, 2/0 (L,R) ch, ~192.00 kbps avg

Релиз от:

АНОНСЫ МОИХ РАЗДАЧ!

ВНИМАНИЕ! СПОЙЛЕР

Появление на рынке в 1990 году пиратских копий рабочей версии поставило на повестку дня вопрос о её официальном выпуске. К 10-летнему юбилею премьеры фильма в большой спешке и практически без участия режиссёра была подготовлена режиссёрская версия (Director’s Cut, 1992), из которой были исключены счастливый финал и текст от рассказчика, но зато добавлен ключевой сон о единороге. К 15-летию релиза режиссёрская версия фильма, с дополнительными материалами и иначе смонтированная, появилась на DVD. Список версий фильма "Бегущий по лезвию"

- 1982 US Denver/Dallas Sneak Preview/Workprint (США Денвер/Даллас Предварительный просмотр) - 1982 US San Diego Sneak Preview (США Сан Диего Предварительный просмотр) - 1982 US Theatrical Release (США Кинотеатральная версия) - 1982 European (International) Theatrical Release (Европейская (международная) кинотеатральная версия) - 1992 The Director's Cut (Режиссерская версия) - 2007 The Final Cut (Финальная версия) Европейская (международная) кинотеатральная версия (1982): - Бэтти втыкает большие пальцы в глазах Тайрелла, которые обильно кровоточат. - Прис поднимает Декарда за его ноздри, когда избивает его. - Декард стреляет в Прис в третий раз. - Прис больше кричит и бьется, когда Декард подстреливает ее. - Показывает как Рой по настоящему протыкает гвоздем руку. - Декард и Рейчел уезжают. Эта версия приблизительно на 15 секунд длиннее чем штатовский театральный релиз.

Режиссерская версия (1992): - Закадровый голос полностью удален. - Добавлен диалог, чтобы закрыть пропуск закадрового голоса пока Декард ждет в китайском баре лапшу. - Добавлена12-секундная сцена с видением единорога, когда Декард играет на фортепиано. - Концовка сокращена (фильм заканчивается закрытием дверей лифта).

Финальная версия (2007): - Закадровый голос полностью удален. - Пленка прошла обработку фильтрами, изменена цветопередача. - Спецэффекты подчищены, убраны проволоки, поднимающие спиннер, расширен ландшафт Лос-Анджелеса. - В сцену Роя Бэтти в телефонной будке вставлен другой фон; убрана рука на его плече. - Изменена сцена с единорогом. - В фильм вернули насилие: убийство Тайрелла, борьба с Прис, сцена, в которой Бэтти протыкает себе руку гвоздем. - Изменен диалог Форда с Абдулом Бен Хассаном (удалена асинхронность губ), для этой сцены в студии заново сняли сына Х. Форда, и вставили его губы в оригинальный фильм. - Лицо каскадера-дублера Зоры при пробивании витрины заменено на лицо Джоанны Кэссиди. На фотографии лицо дублера также заменено на лицо актрисы. - В сцене с голубем, вылетающем из рук Бэтти, заменили фон. - Изменен серийный номер чешуи - он теперь соответствует диалогу. - Вставлены некоторые новые кадры из рабочей версии (стрип-танцовщицы в хоккейных масках). - Капитан Брайант говорит, что двое репликантов сгорели в электрическом поле (раньше он был один - побудивший множество спекуляций об оставшемся, шестом, репликанте). - Капитан Брайант рассказывает о Леоне - грузчике амуниции на боевом корабле. - После убийства Тайрелла Рой Бэтти извиняется перед Себастианом, перед тем, как убить и его. - Конец сокращен (фильм заканчивается закрытием дверей лифта). - Доработан саундтрек.

main-rutor.org

РУТОРГ :: Бегущий по Лезвию / Бегущий по лезвию бритвы / Blade Runner (1982) DVDRip от Scarabey

Год выпуска: 1982Страна: СШАЖанр: драма, триллер, фантастика, киберпанкПродолжительность: 01:52:05Перевод: Профессиональный (полное дублирование) Субтитры: нет

Режиссер: Ридли Скотт В ролях: Харрисон Форд, Рутгер Хауэр, Шон Янг, Эдвард Джеймс Олмос, М. Эммет Уолш, Дэрил Ханна, Уильям Сэндерсон, Брайон Джеймс, Джо Туркел, Джоэнна Кэссиди

Описание: Лос-Анжелес, ноябрь 2019 года. Рика Декарда (Харрисон Форд), охотника за репликантами (киборгами, искусственными людьми), вызывают из отпуска в связи с опаснейшим случаем побега репликантов модели «Nexus−6». Уже убит один блейд-раннер (охотник за репликантами, англ. Blade Runner, переводится как «бегущий по лезвию»). Группа беглецов состоит из командира боевого отряда Роя Батти (Рутгер Хауэр), солдата Леона (Брайон Джеймс), проститутки-убийцы Зоры (Джоана Кессиди) и «базовой модели для удовольствия» Прис (Дэрил Ханна). Босс Декарда Браянт рассказывает ему о подробностях, в частности о том, что срок жизни модели «Nexus−6» составляет 4 года, и даёт ему напарника Гаффа. Декард отправляется в компанию «Tyrell Corporation», где производят репликантов, чтобы узнать, работает ли тест Войта Кампффа (некий аналог теста Тьюринга и полиграфа, помогающий отличить репликанта от человека, придуман Филипом Диком, впервые упоминается в романе «Мечтают ли андроиды об электроовцах?») на модели «Nexus−6». Здесь Декард знакомится с молодой секретаршей Тайрелла Рейчел (Шон Янг) и выясняет, что она — экспериментальный репликант с имплантированной памятью и эмоциональностью как у человека.

Качество: DVDRipФормат: AVI

Видео: 704x304 (2.32:1), 25 fps, XviD build 50 ~1650 kbps avg, 0.31 bit/pixelАудио: 48 kHz, AC3 Dolby Digital, 2/0 (L,R) ch, ~192.00 kbps avg

Релиз от:

АНОНСЫ МОИХ РАЗДАЧ!

ВНИМАНИЕ! СПОЙЛЕР

Появление на рынке в 1990 году пиратских копий рабочей версии поставило на повестку дня вопрос о её официальном выпуске. К 10-летнему юбилею премьеры фильма в большой спешке и практически без участия режиссёра была подготовлена режиссёрская версия (Director’s Cut, 1992), из которой были исключены счастливый финал и текст от рассказчика, но зато добавлен ключевой сон о единороге. К 15-летию релиза режиссёрская версия фильма, с дополнительными материалами и иначе смонтированная, появилась на DVD. Список версий фильма "Бегущий по лезвию"

- 1982 US Denver/Dallas Sneak Preview/Workprint (США Денвер/Даллас Предварительный просмотр) - 1982 US San Diego Sneak Preview (США Сан Диего Предварительный просмотр) - 1982 US Theatrical Release (США Кинотеатральная версия) - 1982 European (International) Theatrical Release (Европейская (международная) кинотеатральная версия) - 1992 The Director's Cut (Режиссерская версия) - 2007 The Final Cut (Финальная версия) Европейская (международная) кинотеатральная версия (1982): - Бэтти втыкает большие пальцы в глазах Тайрелла, которые обильно кровоточат. - Прис поднимает Декарда за его ноздри, когда избивает его. - Декард стреляет в Прис в третий раз. - Прис больше кричит и бьется, когда Декард подстреливает ее. - Показывает как Рой по настоящему протыкает гвоздем руку. - Декард и Рейчел уезжают. Эта версия приблизительно на 15 секунд длиннее чем штатовский театральный релиз.

Режиссерская версия (1992): - Закадровый голос полностью удален. - Добавлен диалог, чтобы закрыть пропуск закадрового голоса пока Декард ждет в китайском баре лапшу. - Добавлена12-секундная сцена с видением единорога, когда Декард играет на фортепиано. - Концовка сокращена (фильм заканчивается закрытием дверей лифта).

Финальная версия (2007): - Закадровый голос полностью удален. - Пленка прошла обработку фильтрами, изменена цветопередача. - Спецэффекты подчищены, убраны проволоки, поднимающие спиннер, расширен ландшафт Лос-Анджелеса. - В сцену Роя Бэтти в телефонной будке вставлен другой фон; убрана рука на его плече. - Изменена сцена с единорогом. - В фильм вернули насилие: убийство Тайрелла, борьба с Прис, сцена, в которой Бэтти протыкает себе руку гвоздем. - Изменен диалог Форда с Абдулом Бен Хассаном (удалена асинхронность губ), для этой сцены в студии заново сняли сына Х. Форда, и вставили его губы в оригинальный фильм. - Лицо каскадера-дублера Зоры при пробивании витрины заменено на лицо Джоанны Кэссиди. На фотографии лицо дублера также заменено на лицо актрисы. - В сцене с голубем, вылетающем из рук Бэтти, заменили фон. - Изменен серийный номер чешуи - он теперь соответствует диалогу. - Вставлены некоторые новые кадры из рабочей версии (стрип-танцовщицы в хоккейных масках). - Капитан Брайант говорит, что двое репликантов сгорели в электрическом поле (раньше он был один - побудивший множество спекуляций об оставшемся, шестом, репликанте). - Капитан Брайант рассказывает о Леоне - грузчике амуниции на боевом корабле. - После убийства Тайрелла Рой Бэтти извиняется перед Себастианом, перед тем, как убить и его. - Конец сокращен (фильм заканчивается закрытием дверей лифта). - Доработан саундтрек.

xn--c1avfbif.org

rutor.org :: Бегущий по Лезвию / Бегущий по лезвию бритвы / Blade Runner (1982) DVDRip от Scarabey

Год выпуска: 1982Страна: СШАЖанр: драма, триллер, фантастика, киберпанкПродолжительность: 01:52:05Перевод: Профессиональный (полное дублирование) Субтитры: нет

Режиссер: Ридли Скотт В ролях: Харрисон Форд, Рутгер Хауэр, Шон Янг, Эдвард Джеймс Олмос, М. Эммет Уолш, Дэрил Ханна, Уильям Сэндерсон, Брайон Джеймс, Джо Туркел, Джоэнна Кэссиди

Описание: Лос-Анжелес, ноябрь 2019 года. Рика Декарда (Харрисон Форд), охотника за репликантами (киборгами, искусственными людьми), вызывают из отпуска в связи с опаснейшим случаем побега репликантов модели «Nexus−6». Уже убит один блейд-раннер (охотник за репликантами, англ. Blade Runner, переводится как «бегущий по лезвию»). Группа беглецов состоит из командира боевого отряда Роя Батти (Рутгер Хауэр), солдата Леона (Брайон Джеймс), проститутки-убийцы Зоры (Джоана Кессиди) и «базовой модели для удовольствия» Прис (Дэрил Ханна). Босс Декарда Браянт рассказывает ему о подробностях, в частности о том, что срок жизни модели «Nexus−6» составляет 4 года, и даёт ему напарника Гаффа. Декард отправляется в компанию «Tyrell Corporation», где производят репликантов, чтобы узнать, работает ли тест Войта Кампффа (некий аналог теста Тьюринга и полиграфа, помогающий отличить репликанта от человека, придуман Филипом Диком, впервые упоминается в романе «Мечтают ли андроиды об электроовцах?») на модели «Nexus−6». Здесь Декард знакомится с молодой секретаршей Тайрелла Рейчел (Шон Янг) и выясняет, что она — экспериментальный репликант с имплантированной памятью и эмоциональностью как у человека.

Качество: DVDRipФормат: AVI

Видео: 656x288 (2.28:1), 25 fps, XviD build 50 ~793 kbps avg, 0.17 bit/pixelАудио: 48 kHz, MPEG Layer 3, 2 ch, ~128.00 kbps avg

Релиз от:

АНОНСЫ МОИХ РАЗДАЧ!

ВНИМАНИЕ! СПОЙЛЕР

Появление на рынке в 1990 году пиратских копий рабочей версии поставило на повестку дня вопрос о её официальном выпуске. К 10-летнему юбилею премьеры фильма в большой спешке и практически без участия режиссёра была подготовлена режиссёрская версия (Director’s Cut, 1992), из которой были исключены счастливый финал и текст от рассказчика, но зато добавлен ключевой сон о единороге. К 15-летию релиза режиссёрская версия фильма, с дополнительными материалами и иначе смонтированная, появилась на DVD. Список версий фильма "Бегущий по лезвию"

- 1982 US Denver/Dallas Sneak Preview/Workprint (США Денвер/Даллас Предварительный просмотр) - 1982 US San Diego Sneak Preview (США Сан Диего Предварительный просмотр) - 1982 US Theatrical Release (США Кинотеатральная версия) - 1982 European (International) Theatrical Release (Европейская (международная) кинотеатральная версия) - 1992 The Director's Cut (Режиссерская версия) - 2007 The Final Cut (Финальная версия) Европейская (международная) кинотеатральная версия (1982): - Бэтти втыкает большие пальцы в глазах Тайрелла, которые обильно кровоточат. - Прис поднимает Декарда за его ноздри, когда избивает его. - Декард стреляет в Прис в третий раз. - Прис больше кричит и бьется, когда Декард подстреливает ее. - Показывает как Рой по настоящему протыкает гвоздем руку. - Декард и Рейчел уезжают. Эта версия приблизительно на 15 секунд длиннее чем штатовский театральный релиз.

Режиссерская версия (1992): - Закадровый голос полностью удален. - Добавлен диалог, чтобы закрыть пропуск закадрового голоса пока Декард ждет в китайском баре лапшу. - Добавлена12-секундная сцена с видением единорога, когда Декард играет на фортепиано. - Концовка сокращена (фильм заканчивается закрытием дверей лифта).

Финальная версия (2007): - Закадровый голос полностью удален. - Пленка прошла обработку фильтрами, изменена цветопередача. - Спецэффекты подчищены, убраны проволоки, поднимающие спиннер, расширен ландшафт Лос-Анджелеса. - В сцену Роя Бэтти в телефонной будке вставлен другой фон; убрана рука на его плече. - Изменена сцена с единорогом. - В фильм вернули насилие: убийство Тайрелла, борьба с Прис, сцена, в которой Бэтти протыкает себе руку гвоздем. - Изменен диалог Форда с Абдулом Бен Хассаном (удалена асинхронность губ), для этой сцены в студии заново сняли сына Х. Форда, и вставили его губы в оригинальный фильм. - Лицо каскадера-дублера Зоры при пробивании витрины заменено на лицо Джоанны Кэссиди. На фотографии лицо дублера также заменено на лицо актрисы. - В сцене с голубем, вылетающем из рук Бэтти, заменили фон. - Изменен серийный номер чешуи - он теперь соответствует диалогу. - Вставлены некоторые новые кадры из рабочей версии (стрип-танцовщицы в хоккейных масках). - Капитан Брайант говорит, что двое репликантов сгорели в электрическом поле (раньше он был один - побудивший множество спекуляций об оставшемся, шестом, репликанте). - Капитан Брайант рассказывает о Леоне - грузчике амуниции на боевом корабле. - После убийства Тайрелла Рой Бэтти извиняется перед Себастианом, перед тем, как убить и его. - Конец сокращен (фильм заканчивается закрытием дверей лифта). - Доработан саундтрек.

main-rutor.org

rutor.org :: Бегущий по лезвию / Blade Runner (1982) BDRip | P, А

Название: Бегущий по лезвиюОригинальное название: Blade RunnerЖанр: фантастика, триллер, драмаСтрана: США , Гонконг Режиссер: Ридли СкоттВ ролях: Харрисон Форд, Рутгер Хауэр, Шон Янг, Эдвард Джеймс Олмос, М. Эммет Уолш, Дэрил Ханна, Уильям Сэндерсон, Брайон Джеймс, Джо Туркел, Джоэнна Кэссиди, Джеймс Хонг, Морган Полл, Кевин Томпсон, Джон Эдвард Аллен, Боб Оказаки, Джудит Барнетт...

Сюжет фильма: Недалекое будущее. Декард - полицейский в отставке, бывший "бегущий по лезвию" - охотник на репликантов - андроидов, созданных корпорацией "Тайрелл". Репликанты были объявлены на Земле вне закона, но группа репликантов серии Nexus-6 завладела шаттлом и, перебив команду и пассажиров, вернулась на Землю из колонии. Декарда вызвали для того, чтобы совершить грязную работу - уничтожить их... Один из лучших научно-фантастических фильмов, когда-либо снятых. Один из тех, что сопровождают тебя всю жизнь - к нему хочется возвращаться и пересматривать снова и снова, каждый раз погружаясь в его неповторимую атмосферу, смакуя детали. Фильм был снят Ридли Скоттом после "Чужого" и является вольной экранизацией романа Филипа К. Дика "Мечтают ли андроиды об электроовцах?» ("Do Androids Dream of Electric Sheep?"). "Бегущий по лезвию" поражает своим видом футуристического городского ландшафта, который в последствии неоднократно копировался в кино, но так и не был превзойден. Атмосферу фильма создает также великолепная музыка Вангелиса. Зрителя, который ожидает обычного фантастического боевика, фильм, безусловно, разочарует. Думающего зрителя этот шедевр покорит навсегда. Поначалу не принятый критиками, по прошествии времени фильм стал культовым, был признан классикой научной фантастики и предсказателем событий будущего. Он был определен как один из наиболее значимых фильмов 20-го столетия как Британским институтом кино, так и Американской киноакадемией. Фильм включен в библиотеку конгресса США.

Международная кинотеатральная версия фильма является наиболее полной и многие заслуженно считают ее лучшей. Она содержит полные сцены насилия, закадровый комментарий Декарда и расширенную версию финала.

Продолжительность: 01:57:32Качество видео: BDRipВидео: кодек: XviD, размер кадра: 720x304, битрейт: 1881 кб/сАудио 1: AC3 5.1, битрейт: 384.00 кб/с - многоголосый закадровыйАудио 2: AC3 2.0, битрейт: 192.00 кб/с - одноголосный закадровый (А. Гаврилов)Аудио 3: AC3 2.0, битрейт: 192.00 кб/с - одноголосный закадровый (Л. Володарский)Cубтитры: язык: Русские, отдельно - srt

Автор:

Доп.информация

Версии и продолжения Существует семь версий «Бегущего по лезвию»: • Рабочая версия (Workprint Version, 1982, 113 минут), которая вызвала отторжение тестовой аудитории в Денвере и Далласе в марте 1982 года, что привело к спешному перемонтированию ленты перед выпуском в широкий прокат. В 1991 году позитивная реакция тестовой аудитории на показ рабочей версии в Лос-Анджелесе и Сан-Франциско сподвигла студию на выпуск скорректированной рабочей версии под названием режиссёрской.Расширенная рабочая версия (San Diego Sneak Preview) однажды демонстрировалась в Сан-Диего в мае 1982 года и по сравнению с рабочей включала в себя три дополнительные сцены. • Первоначальная версия (Domestic Cut, 1982, 116 минут) вышла в американский прокат в июне 1982 года и стала доступна на видео год спустя.Международная версия (International Cut, 1982, 117 минут) — первоначальная версия с добавлением нескольких моментов насилия, которые были сочтены неприемлемыми для американской аудитории.Телевизионная версия (Broadcast Version, 1986, 114 минут) — версия, которая демонстрировалась по телеканалу Си-би-эс. Из неё были изъяты все сцены насилия и непечатные выражения. • Появление на рынке в 1990 году пиратских копий рабочей версии поставило на повестку дня вопрос о её официальном выпуске. К 10-летнему юбилею премьеры фильма в большой спешке и практически без участия режиссёра была подготовлена режиссёрская версия (Director’s Cut, 1992, 116 минут), из которой были исключены счастливый финал и текст от рассказчика, но зато добавлен ключевой сон о единороге. К 15-летию релиза режиссёрская версия фильма, с дополнительными материалами и иначе смонтированная, появилась на DVD. Тогда, в 1997 году, это был один из первых фильмов, доступных в новом формате. В том же году вышел телевизионный фильм о том, как снимался «Бегущий по лезвию». • К 25-летию премьеры «Бегущего по лезвию» Скотт представил на Венецианском кинофестивале 2007 года свой наиболее полный и личный фильм в окончательной версии (Final Cut). На экраны США эта версия вышла в ноябре 2007 года. Сюжетные перипетии «Бегущего по лезвию» не раз обыгрывались в массовой культуре. В год выхода фильма на большой экран по его мотивам был подготовлен один выпуск марвеловских комиксов. На сюжетных перипетиях фильма основаны две компьютерные игры под названием «Blade Runner». Первая из них вышла в 1985 году и не снискала успеха у игроков, вторая появилась 12 лет спустя и продвигалась компанией Westwood Studios под слоганом «первая трёхмерная приключенческая игра реального времени»]. Поклонники фильма давно гадают о вероятности съёмок сиквела, тем более что Ридли Скотт никогда не исключал такой возможности. Американский фантаст Кевин У. Джетер, хорошо знавший Дика, опубликовал три романа, продолжающих сюжетную линию «Бегущего по лезвию» (1995, 1996, 2000).

main-rutor.org

rutor.org :: Бегущий по лезвию / Blade Runner (1982) BDRip 1080p от R.G. HD-Films | 60 fps

Название: Бегущий по лезвиюОригинальное название: Blade RunnerГод выпуска: 1982Страна: США, Гонконг, ВеликобританияЖанр: фантастика, триллер, драма, мелодрамаПродолжительность: 01:57:36Перевод: ДубляжСубтитры:Русские (Полные), английские (полные)Вид субтитров Вшитые, отключаемыеРежиссер: Ридли Скотт / Ridley ScottВ ролях: Харрисон Форд (Rick Deckard), Рутгер Хауэр (Roy Batty), Шон Янг (Rachael), Эдвард Джеймс Олмос (Gaff), М. Эммет Уолш (Bryant), Дэрил Ханна (Pris), Уильям Сэндерсон (J.F. Sebastian), Брайон Джеймс (Leon Kowalski), Джо Тёркел (Dr. Eldon Tyrell), Джоанна Кэссиди (Zhora), Джеймс Хонг (Hannibal Chew), Морган Полл (Holden)Описание: Отставной детектив Рик Декард вновь восстановлен в полиции Лос-Анджелеса для поиска возглавляемой Роем Батти группы киборгов, совершившей побег из космической колонии на Землю. В полиции считают, что киборги пытаются встретиться с Эндолом Тайреллом, руководителем корпорации, ставящей эксперименты над кибернетическим интеллектом. Рик Декард получает задание выяснить мотивы действий киборгов, а затем уничтожить их.Рейтингimdb.com: 8.20 (368 874)MPAA: R - Лицам до 17 лет обязательно присутствие взрослогоАвтор рипа:Tiberiumsun69Качество: BDRip 1080p / 60 FPSФормат: MKVВидео кодек: AVCАудио кодек:AC3Видео: AVC, 1920x800, 10536 kbps, 59,940 fpsАудио №1: русский / AC3 / 5.1 / 48 kHz / 640 kbps / 16 bit |Дубляж| Аудио №2: русский / AC3 / 5.1 / 48 kHz / 640 kbps / 16 bit |Многоголосный, закадровый Киномания| Аудио №3: английский / AC3 / 5.1 / 48 kHz / 640 kbps / 16 bitГлавы Есть

Внимание!

Перед скачиванием обязательно проверьте сэмпл на своем оборудовании.

Благодарности

Raven за помощ при создании релиза и обложки

MI

General Unique ID : 254611464693784284997565523759139873947 (0xBF8C626849AC105396EF85F9D187649B) Complete name : A:1080p 60fpsБегущий по лезвию 1080p 60fps.mkv Format : Matroska Format version : Version 4 / Version 2 File size : 10.4 GiB Duration : 1h 57mn Overall bit rate : 12.7 Mbps Encoded date : UTC 2014-09-13 05:47:41 Writing application : mkvmerge v6.9.1 ('Blue Panther') 64bit built on Apr 18 2014 18:23:38 Writing library : libebml v1.3.0 + libmatroska v1.4.1

Video ID : 1 Format : AVC Format/Info : Advanced Video Codec Format profile : [email protected] Format settings, CABAC : Yes Format settings, ReFrames : 4 frames Codec ID : V_MPEG4/ISO/AVC Duration : 1h 57mn Bit rate : 10.5 Mbps Width : 1 920 pixels Height : 800 pixels Display aspect ratio : 2.40:1 Frame rate : 59.940 fps Color space : YUV Chroma subsampling : 4:2:0 Bit depth : 8 bits Scan type : Progressive Bits/(Pixel*Frame) : 0.114 Stream size : 8.66 GiB (83%) Writing library : x264 core 133 r2334 a3ac64b Encoding settings : cabac=1 / ref=4 / deblock=1:-1:-1 / analyse=0x3:0 / me=umh / subme=9 / psy=1 / psy_rd=1.00:0.10 / mixed_ref=1 / me_range=42 / chroma_me=0 / trellis=2 / 8x8dct=1 / cqm=0 / deadzone=21,11 / fast_pskip=0 / chroma_qp_offset=-3 / threads=12 / lookahead_threads=1 / sliced_threads=0 / nr=0 / decimate=0 / interlaced=0 / bluray_compat=0 / constrained_intra=0 / bframes=5 / b_pyramid=2 / b_adapt=2 / b_bias=0 / direct=1 / weightb=1 / open_gop=0 / weightp=2 / keyint=599 / keyint_min=59 / scenecut=40 / intra_refresh=0 / rc=crf / mbtree=0 / crf=15.0 / qcomp=0.60 / qpmin=0 / qpmax=69 / qpstep=4 / ip_ratio=1.40 / pb_ratio=1.30 / aq=0 Language : English Default : Yes Forced : No

Audio #1 ID : 2 Format : AC-3 Format/Info : Audio Coding 3 Mode extension : CM (complete main) Codec ID : A_AC3 Duration : 1h 57mn Bit rate mode : Constant Bit rate : 640 Kbps Channel(s) : 6 channels Channel positions : Front: L C R, Side: L R, LFE Sampling rate : 48.0 KHz Bit depth : 16 bits Compression mode : Lossy Stream size : 538 MiB (5%) Title : Дубляж Language : Russian Default : Yes Forced : No

Audio #2 ID : 3 Format : AC-3 Format/Info : Audio Coding 3 Mode extension : CM (complete main) Codec ID : A_AC3 Duration : 1h 57mn Bit rate mode : Constant Bit rate : 640 Kbps Channel(s) : 6 channels Channel positions : Front: L C R, Side: L R, LFE Sampling rate : 48.0 KHz Bit depth : 16 bits Compression mode : Lossy Stream size : 538 MiB (5%) Title : Многоголосный, закадровый Киномания Language : Russian Default : No Forced : No

Audio #3 ID : 4 Format : AC-3 Format/Info : Audio Coding 3 Mode extension : CM (complete main) Codec ID : A_AC3 Duration : 1h 57mn Bit rate mode : Constant Bit rate : 640 Kbps Channel(s) : 6 channels Channel positions : Front: L C R, Side: L R, LFE Sampling rate : 48.0 KHz Bit depth : 16 bits Compression mode : Lossy Stream size : 538 MiB (5%) Title : Оригинал Language : English Default : No Forced : No

Text #1 ID : 5 Format : UTF-8 Codec ID : S_TEXT/UTF8 Codec ID/Info : UTF-8 Plain Text Title : Полные Language : Russian Default : No Forced : No

Text #2 ID : 6 Format : UTF-8 Codec ID : S_TEXT/UTF8 Codec ID/Info : UTF-8 Plain Text Title : Полные Language : English Default : No Forced : No

Menu 00:00:00.000 : en:Chapter 1 00:02:58.177 : en:Chapter 2 00:04:31.980 : en:Chapter 3 00:07:25.111 : en:Chapter 4 00:11:18.260 : en:Chapter 5 00:12:58.569 : en:Chapter 6 00:16:58.183 : en:Chapter 7 00:22:38.815 : en:Chapter 8 00:25:04.878 : en:Chapter 9 00:27:58.343 : en:Chapter 10 00:30:21.486 : en:Chapter 11 00:36:19.177 : en:Chapter 12 00:41:30.321 : en:Chapter 13 00:42:23.998 : en:Chapter 14 00:45:56.335 : en:Chapter 15 00:48:44.463 : en:Chapter 16 00:55:18.898 : en:Chapter 17 00:57:27.277 : en:Chapter 18 00:59:44.998 : en:Chapter 19 01:01:49.414 : en:Chapter 20 01:03:16.000 : en:Chapter 21 01:07:44.393 : en:Chapter 22 01:12:39.521 : en:Chapter 23 01:16:13.527 : en:Chapter 24 01:20:12.474 : en:Chapter 25 01:22:34.532 : en:Chapter 26 01:27:07.513 : en:Chapter 27 01:28:45.236 : en:Chapter 28 01:34:02.219 : en:Chapter 29 01:36:54.308 : en:Chapter 30 01:41:12.316 : en:Chapter 31 01:42:37.276 : en:Chapter 32 01:44:31.807 : en:Chapter 33 01:45:56.266 : en:Chapter 34 01:49:04.496 : en:Chapter 35 01:52:21.734 : en:Chapter 36 01:57:36.591 : en:Chapter 37

Просьба к переливающим на другие сайты, в оформлении указывайте пожалуйста авторство рипа - Tiberiumsun69

main-rutor.org


Смотрите также