Чужой завет расширенная версия скачать торрент


Скачать торрент Чужой: Завет / Alien: Covenant (2017) BDRip 1080p | D

krutor.org

Информация о фильмеНазвание: Чужой: ЗаветОригинальное название: Alien: CovenantГод выхода: 2017Жанр: Фантастика, триллер, ужасыРежиссер: Ридли СкоттВ ролях: Майкл Фассбендер, Кэтрин Уотерстон, Билли Крадап, Дэнни МакБрайд, Демиан Бишир, Кармен Эджого, Джусси Смоллетт, Калли Эрнандес, Эми Саймец, Натаниель Дин, Александр Инглэнд, Бенжамин Ригби, Ули Латукефу, Тесс Хобрич, Лорелей Кинг, Горан Д’Клюе

О фильме: Во время обследования удаленной планеты, расположенной на другой стороне галактики, экипаж колониального корабля «Завет» обнаруживает, что то, что они изначально приняли за неизведанный рай, на самом деле — тёмный и опасный мир. Его единственный житель — синтетический андроид Дэвид, оставшийся в живых после обреченной экспедиционной миссии «Прометей». Страна: США, Австралия, Новая Зеландия, ВеликобританияСтудия: 20th Century Fox Film Corporation, Brandywine ProductionsПродолжительность: 02:35:11Перевод: профессиональный (дублированный)ФайлФормат: MKVКачество: BDRip 1080pВидео: MPEG-4 AVC, 10500 Кбит/с, 1920x800, 23.976 кадр/сЗвук: Russian: Dolby AC3, 48000 Hz, 6 ch, 448 kbps |дублированный|Субтитры: Русские |на расширенные места без перевода|Extended Fan Cut - Расширенная версия фильма (собрана c добавлением удаленных и расширенных сцен)

MediaInfo

General Complete name : H:TorrentAlien Covenant (2017) BDRip 1080p [Extended Fan Cut].mkv Format : Matroska File size : 11.8 GiB Duration : 2h 35mn Overall bit rate : 10.9 Mbps Movie name : Alien Covenant (2017) BDRip 1080p [Extended Fan Cut] Encoded date : UTC 2017-09-10 09:48:28 Writing application : mkvmerge v4.9.1 ('Ich will') сборка от Jul 11 2011 23:53:15 Writing library : libebml v1.2.1 + libmatroska v1.1.1

Video ID : 1 Format : AVC Format/Info : Advanced Video Codec Format profile : [email protected] Format settings, CABAC : Yes Format settings, ReFrames : 5 frames Muxing mode : Container [email protected] Codec ID : V_MPEG4/ISO/AVC Duration : 2h 35mn Bit rate : 10.2 Mbps Nominal bit rate : 10.4 Mbps Width : 1 920 pixels Height : 800 pixels Display aspect ratio : 2.40:1 Frame rate : 23.976 fps Resolution : 24 bits Colorimetry : 4:2:0 Scan type : Progressive Bits/(Pixel*Frame) : 0.278 Stream size : 11.1 GiB (94%) Title : Alien Covenant (2017) BDRip 1080p [Extended Fan Cut] Writing library : x264 core 152 r2851 ba24899 Encoding settings : cabac=1 / ref=5 / deblock=1:-3:-3 / analyse=0x3:0x133 / me=umh / subme=10 / psy=1 / psy_rd=1.00:0.00 / mixed_ref=1 / me_range=32 / chroma_me=1 / trellis=2 / 8x8dct=1 / cqm=0 / deadzone=21,11 / fast_pskip=0 / chroma_qp_offset=-2 / threads=12 / lookahead_threads=2 / sliced_threads=0 / nr=0 / decimate=1 / interlaced=0 / bluray_compat=0 / constrained_intra=0 / bframes=7 / b_pyramid=2 / b_adapt=2 / b_bias=0 / direct=3 / weightb=1 / open_gop=0 / weightp=2 / keyint=250 / keyint_min=23 / scenecut=40 / intra_refresh=0 / rc_lookahead=40 / rc=2pass / mbtree=1 / bitrate=10450 / ratetol=1.0 / qcomp=0.60 / qpmin=0 / qpmax=69 / qpstep=4 / cplxblur=20.0 / qblur=0.5 / vbv_maxrate=50000 / vbv_bufsize=62500 / nal_hrd=none / filler=0 / ip_ratio=1.40 / aq=1:0.80

Audio ID : 2 Format : AC-3 Format/Info : Audio Coding 3 Codec ID : A_AC3 Duration : 2h 35mn Bit rate mode : Constant Bit rate : 448 Kbps Channel(s) : 6 channels Channel positions : Front: L C R, Surround: L R, LFE Sampling rate : 48.0 KHz Stream size : 497 MiB (4%) Title : Дублированный Language : Russian

Text ID : 3 Format : UTF-8 Codec ID : S_TEXT/UTF8 Codec ID/Info : UTF-8 Plain Text Title : Русские на расширенные сцены Language : Russian

РУТОРГ :: Чужой: Завет / Alien: Covenant (2017) BDRip 1080p | D

xn--c1avfbif.org

Информация о фильмеНазвание: Чужой: ЗаветОригинальное название: Alien: CovenantГод выхода: 2017Жанр: Фантастика, триллер, ужасыРежиссер: Ридли СкоттВ ролях: Майкл Фассбендер, Кэтрин Уотерстон, Билли Крадап, Дэнни МакБрайд, Демиан Бишир, Кармен Эджого, Джусси Смоллетт, Калли Эрнандес, Эми Саймец, Натаниель Дин, Александр Инглэнд, Бенжамин Ригби, Ули Латукефу, Тесс Хобрич, Лорелей Кинг, Горан Д’Клюе

О фильме: Во время обследования удаленной планеты, расположенной на другой стороне галактики, экипаж колониального корабля «Завет» обнаруживает, что то, что они изначально приняли за неизведанный рай, на самом деле — тёмный и опасный мир. Его единственный житель — синтетический андроид Дэвид, оставшийся в живых после обреченной экспедиционной миссии «Прометей». Страна: США, Австралия, Новая Зеландия, ВеликобританияСтудия: 20th Century Fox Film Corporation, Brandywine ProductionsПродолжительность: 02:35:11Перевод: профессиональный (дублированный)ФайлФормат: MKVКачество: BDRip 1080pВидео: MPEG-4 AVC, 10500 Кбит/с, 1920x800, 23.976 кадр/сЗвук: Russian: Dolby AC3, 48000 Hz, 6 ch, 448 kbps |дублированный|Субтитры: Русские |на расширенные места без перевода|Extended Fan Cut - Расширенная версия фильма (собрана c добавлением удаленных и расширенных сцен)

MediaInfo

General Complete name : H:TorrentAlien Covenant (2017) BDRip 1080p [Extended Fan Cut].mkv Format : Matroska File size : 11.8 GiB Duration : 2h 35mn Overall bit rate : 10.9 Mbps Movie name : Alien Covenant (2017) BDRip 1080p [Extended Fan Cut] Encoded date : UTC 2017-09-10 09:48:28 Writing application : mkvmerge v4.9.1 ('Ich will') сборка от Jul 11 2011 23:53:15 Writing library : libebml v1.2.1 + libmatroska v1.1.1

Video ID : 1 Format : AVC Format/Info : Advanced Video Codec Format profile : [email protected] Format settings, CABAC : Yes Format settings, ReFrames : 5 frames Muxing mode : Container [email protected] Codec ID : V_MPEG4/ISO/AVC Duration : 2h 35mn Bit rate : 10.2 Mbps Nominal bit rate : 10.4 Mbps Width : 1 920 pixels Height : 800 pixels Display aspect ratio : 2.40:1 Frame rate : 23.976 fps Resolution : 24 bits Colorimetry : 4:2:0 Scan type : Progressive Bits/(Pixel*Frame) : 0.278 Stream size : 11.1 GiB (94%) Title : Alien Covenant (2017) BDRip 1080p [Extended Fan Cut] Writing library : x264 core 152 r2851 ba24899 Encoding settings : cabac=1 / ref=5 / deblock=1:-3:-3 / analyse=0x3:0x133 / me=umh / subme=10 / psy=1 / psy_rd=1.00:0.00 / mixed_ref=1 / me_range=32 / chroma_me=1 / trellis=2 / 8x8dct=1 / cqm=0 / deadzone=21,11 / fast_pskip=0 / chroma_qp_offset=-2 / threads=12 / lookahead_threads=2 / sliced_threads=0 / nr=0 / decimate=1 / interlaced=0 / bluray_compat=0 / constrained_intra=0 / bframes=7 / b_pyramid=2 / b_adapt=2 / b_bias=0 / direct=3 / weightb=1 / open_gop=0 / weightp=2 / keyint=250 / keyint_min=23 / scenecut=40 / intra_refresh=0 / rc_lookahead=40 / rc=2pass / mbtree=1 / bitrate=10450 / ratetol=1.0 / qcomp=0.60 / qpmin=0 / qpmax=69 / qpstep=4 / cplxblur=20.0 / qblur=0.5 / vbv_maxrate=50000 / vbv_bufsize=62500 / nal_hrd=none / filler=0 / ip_ratio=1.40 / aq=1:0.80

Audio ID : 2 Format : AC-3 Format/Info : Audio Coding 3 Codec ID : A_AC3 Duration : 2h 35mn Bit rate mode : Constant Bit rate : 448 Kbps Channel(s) : 6 channels Channel positions : Front: L C R, Surround: L R, LFE Sampling rate : 48.0 KHz Stream size : 497 MiB (4%) Title : Дублированный Language : Russian

Text ID : 3 Format : UTF-8 Codec ID : S_TEXT/UTF8 Codec ID/Info : UTF-8 Plain Text Title : Русские на расширенные сцены Language : Russian

Скачать торрент Чужой: Завет / Alien: Covenant (2017) BDRip 1080p | D

mrutor.org

Информация о фильмеНазвание: Чужой: ЗаветОригинальное название: Alien: CovenantГод выхода: 2017Жанр: Фантастика, триллер, ужасыРежиссер: Ридли СкоттВ ролях: Майкл Фассбендер, Кэтрин Уотерстон, Билли Крадап, Дэнни МакБрайд, Демиан Бишир, Кармен Эджого, Джусси Смоллетт, Калли Эрнандес, Эми Саймец, Натаниель Дин, Александр Инглэнд, Бенжамин Ригби, Ули Латукефу, Тесс Хобрич, Лорелей Кинг, Горан Д’Клюе

О фильме: Во время обследования удаленной планеты, расположенной на другой стороне галактики, экипаж колониального корабля «Завет» обнаруживает, что то, что они изначально приняли за неизведанный рай, на самом деле — тёмный и опасный мир. Его единственный житель — синтетический андроид Дэвид, оставшийся в живых после обреченной экспедиционной миссии «Прометей». Страна: США, Австралия, Новая Зеландия, ВеликобританияСтудия: 20th Century Fox Film Corporation, Brandywine ProductionsПродолжительность: 02:35:11Перевод: профессиональный (дублированный)ФайлФормат: MKVКачество: BDRip 1080pВидео: MPEG-4 AVC, 10500 Кбит/с, 1920x800, 23.976 кадр/сЗвук: Russian: Dolby AC3, 48000 Hz, 6 ch, 448 kbps |дублированный|Субтитры: Русские |на расширенные места без перевода|Extended Fan Cut - Расширенная версия фильма (собрана c добавлением удаленных и расширенных сцен)

MediaInfo

General Complete name : H:TorrentAlien Covenant (2017) BDRip 1080p [Extended Fan Cut].mkv Format : Matroska File size : 11.8 GiB Duration : 2h 35mn Overall bit rate : 10.9 Mbps Movie name : Alien Covenant (2017) BDRip 1080p [Extended Fan Cut] Encoded date : UTC 2017-09-10 09:48:28 Writing application : mkvmerge v4.9.1 ('Ich will') сборка от Jul 11 2011 23:53:15 Writing library : libebml v1.2.1 + libmatroska v1.1.1

Video ID : 1 Format : AVC Format/Info : Advanced Video Codec Format profile : [email protected] Format settings, CABAC : Yes Format settings, ReFrames : 5 frames Muxing mode : Container [email protected] Codec ID : V_MPEG4/ISO/AVC Duration : 2h 35mn Bit rate : 10.2 Mbps Nominal bit rate : 10.4 Mbps Width : 1 920 pixels Height : 800 pixels Display aspect ratio : 2.40:1 Frame rate : 23.976 fps Resolution : 24 bits Colorimetry : 4:2:0 Scan type : Progressive Bits/(Pixel*Frame) : 0.278 Stream size : 11.1 GiB (94%) Title : Alien Covenant (2017) BDRip 1080p [Extended Fan Cut] Writing library : x264 core 152 r2851 ba24899 Encoding settings : cabac=1 / ref=5 / deblock=1:-3:-3 / analyse=0x3:0x133 / me=umh / subme=10 / psy=1 / psy_rd=1.00:0.00 / mixed_ref=1 / me_range=32 / chroma_me=1 / trellis=2 / 8x8dct=1 / cqm=0 / deadzone=21,11 / fast_pskip=0 / chroma_qp_offset=-2 / threads=12 / lookahead_threads=2 / sliced_threads=0 / nr=0 / decimate=1 / interlaced=0 / bluray_compat=0 / constrained_intra=0 / bframes=7 / b_pyramid=2 / b_adapt=2 / b_bias=0 / direct=3 / weightb=1 / open_gop=0 / weightp=2 / keyint=250 / keyint_min=23 / scenecut=40 / intra_refresh=0 / rc_lookahead=40 / rc=2pass / mbtree=1 / bitrate=10450 / ratetol=1.0 / qcomp=0.60 / qpmin=0 / qpmax=69 / qpstep=4 / cplxblur=20.0 / qblur=0.5 / vbv_maxrate=50000 / vbv_bufsize=62500 / nal_hrd=none / filler=0 / ip_ratio=1.40 / aq=1:0.80

Audio ID : 2 Format : AC-3 Format/Info : Audio Coding 3 Codec ID : A_AC3 Duration : 2h 35mn Bit rate mode : Constant Bit rate : 448 Kbps Channel(s) : 6 channels Channel positions : Front: L C R, Surround: L R, LFE Sampling rate : 48.0 KHz Stream size : 497 MiB (4%) Title : Дублированный Language : Russian

Text ID : 3 Format : UTF-8 Codec ID : S_TEXT/UTF8 Codec ID/Info : UTF-8 Plain Text Title : Русские на расширенные сцены Language : Russian

rutor.org :: Чужой: Завет / Alien: Covenant (2017) BDRip 1080p | D

main-rutor.org

Информация о фильмеНазвание: Чужой: ЗаветОригинальное название: Alien: CovenantГод выхода: 2017Жанр: Фантастика, триллер, ужасыРежиссер: Ридли СкоттВ ролях: Майкл Фассбендер, Кэтрин Уотерстон, Билли Крадап, Дэнни МакБрайд, Демиан Бишир, Кармен Эджого, Джусси Смоллетт, Калли Эрнандес, Эми Саймец, Натаниель Дин, Александр Инглэнд, Бенжамин Ригби, Ули Латукефу, Тесс Хобрич, Лорелей Кинг, Горан Д’Клюе

О фильме: Во время обследования удаленной планеты, расположенной на другой стороне галактики, экипаж колониального корабля «Завет» обнаруживает, что то, что они изначально приняли за неизведанный рай, на самом деле — тёмный и опасный мир. Его единственный житель — синтетический андроид Дэвид, оставшийся в живых после обреченной экспедиционной миссии «Прометей». Страна: США, Австралия, Новая Зеландия, ВеликобританияСтудия: 20th Century Fox Film Corporation, Brandywine ProductionsПродолжительность: 02:35:11Перевод: профессиональный (дублированный)ФайлФормат: MKVКачество: BDRip 1080pВидео: MPEG-4 AVC, 10500 Кбит/с, 1920x800, 23.976 кадр/сЗвук: Russian: Dolby AC3, 48000 Hz, 6 ch, 448 kbps |дублированный|Субтитры: Русские |на расширенные места без перевода|Extended Fan Cut - Расширенная версия фильма (собрана c добавлением удаленных и расширенных сцен)

MediaInfo

General Complete name : H:TorrentAlien Covenant (2017) BDRip 1080p [Extended Fan Cut].mkv Format : Matroska File size : 11.8 GiB Duration : 2h 35mn Overall bit rate : 10.9 Mbps Movie name : Alien Covenant (2017) BDRip 1080p [Extended Fan Cut] Encoded date : UTC 2017-09-10 09:48:28 Writing application : mkvmerge v4.9.1 ('Ich will') сборка от Jul 11 2011 23:53:15 Writing library : libebml v1.2.1 + libmatroska v1.1.1

Video ID : 1 Format : AVC Format/Info : Advanced Video Codec Format profile : [email protected] Format settings, CABAC : Yes Format settings, ReFrames : 5 frames Muxing mode : Container [email protected] Codec ID : V_MPEG4/ISO/AVC Duration : 2h 35mn Bit rate : 10.2 Mbps Nominal bit rate : 10.4 Mbps Width : 1 920 pixels Height : 800 pixels Display aspect ratio : 2.40:1 Frame rate : 23.976 fps Resolution : 24 bits Colorimetry : 4:2:0 Scan type : Progressive Bits/(Pixel*Frame) : 0.278 Stream size : 11.1 GiB (94%) Title : Alien Covenant (2017) BDRip 1080p [Extended Fan Cut] Writing library : x264 core 152 r2851 ba24899 Encoding settings : cabac=1 / ref=5 / deblock=1:-3:-3 / analyse=0x3:0x133 / me=umh / subme=10 / psy=1 / psy_rd=1.00:0.00 / mixed_ref=1 / me_range=32 / chroma_me=1 / trellis=2 / 8x8dct=1 / cqm=0 / deadzone=21,11 / fast_pskip=0 / chroma_qp_offset=-2 / threads=12 / lookahead_threads=2 / sliced_threads=0 / nr=0 / decimate=1 / interlaced=0 / bluray_compat=0 / constrained_intra=0 / bframes=7 / b_pyramid=2 / b_adapt=2 / b_bias=0 / direct=3 / weightb=1 / open_gop=0 / weightp=2 / keyint=250 / keyint_min=23 / scenecut=40 / intra_refresh=0 / rc_lookahead=40 / rc=2pass / mbtree=1 / bitrate=10450 / ratetol=1.0 / qcomp=0.60 / qpmin=0 / qpmax=69 / qpstep=4 / cplxblur=20.0 / qblur=0.5 / vbv_maxrate=50000 / vbv_bufsize=62500 / nal_hrd=none / filler=0 / ip_ratio=1.40 / aq=1:0.80

Audio ID : 2 Format : AC-3 Format/Info : Audio Coding 3 Codec ID : A_AC3 Duration : 2h 35mn Bit rate mode : Constant Bit rate : 448 Kbps Channel(s) : 6 channels Channel positions : Front: L C R, Surround: L R, LFE Sampling rate : 48.0 KHz Stream size : 497 MiB (4%) Title : Дублированный Language : Russian

Text ID : 3 Format : UTF-8 Codec ID : S_TEXT/UTF8 Codec ID/Info : UTF-8 Plain Text Title : Русские на расширенные сцены Language : Russian


Смотрите также