Чужой завет режиссерская версия скачать торрент


Скачать торрент Чужой: Завет / Alien: Covenant (2017) BDRemux 1080p | D

Файлы для обмена предоставлены пользователями сайта. Администрация не несёт ответственности за их содержание. На сервере хранятся только торрент-файлы. Это значит, что мы не храним никаких нелегальных материалов, а так же материалов охраняемых авторским правом.

krutor.org

Информация о фильмеНазвание: Чужой: ЗаветОригинальное название: Alien: CovenantГод выхода: 2017Жанр: Фантастика, триллер, ужасыРежиссер: Ридли СкоттВ ролях: Майкл Фассбендер, Кэтрин Уотерстон, Билли Крадап, Дэнни МакБрайд, Демиан Бишир, Кармен Эджого, Джусси Смоллетт, Калли Эрнандес, Эми Саймец, Натаниель Дин, Александр Инглэнд, Бенжамин Ригби, Ули Латукефу, Тесс Хобрич, Лорелей Кинг, Горан Д’Клюе

О фильме: 2104 год. Колониальный корабль "Завет" с живыми людьми на борту бороздит просторы большого космоса на пути к неосвоенной целине. Попав в нейтринную вспышку и отделавшись легким испугом, экипаж получает загадочный сигнал с неизвестной планеты, на которой есть все условия для жизни. После непродолжительных колебаний команда прокладывает новый курс к источнику сигнала и вскоре оказывается в земном раю посреди рекордного урожая пшеницы. Однако, головокружение от успехов прерывает встреча с жертвами отсутствия генетического контроля и единственным выжившим членом экспедиции "Прометея" - андроидом Дэвидом. Неизведанный рай оборачивается суицидальным кошмаром с жестоким надругательством над психикой, купанием в соляной кислоте и поиском духовного смысла. Страна: США, Австралия, Новая Зеландия, ВеликобританияСтудия: 20th Century Fox Film Corporation, Brandywine ProductionsПродолжительность: 02:35:11Перевод: профессиональный (дублированный)Extended Fan Cut - Расширенная фан версия фильма (собрана из доп. сцен на диске).

ФайлФормат: MKVКачество: BDRemux 1080pВидео: MPEG4 Video (h364), 1920x1080, 23.976 fps, 22.5 MbpsЗвук: Russian: Dolby AC3, 48000 Hz, 6 ch, 448 kbps |дублированный|Субтитры: Русские |на расширенные места без перевода|

MediaInfo

General Unique ID : 196456950977247061890116062086303842673 (0x93CC3B82F53B5A81A561E1A57ED00171) Complete name : ***MOVIEAlien Covenant [Extended Cut] [RUS DUB 5.1 and SUB] [BDREMUX 1080p] [HDClub].mkv Format : Matroska Format version : Version 4 / Version 2 File size : 25.4 GiB Duration : 2h 35mn Overall bit rate mode : Variable Overall bit rate : 23.4 Mbps Movie name : Alien Covenant [Extended Cut] [BDREMUX 1080p] [HDClub] Encoded date : UTC 2017-09-05 12:28:31 Writing application : mkvmerge v15.0.0 ('Duel with the Devil') 64-bit Writing library : libebml v1.3.5 + libmatroska v1.4.5 DURATION : 02:28:04.280000000 NUMBER_OF_FRAMES : 436 NUMBER_OF_BYTES : 20878 _STATISTICS_WRITING_APP : mkvmerge v15.0.0 ('Duel with the Devil') 64-bit _STATISTICS_WRITING_DATE_UTC : 2017-09-05 12:28:31 _STATISTICS_TAGS : BPS DURATION NUMBER_OF_FRAMES NUMBER_OF_BYTES

Video ID : 1 Format : AVC Format/Info : Advanced Video Codec Format profile : [email protected] Format settings, CABAC : Yes Format settings, ReFrames : 4 frames Codec ID : V_MPEG4/ISO/AVC Duration : 2h 35mn Bit rate mode : Variable Bit rate : 22.5 Mbps Maximum bit rate : 40.0 Mbps Width : 1 920 pixels Height : 1 080 pixels Display aspect ratio : 16:9 Frame rate mode : Constant Frame rate : 23.976 fps Color space : YUV Chroma subsampling : 4:2:0 Bit depth : 8 bits Scan type : Progressive Bits/(Pixel*Frame) : 0.453 Stream size : 24.4 GiB (96%) Title : Alien Covenant [Extended Collector's Cut] [BDREMUX 1080p] [HDClub] Language : English Default : Yes Forced : Yes DURATION : 02:35:10.677000000 NUMBER_OF_FRAMES : 223233 NUMBER_OF_BYTES : 26722167346 _STATISTICS_WRITING_APP : mkvmerge v15.0.0 ('Duel with the Devil') 64-bit _STATISTICS_WRITING_DATE_UTC : 2017-09-05 12:28:31 _STATISTICS_TAGS : BPS DURATION NUMBER_OF_FRAMES NUMBER_OF_BYTES

Audio ID : 2 Format : AC-3 Format/Info : Audio Coding 3 Mode extension : CM (complete main) Format settings, Endianness : Big Codec ID : A_AC3 Duration : 2h 35mn Bit rate mode : Constant Bit rate : 448 Kbps Channel(s) : 6 channels Channel positions : Front: L C R, Side: L R, LFE Sampling rate : 48.0 KHz Bit depth : 16 bits Compression mode : Lossy Stream size : 497 MiB (2%) Title : RUS DUB AC3 5.1 [email protected] Language : Russian Default : Yes Forced : Yes DURATION : 02:35:10.688000000 NUMBER_OF_FRAMES : 290959 NUMBER_OF_BYTES : 521398528 _STATISTICS_WRITING_APP : mkvmerge v15.0.0 ('Duel with the Devil') 64-bit _STATISTICS_WRITING_DATE_UTC : 2017-09-05 12:28:31 _STATISTICS_TAGS : BPS DURATION NUMBER_OF_FRAMES NUMBER_OF_BYTES

Text ID : 3 Format : UTF-8 Codec ID : S_TEXT/UTF8 Codec ID/Info : UTF-8 Plain Text Title : RUS SUB for expanded inserts in English Language : Russian Default : Yes Forced : Yes

Список расширенных мест

01. Полет Шоу и Дэвида на планету инженеров - Полный русский дубляж 02. Сюжет Оперы Вагнера "Вхождение богов в Валгаллу" 03. Рождение Уолтера 04. Тест на Фобии экипажа 05. Вечеринка в честь отлета 06. Сочувствие Дэниелс от нового капитана 07. Дэниелс в каюте вспоминает мужа 08. Уолтер приносит три "косячка" Дэниелс для "расслабления" 09. Похороны капитана 10. Заражение вирусом 11. Бублики-корабли на пути следования за Дэвидом в мёртвый город 12. Разговор Уолтера с Дэниэлс у костра в городе (Уолтер пойдет говорить с Дэвидом как Брат с Братом) 13. Poзeнтaль пошла помыться и к ней пришел чужой 14. Дэвид говорит у костра капитану и Дэниэлс что не доверяет Дэвиду. Капитан идет "coбpaть cвoиx зaблyдшиx oвeчeк" 15. Дэвид ведет капитана к кокону по лестнице вниз 16. Зашифрованная передача Дэвида для Вэйланд-ЮтаниРабота с субтитрами и видео: Loliworlds
Terius 10-Сен-2017 15:45 (1 месяц 16 дней назад)
Лучше посмотрите обзор от BadComedian'a на этот фильм, больше пользы будет, и лулзов.
 
garret 10-Сен-2017 14:40 (1 месяц 16 дней назад)
Не ПТУ...ясли) Скотту Камерона не перепрыгнуть.
 
carpenter 10-Сен-2017 09:50 (1 месяц 17 дней назад)
Скачать то фильм можно, но смотреть его не нужно и сразу удалить. После Чужих 2 это творение на уровне первокусника кинематографического ПТУ
 
Libava 09-Сен-2017 23:35 (1 месяц 17 дней назад)
Фильм состоит из сплошного бреда и нелогичности. Сюжет высосан из пальца причём 21го. Спасибо за раздачу фильму кол.
 
Panavision 09-Сен-2017 20:00 (1 месяц 17 дней назад)
engie это адамус - буйный с клаба. спамил всем со своими релизами.
 
jukrut 09-Сен-2017 18:40 (1 месяц 17 дней назад) Оценил на: 10
Супер. Вот только бы поменьше размером раз в 10
 
Panavision 09-Сен-2017 17:35 (1 месяц 17 дней назад)
адамус как всегда пукает не в тему. его там забанили вот он из жиру беситься.
 
aleksander04 09-Сен-2017 16:50 (1 месяц 17 дней назад) Оценил на: 10
Весь сюжет фильма в описании к нему))
 
zyzik75 09-Сен-2017 15:50 (1 месяц 17 дней назад) Оценил на: 1
с 1-4 да ,а остальные амно :)
 
Mrak2 09-Сен-2017 14:30 (1 месяц 17 дней назад)
Чё там было интересного в Прометее? Специально пересмотрел его перед просмотром Завета. Оба фильма на одном, очень средненьком, уровне. В кино кстати смотрелось не плохо, но дома еле досмотрел до конца...
 
garret 09-Сен-2017 14:05 (1 месяц 17 дней назад)
Та сборка "Прометея" была интересна, как и сам фильм. А тут основной фильм никакой...что там "расширенное" может изменить, хз. Останемся при своих мнениях, вкусы разные)
 
Буйный Славик 09-Сен-2017 12:55 (1 месяц 18 дней назад)
какая моя вина? вы о чем вообще? как сказали ниже - спуститесь с небес, тут земля, приём)
 
Stardin 09-Сен-2017 11:30 (1 месяц 18 дней назад)
Если будете кодировать, пожалуйста, оставьте как есть разрешение т.е. 1920х1080.
 
TheBestRelizer 09-Сен-2017 11:25 (1 месяц 18 дней назад) Оценил на: 1
Хватит всякое фуфло раздавать, и хватит от HD клуба раздавать, HD клуб не работает на данный момент, значит и нет раздач от туда, отсебятину толкать не нужно, как клоуны выглядите.
 
qwerty7777 09-Сен-2017 10:20 (1 месяц 18 дней назад)
раздавать то будете не качает вовсе
 
glikster 09-Сен-2017 09:50 (1 месяц 18 дней назад) Оценил на: 10
Ого! Целых полчаса добавили! Круто! Сделайте, плиз, рип со всеми звуковыми дорожками.
 
qwerty7777 09-Сен-2017 09:25 (1 месяц 18 дней назад)
размерчик бы немного поменьше
 
Киноман Иваныч 09-Сен-2017 07:00 (1 месяц 18 дней назад)
На полчаса длиннее, блин... Чего же сразу не выпустили расширенную с полным дубляжом. Надо будет пересмотреть расширенную, вдруг фильм таким днищем уже не покажется. Ждём рипов поменьше гигов на 4 - 6 в 720 с расширенной версией.
 
Gorefest_666 09-Сен-2017 06:50 (1 месяц 18 дней назад)
Тут версия без IMAX-вставок? Хорошее дело - расширенная версия с вставками IMAX.
 

Скачать торрент Чужой: Завет / Alien: Covenant (2017) BDRip 1080p

mrutor.org

Чужой: Завет / Alien: Covenant

Страна: США Великобритания Новая Зеландия Австралия Производство: 20th Century Fox Film Corporation, Brandywine Productions Ltd., Scott Free Productions, TSG EntertainmentГод выпуска: 2017Жанр: ужасы, фантастика, триллерПродолжительность: 02:02:03

Режиссер: Ридли СкоттАвторы сценария: Джон Логан, Данте Харпер, Дэн О’Бэннон

В ролях: Майкл Фассбендер, Кэтрин Уотерстон, Билли Крудап, Дэнни МакБрайд, Демиан Бишир, Кармен Эджого, Джусси Смоллетт, Эми Саймец

Описание: Во время обследования удалённой планеты, расположенной на другой стороне галактики, экипаж колониального корабля «Завет» обнаруживает, что то, что они изначально приняли за неизведанный рай, на самом деле — тёмный и опасный мир. Его единственный житель — синтетический андроид Дэвид, оставшийся в живых после обреченной экспедиционной миссии «Прометей»...

Перевод: Любительский (многоголосый) | студия Paradox & Omskbird records + Любительский (одноголосый) | SolodСубтитры: русские, английские

Качество: BDRip 1080pФормат: MKVВидео кодек: AVCАудио кодек: DTS | AC3Видео: 1920x800 (2.40:1), 23.976 fps, MPEG-4 AVC ~8 500 kbps avgАудио №1: 48.0 kHz, Digital Theater Systems, 7 ch, ~1509 kbps kbps | ENGАудио №2: 48.0 kHz, AC3 Dolby Digital, 2/0 (L,R) ch, ~192 kbps | RUS / MVOАудио №3: 48.0 kHz, AC3 Dolby Digital, 3/2 (L,C,R,l,r) + LFE ch, ~448 kbps | VOФормат субтитров: UTF-8 Plain Text

Бюджет: $97 000 000Дата премьеры (мир): 4 мая 2017Дата премьеры (РФ): 18 мая 2017, «Двадцатый Век Фокс СНГ»

ВНИМАНИЕ! В любительской многоголосой озвучке присутствует ненормативная лексика

Релиз от: Мастер 5

Media Info

General Уникальный идентификатор : 181262278725378068705069080352016812396 (0x885DD854718FDE0A88897BD031CFC96C) Полное имя : Alien - Covenant.2017.BDRip.1080p.Master5.mkv Формат : Matroska Версия формата : Version 4 / Version 2 Размер файла : 9,05 Гбайт Продолжительность : 2 ч. 2 м. Общий поток : 10,6 Мбит/сек Название фильма : Alien - Covenant.2017.BDRip.1080p.Master5 Дата кодирования : UTC 2017-08-13 16:20:22 Программа кодирования : mkvmerge v8.1.0 ('Psychedelic Postcard') 32bit Библиотека кодирования : libebml v1.3.1 + libmatroska v1.4.2

Видео Идентификатор : 1 Формат : AVC Формат/Информация : Advanced Video Codec Профиль формата : [email protected] Параметр CABAC формата : Да Параметр ReFrames формата : 5 кадров Идентификатор кодека : V_MPEG4/ISO/AVC Продолжительность : 2 ч. 2 м. Битрейт : 8500 Кбит/сек Ширина : 1920 пикселей Высота : 800 пикселей Соотношение сторон : 2,40:1 Режим частоты кадров : Постоянный Частота кадров : 23,976 (24000/1001) кадра/сек Цветовое пространство : YUV Субдискретизация насыщенности : 4:2:0 Битовая глубина : 8 бит Тип развёртки : Прогрессивная Бит/(Пиксели*Кадры) : 0.231 Размер потока : 7,22 Гбайт (80%) Заголовок : Alien - Covenant.2017.BDRip.1080p.Master5 Библиотека кодирования : x264 core 148 r2597 e86f3a1 Настройки программы : cabac=1 / ref=5 / deblock=1:0:0 / analyse=0x3:0x113 / me=umh / subme=10 / psy=1 / psy_rd=1.05:0.10 / mixed_ref=1 / me_range=48 / chroma_me=1 / trellis=2 / 8x8dct=1 / cqm=0 / deadzone=21,11 / fast_pskip=0 / chroma_qp_offset=-2 / threads=12 / lookahead_threads=1 / sliced_threads=0 / nr=0 / decimate=1 / interlaced=0 / bluray_compat=0 / constrained_intra=0 / bframes=6 / b_pyramid=2 / b_adapt=2 / b_bias=0 / direct=3 / weightb=1 / open_gop=0 / weightp=2 / keyint=250 / keyint_min=23 / scenecut=40 / intra_refresh=0 / rc=2pass / mbtree=0 / bitrate=8500 / ratetol=2.0 / qcomp=0.70 / qpmin=0 / qpmax=69 / qpstep=4 / cplxblur=20.0 / qblur=0.5 / ip_ratio=1.40 / pb_ratio=1.30 / aq=2:1.00 Язык : English Default : Да Forced : Нет

Аудио #1 Идентификатор : 2 Формат : DTS Формат/Информация : Digital Theater Systems Профиль формата : ES Matrix / Core Режим : 16 Параметр Endianness формата : Big Идентификатор кодека : A_DTS Продолжительность : 2 ч. 2 м. Вид битрейта : Постоянный Битрейт : 1509 Кбит/сек Каналы : 7 каналов / 6 каналов Расположение каналов : Front: L C R, Side: L R, Back: C, LFE / Front: L C R, Side: L R, LFE Частота : 48,0 КГц Частота кадров : 93,750 кадра/сек (512 spf) Битовая глубина : 24 бит Метод сжатия : С потерями Размер потока : 1,29 Гбайт (14%) Язык : English Default : Нет Forced : Нет

Аудио #2 Идентификатор : 5 Формат : AC-3 Формат/Информация : Audio Coding 3 Расширение режима : CM (complete main) Параметр Endianness формата : Big Идентификатор кодека : A_AC3 Продолжительность : 2 ч. 2 м. Вид битрейта : Постоянный Битрейт : 192 Кбит/сек Каналы : 2 канала Расположение каналов : Front: L R Частота : 48,0 КГц Частота кадров : 31,250 кадров/сек (1536 spf) Метод сжатия : С потерями Размер потока : 168 Мбайт (2%) Заголовок : MVO Язык : Russian Default : Да Forced : Нет

Аудио #3 Идентификатор : 6 Формат : AC-3 Формат/Информация : Audio Coding 3 Расширение режима : CM (complete main) Параметр Endianness формата : Big Идентификатор кодека : A_AC3 Продолжительность : 2 ч. 2 м. Вид битрейта : Постоянный Битрейт : 448 Кбит/сек Каналы : 6 каналов Расположение каналов : Front: L C R, Side: L R, LFE Частота : 48,0 КГц Частота кадров : 31,250 кадров/сек (1536 spf) Метод сжатия : С потерями Размер потока : 391 Мбайт (4%) Заголовок : Solod Язык : Russian Default : Нет Forced : Нет

Текст #1 Идентификатор : 3 Формат : UTF-8 Идентификатор кодека : S_TEXT/UTF8 Идентификатор кодека/Информация : UTF-8 Plain Text Продолжительность : 1 ч. 54 м. Битрейт : 71 бит/сек Count of elements : 1440 Размер потока : 60,2 Кбайт (0%) Язык : Russian Default : Да Forced : Нет

Текст #2 Идентификатор : 4 Формат : UTF-8 Идентификатор кодека : S_TEXT/UTF8 Идентификатор кодека/Информация : UTF-8 Plain Text Продолжительность : 1 ч. 54 м. Битрейт : 52 бит/сек Count of elements : 1710 Размер потока : 44,2 Кбайт (0%) Язык : English Default : Нет Forced : Нет

Скачать торрент Чужой: Завет / Alien: Covenant (2017) BDRip 1080p

krutor.org

Чужой: Завет / Alien: Covenant

Страна: США Великобритания Новая Зеландия Австралия Производство: 20th Century Fox Film Corporation, Brandywine Productions Ltd., Scott Free Productions, TSG EntertainmentГод выпуска: 2017Жанр: ужасы, фантастика, триллерПродолжительность: 02:02:03

Режиссер: Ридли СкоттАвторы сценария: Джон Логан, Данте Харпер, Дэн О’Бэннон

В ролях: Майкл Фассбендер, Кэтрин Уотерстон, Билли Крудап, Дэнни МакБрайд, Демиан Бишир, Кармен Эджого, Джусси Смоллетт, Эми Саймец

Описание: Во время обследования удалённой планеты, расположенной на другой стороне галактики, экипаж колониального корабля «Завет» обнаруживает, что то, что они изначально приняли за неизведанный рай, на самом деле — тёмный и опасный мир. Его единственный житель — синтетический андроид Дэвид, оставшийся в живых после обреченной экспедиционной миссии «Прометей»...

Перевод: Любительский (многоголосый) | студия Paradox & Omskbird records + Любительский (одноголосый) | SolodСубтитры: русские, английские

Качество: BDRip 1080pФормат: MKVВидео кодек: AVCАудио кодек: DTS | AC3Видео: 1920x800 (2.40:1), 23.976 fps, MPEG-4 AVC ~8 500 kbps avgАудио №1: 48.0 kHz, Digital Theater Systems, 7 ch, ~1509 kbps kbps | ENGАудио №2: 48.0 kHz, AC3 Dolby Digital, 2/0 (L,R) ch, ~192 kbps | RUS / MVOАудио №3: 48.0 kHz, AC3 Dolby Digital, 3/2 (L,C,R,l,r) + LFE ch, ~448 kbps | VOФормат субтитров: UTF-8 Plain Text

Бюджет: $97 000 000Дата премьеры (мир): 4 мая 2017Дата премьеры (РФ): 18 мая 2017, «Двадцатый Век Фокс СНГ»

ВНИМАНИЕ! В любительской многоголосой озвучке присутствует ненормативная лексика

Релиз от: Мастер 5

Media Info

General Уникальный идентификатор : 181262278725378068705069080352016812396 (0x885DD854718FDE0A88897BD031CFC96C) Полное имя : Alien - Covenant.2017.BDRip.1080p.Master5.mkv Формат : Matroska Версия формата : Version 4 / Version 2 Размер файла : 9,05 Гбайт Продолжительность : 2 ч. 2 м. Общий поток : 10,6 Мбит/сек Название фильма : Alien - Covenant.2017.BDRip.1080p.Master5 Дата кодирования : UTC 2017-08-13 16:20:22 Программа кодирования : mkvmerge v8.1.0 ('Psychedelic Postcard') 32bit Библиотека кодирования : libebml v1.3.1 + libmatroska v1.4.2

Видео Идентификатор : 1 Формат : AVC Формат/Информация : Advanced Video Codec Профиль формата : [email protected] Параметр CABAC формата : Да Параметр ReFrames формата : 5 кадров Идентификатор кодека : V_MPEG4/ISO/AVC Продолжительность : 2 ч. 2 м. Битрейт : 8500 Кбит/сек Ширина : 1920 пикселей Высота : 800 пикселей Соотношение сторон : 2,40:1 Режим частоты кадров : Постоянный Частота кадров : 23,976 (24000/1001) кадра/сек Цветовое пространство : YUV Субдискретизация насыщенности : 4:2:0 Битовая глубина : 8 бит Тип развёртки : Прогрессивная Бит/(Пиксели*Кадры) : 0.231 Размер потока : 7,22 Гбайт (80%) Заголовок : Alien - Covenant.2017.BDRip.1080p.Master5 Библиотека кодирования : x264 core 148 r2597 e86f3a1 Настройки программы : cabac=1 / ref=5 / deblock=1:0:0 / analyse=0x3:0x113 / me=umh / subme=10 / psy=1 / psy_rd=1.05:0.10 / mixed_ref=1 / me_range=48 / chroma_me=1 / trellis=2 / 8x8dct=1 / cqm=0 / deadzone=21,11 / fast_pskip=0 / chroma_qp_offset=-2 / threads=12 / lookahead_threads=1 / sliced_threads=0 / nr=0 / decimate=1 / interlaced=0 / bluray_compat=0 / constrained_intra=0 / bframes=6 / b_pyramid=2 / b_adapt=2 / b_bias=0 / direct=3 / weightb=1 / open_gop=0 / weightp=2 / keyint=250 / keyint_min=23 / scenecut=40 / intra_refresh=0 / rc=2pass / mbtree=0 / bitrate=8500 / ratetol=2.0 / qcomp=0.70 / qpmin=0 / qpmax=69 / qpstep=4 / cplxblur=20.0 / qblur=0.5 / ip_ratio=1.40 / pb_ratio=1.30 / aq=2:1.00 Язык : English Default : Да Forced : Нет

Аудио #1 Идентификатор : 2 Формат : DTS Формат/Информация : Digital Theater Systems Профиль формата : ES Matrix / Core Режим : 16 Параметр Endianness формата : Big Идентификатор кодека : A_DTS Продолжительность : 2 ч. 2 м. Вид битрейта : Постоянный Битрейт : 1509 Кбит/сек Каналы : 7 каналов / 6 каналов Расположение каналов : Front: L C R, Side: L R, Back: C, LFE / Front: L C R, Side: L R, LFE Частота : 48,0 КГц Частота кадров : 93,750 кадра/сек (512 spf) Битовая глубина : 24 бит Метод сжатия : С потерями Размер потока : 1,29 Гбайт (14%) Язык : English Default : Нет Forced : Нет

Аудио #2 Идентификатор : 5 Формат : AC-3 Формат/Информация : Audio Coding 3 Расширение режима : CM (complete main) Параметр Endianness формата : Big Идентификатор кодека : A_AC3 Продолжительность : 2 ч. 2 м. Вид битрейта : Постоянный Битрейт : 192 Кбит/сек Каналы : 2 канала Расположение каналов : Front: L R Частота : 48,0 КГц Частота кадров : 31,250 кадров/сек (1536 spf) Метод сжатия : С потерями Размер потока : 168 Мбайт (2%) Заголовок : MVO Язык : Russian Default : Да Forced : Нет

Аудио #3 Идентификатор : 6 Формат : AC-3 Формат/Информация : Audio Coding 3 Расширение режима : CM (complete main) Параметр Endianness формата : Big Идентификатор кодека : A_AC3 Продолжительность : 2 ч. 2 м. Вид битрейта : Постоянный Битрейт : 448 Кбит/сек Каналы : 6 каналов Расположение каналов : Front: L C R, Side: L R, LFE Частота : 48,0 КГц Частота кадров : 31,250 кадров/сек (1536 spf) Метод сжатия : С потерями Размер потока : 391 Мбайт (4%) Заголовок : Solod Язык : Russian Default : Нет Forced : Нет

Текст #1 Идентификатор : 3 Формат : UTF-8 Идентификатор кодека : S_TEXT/UTF8 Идентификатор кодека/Информация : UTF-8 Plain Text Продолжительность : 1 ч. 54 м. Битрейт : 71 бит/сек Count of elements : 1440 Размер потока : 60,2 Кбайт (0%) Язык : Russian Default : Да Forced : Нет

Текст #2 Идентификатор : 4 Формат : UTF-8 Идентификатор кодека : S_TEXT/UTF8 Идентификатор кодека/Информация : UTF-8 Plain Text Продолжительность : 1 ч. 54 м. Битрейт : 52 бит/сек Count of elements : 1710 Размер потока : 44,2 Кбайт (0%) Язык : English Default : Нет Forced : Нет

Скачать торрент Чужой: Завет / Alien: Covenant (2017) BDRip 720p от k.e.n & MegaPeer

krutor.org

Информация о фильмеНазвание: Чужой: ЗаветОригинальное название: Alien: CovenantГод выхода: 2017Жанр: Фантастика, триллер, ужасыРежиссер: Ридли СкоттВ ролях: Майкл Фассбендер, Кэтрин Уотерстон, Билли Крадап, Дэнни МакБрайд, Демиан Бишир, Кармен Эджого, Джусси Смоллетт, Калли Эрнандес, Эми Саймец, Натаниель Дин, Александр Инглэнд, Бенжамин Ригби, Ули Латукефу, Тесс Хобрич, Лорелей Кинг, Горан Д’Клюе

О фильме: 2104 год. Колониальный корабль "Завет" с живыми людьми на борту бороздит просторы большого космоса на пути к неосвоенной целине. Попав в нейтринную вспышку и отделавшись легким испугом, экипаж получает загадочный сигнал с неизвестной планеты, на которой есть все условия для жизни. После непродолжительных колебаний команда прокладывает новый курс к источнику сигнала и вскоре оказывается в земном раю посреди рекордного урожая пшеницы. Однако, головокружение от успехов прерывает встреча с жертвами отсутствия генетического контроля и единственным выжившим членом экспедиции "Прометея" - андроидом Дэвидом. Неизведанный рай оборачивается суицидальным кошмаром с жестоким надругательством над психикой, купанием в соляной кислоте и поиском духовного смысла.

Страна: США, Австралия, Новая Зеландия, ВеликобританияСтудия: 20th Century Fox Film Corporation, Brandywine ProductionsПродолжительность: 02:02:03Перевод: Дублированный, любительский (многоголосый, закадровый) Студия "Paradox" & Omskbird records, авторский (одноголосый, закадровый) А.Матвеев, любительский (одноголосый, закадровый) Е.Солодухин

ФайлКонтейнер: MKVКачество: BDRip 720p | BDRemux 1080p |Видео: AVC, 1280x534 (2.40:1), 23.976 fps, 4 231 Kbps (0.258 bit/pixel)Аудио #1: AC-3, 48.0 KHz, 6 ch, 448 Kbps, CBR (Russian) - дублированныйАудио #2: AC-3, 48.0 KHz, 2 ch, 192 Kbps, CBR (Russian) - многоголосый (Студия "Paradox" & Omskbird records)Аудио #3: AC-3, 48.0 KHz, 6 ch, 448 Kbps, CBR (Russian) - авторский одноголосый А.МатвеевАудио #4: AC-3, 48.0 KHz, 6 ch, 448 Kbps, CBR (Russian) - любительский одноголосый Е.Солодухин (Solod)Аудио #5: AC-3, 48.0 KHz, 6 ch, 448 Kbps, CBR (English) - оригинальная звуковая дорожкаАудио #6: AC-3, 48.0 KHz, 2 ch, 224 Kbps, CBR (English) - комментарии Ридли СкоттаСубтитры: Русские, английские

Релиз: Группа в ВК &

x264 log:

x264 [info]: frame I:1370 Avg QP:13.52 size:133406 PSNR Mean Y:48.46 U:52.56 V:51.74 Avg:49.36 Global:48.47 x264 [info]: frame P:41115 Avg QP:16.21 size: 41919 PSNR Mean Y:46.05 U:51.08 V:50.10 Avg:47.08 Global:46.22 x264 [info]: frame B:133099 Avg QP:18.47 size: 14701 PSNR Mean Y:45.14 U:50.80 V:49.65 Avg:46.24 Global:45.30

MediaInfo:

Формат : Matroska Версия формата : Version 2 Размер файла : 5,48 Гбайт Продолжительность : 2 ч. 2 м. Общий поток : 6432 Кбит/сек Название фильма : Alien: Covenant (2017) Дата кодирования : UTC 2017-08-31 20:51:35 Программа кодирования : mkvmerge v5.3.0 ('I could have danced') built on Feb 9 2012 10:38:07 Библиотека кодирования : libebml v1.2.3 + libmatroska v1.3.0 Attachments : poster.jpg

Видео Идентификатор : 1 Формат : AVC Формат/Информация : Advanced Video Codec Профиль формата : [email protected] Параметр CABAC формата : Да Параметр ReFrames формата : 12 кадров Идентификатор кодека : V_MPEG4/ISO/AVC Продолжительность : 2 ч. 2 м. Битрейт : 4231 Кбит/сек Ширина : 1280 пикселей Высота : 534 пикселя Соотношение сторон : 2,40:1 Режим частоты кадров : Постоянный Частота кадров : 23,976 (24000/1001) кадра/сек Цветовое пространство : YUV Субдискретизация насыщенности : 4:2:0 Битовая глубина : 8 бит Тип развёртки : Прогрессивная Бит/(Пиксели*Кадры) : 0.258 Размер потока : 3,49 Гбайт (64%) Библиотека кодирования : x264 core 146 r2538 121396c Настройки программы : cabac=1 / ref=12 / deblock=1:-3:-3 / analyse=0x3:0x133 / me=umh / subme=11 / psy=1 / psy_rd=1.00:0.10 / mixed_ref=1 / me_range=32 / chroma_me=1 / trellis=2 / 8x8dct=1 / cqm=0 / deadzone=21,11 / fast_pskip=0 / chroma_qp_offset=-3 / threads=12 / lookahead_threads=3 / sliced_threads=0 / nr=0 / decimate=1 / interlaced=0 / bluray_compat=0 / constrained_intra=0 / bframes=11 / b_pyramid=2 / b_adapt=2 / b_bias=0 / direct=3 / weightb=1 / open_gop=0 / weightp=2 / keyint=240 / keyint_min=23 / scenecut=40 / intra_refresh=0 / rc=2pass / mbtree=0 / bitrate=4231 / ratetol=1.0 / qcomp=0.60 / qpmin=0 / qpmax=69 / qpstep=4 / cplxblur=20.0 / qblur=0.5 / ip_ratio=1.40 / pb_ratio=1.30 / aq=3:0.90 Язык : English Default : Да Forced : Нет

Аудио #1 Идентификатор : 2 Формат : AC-3 Формат/Информация : Audio Coding 3 Расширение режима : CM (complete main) Параметр Endianness формата : Big Идентификатор кодека : A_AC3 Продолжительность : 2 ч. 2 м. Вид битрейта : Постоянный Битрейт : 448 Кбит/сек Каналы : 6 каналов Расположение каналов : Front: L C R, Side: L R, LFE Частота : 48,0 КГц Частота кадров : 31,250 кадров/сек (1536 spf) Битовая глубина : 16 бит Метод сжатия : С потерями Размер потока : 391 Мбайт (7%) Заголовок : Дублированный Язык : Russian Default : Нет Forced : Нет

Аудио #2 Идентификатор : 3 Формат : AC-3 Формат/Информация : Audio Coding 3 Расширение режима : CM (complete main) Параметр Endianness формата : Big Идентификатор кодека : A_AC3 Продолжительность : 2 ч. 2 м. Вид битрейта : Постоянный Битрейт : 192 Кбит/сек Каналы : 2 канала Расположение каналов : Front: L R Частота : 48,0 КГц Частота кадров : 31,250 кадров/сек (1536 spf) Битовая глубина : 16 бит Метод сжатия : С потерями Размер потока : 168 Мбайт (3%) Заголовок : MVO | Студия "Paradox" & Omskbird records Язык : Russian Default : Нет Forced : Нет

Аудио #3 Идентификатор : 4 Формат : AC-3 Формат/Информация : Audio Coding 3 Расширение режима : CM (complete main) Параметр Endianness формата : Big Идентификатор кодека : A_AC3 Продолжительность : 2 ч. 2 м. Вид битрейта : Постоянный Битрейт : 448 Кбит/сек Каналы : 6 каналов Расположение каналов : Front: L C R, Side: L R, LFE Частота : 48,0 КГц Частота кадров : 31,250 кадров/сек (1536 spf) Битовая глубина : 16 бит Метод сжатия : С потерями Размер потока : 391 Мбайт (7%) Заголовок : AVO | А.Матвеев Язык : Russian Default : Нет Forced : Нет

Аудио #4 Идентификатор : 5 Формат : AC-3 Формат/Информация : Audio Coding 3 Расширение режима : CM (complete main) Параметр Endianness формата : Big Идентификатор кодека : A_AC3 Продолжительность : 2 ч. 2 м. Вид битрейта : Постоянный Битрейт : 448 Кбит/сек Каналы : 6 каналов Расположение каналов : Front: L C R, Side: L R, LFE Частота : 48,0 КГц Частота кадров : 31,250 кадров/сек (1536 spf) Битовая глубина : 16 бит Метод сжатия : С потерями Размер потока : 391 Мбайт (7%) Заголовок : VO | Е.Солодухин Язык : Russian Default : Нет Forced : Нет

Аудио #5 Идентификатор : 6 Формат : AC-3 Формат/Информация : Audio Coding 3 Расширение режима : CM (complete main) Параметр Endianness формата : Big Идентификатор кодека : A_AC3 Продолжительность : 2 ч. 2 м. Вид битрейта : Постоянный Битрейт : 448 Кбит/сек Каналы : 6 каналов Расположение каналов : Front: L C R, Side: L R, LFE Частота : 48,0 КГц Частота кадров : 31,250 кадров/сек (1536 spf) Битовая глубина : 16 бит Метод сжатия : С потерями Размер потока : 391 Мбайт (7%) Заголовок : original Язык : English Default : Нет Forced : Нет

Аудио #6 Идентификатор : 7 Формат : AC-3 Формат/Информация : Audio Coding 3 Расширение режима : CM (complete main) Параметр Endianness формата : Big Идентификатор кодека : A_AC3 Продолжительность : 2 ч. 2 м. Вид битрейта : Постоянный Битрейт : 224 Кбит/сек Каналы : 2 канала Расположение каналов : Front: L R Частота : 48,0 КГц Частота кадров : 31,250 кадров/сек (1536 spf) Битовая глубина : 16 бит Метод сжатия : С потерями Размер потока : 196 Мбайт (3%) Заголовок : Commentary by director Ridley Scott Язык : English Default : Нет Forced : Нет

Текст #1 Идентификатор : 8 Формат : UTF-8 Идентификатор кодека : S_TEXT/UTF8 Идентификатор кодека/Информация : UTF-8 Plain Text Заголовок : forced Язык : Russian Default : Нет Forced : Нет

Текст #2 Идентификатор : 9 Формат : UTF-8 Идентификатор кодека : S_TEXT/UTF8 Идентификатор кодека/Информация : UTF-8 Plain Text Заголовок : Full Язык : Russian Default : Нет Forced : Нет

Текст #3 Идентификатор : 10 Формат : UTF-8 Идентификатор кодека : S_TEXT/UTF8 Идентификатор кодека/Информация : UTF-8 Plain Text Заголовок : Full Язык : English Default : Нет Forced : Нет

Текст #4 Идентификатор : 11 Формат : UTF-8 Идентификатор кодека : S_TEXT/UTF8 Идентификатор кодека/Информация : UTF-8 Plain Text Заголовок : SDH Язык : English Default : Нет Forced : Нет

Текст #5 Идентификатор : 12 Формат : UTF-8 Идентификатор кодека : S_TEXT/UTF8 Идентификатор кодека/Информация : UTF-8 Plain Text Заголовок : Color Язык : English Default : Нет Forced : Нет

Меню 00:00:00.000 : en:Chapter 1 00:04:47.662 : en:Chapter 2 00:13:07.495 : en:Chapter 3 00:18:11.924 : en:Chapter 4 00:22:46.448 : en:Chapter 5 00:27:51.169 : en:Chapter 6 00:33:12.908 : en:Chapter 7 00:37:18.736 : en:Chapter 8 00:42:19.912 : en:Chapter 9 00:47:43.694 : en:Chapter 10 00:52:04.371 : en:Chapter 11 00:55:56.270 : en:Chapter 12 01:00:17.447 : en:Chapter 13 01:06:20.643 : en:Chapter 14 01:11:25.031 : en:Chapter 15 01:16:35.883 : en:Chapter 16 01:21:10.032 : en:Chapter 17 01:28:18.793 : en:Chapter 18 01:31:21.559 : en:Chapter 19 01:34:52.437 : en:Chapter 20 01:39:23.666 : en:Chapter 21 01:43:35.876 : en:Chapter 22 01:50:49.309 : en:Chapter 23 01:55:27.754 : en:Chapter 24

Скриншоты:

Завет (2017) смотреть онлайн или скачать фильм через торрент. Трейлеры, правдивые оценки, рецензии, комментарии, похожие фильмы, саундтрек, новости и интересные факты на Fast-torrent

Заветы Ридли Скотта: инсайд из каморки сценаристов

Ридли Скотт постарел. А как говорится: «седина в бороду – бес в ребро». И началась гонка. За респектом. Скотт очень хочет напоследок еще разок войти в историю, вернуть ошеломляющий успех того самого, первого Чужого.

Но оказалось, что это не так-то просто. Не выходит каменный цветок! В недавнем Прометее метался дедушка от одной идеи к другой, бросая их на ходу, не доделывая, не дораскручивая, пропуская один сюжетный ляп за другим. В одном лишь дожал – шикарный видеоряд. Ну и, пожалуй, с Нуми Рапас относительно неплохо попал. Конечно, далеко не полноценная замена настоящей Эллен Рипли, но хоть как-то положение спасает.

Однако, в целом – заметно, что прыть у Скотта уже не та, команда не та, все не то. Эпоха не та. Времена, когда сценаристы и актеры готовы были жилы рвать ради зрителя – в прошлом, как и былые заслуги Ридли. Сейчас в Голливуде принято за деньги работать. Вот что положено по договору – то и нате, а как-то сверх выкладываться, это уже пардон. А как же слава, говоришь? Да нам и так норм. Рекламкой подраскрутим, в Интернете хайпанем – и отобьем кассу, вот тебе и слава. Не парься Ридли!

Зрителям, понятно дело – оказалось мало. Разворчались они. То им не так, да это не то. «Не канон снял!» - кричат. Так что в Завете, решил режиссер умыть всех критиков. Вылить на них целый ушат кровищи, да монстров поболее напустить. Чтоб – наверняка. Не оценили мой гений в Прометее? Хотели своих ненаглядных чужих? Получите чужих! С этой целью указал дедушка Скотт команде напридумывать сюжетных поворотов и новых тварей. И задачу поставил: чтобы в кадре постоянно умирал кто-то. Да помучительнее!

А сценаристы что? Сценаристы за бабки работают. По договору. У них гильдия, профсоюз, шестичасовой рабочий день. Им срать на старческие Ридлины метания. Отправили стажера за сборником типовых шаблонов типового космического ужастика – и давай оттуда штамп за штампом, клише за клише доставать, и в сценарий фигачить.

- Так-с, заражать будем по-новому. Пусть это будут… где ж это… а, вот, страница 22! Будут споры! Модно и современно. - У нас же астронавты! Они в скафандрах! - Ерунда, скафандры уберем. Пусть так по неизведанной планете ходят. - Но… - И нужна обязательно пасхалочка с лицехватом! - Постойте, у нас же споры?! - Пофиг. Все любят лицехватов. Пусть командир найдет яйцо и сунет туда башку! - Серьёзно?? - Не умничай. Так, еще нам нужные новые виды монстров. Что-то необычное, эстетское такое. Ну, глянь там Лабиринт Фавна, помнишь? Там один такой прикольный был? - Ок, босс. Только башку ему слегка изменим, чтоб проблем с правами не было. - Ну и с остальными поколдуй. Можно грудолому ручки приделать, для прикола, хе-хе… И пусть команда все время разделяется. Покурить уходят, в душ, в одиночестве побыть. Так легче выпиливать, напрягаться не придется. - Но какой дебил захочет уединяться, когда кругом опаснейшие монстры? - Наши дебилы и захотят! Всему учить надо… Да, и слышь, стажер: взрывов добавь побольше! Зритель любит взрывы. Пусть кто-нибудь случайно взорвет посадочный челнок. - Но… но… Как скажете, босс. А что с Инженерами? С Шоу? Мы же типа, должны дать зрителю ответ? - Ой, я тебя умоляю, «ответ»… Выпили их нафиг сразу же, и концы в воду! И про андроида не забудь. Это фишка такая. В первой серии был злой андроид. В Прометее был злой андроид. У нас он тоже должен быть. - Босс, а во второй части андроид был добрый. - Реально? Вот засада… А пофиг: пусть у нас будет и злой, и добрый андроид! Хе-хе! Не придерешься. - Бюджет не потянет еще актера. - Тогда их будет играть один человек! И хватит утомлять меня всякими глупостями.

Принесли сценарий Ридли. Вот, старик: все как хотел. Новые сюжетные повороты, много экшена, куча новых чужих, все умирают на каждом шагу. Прослезился Ридли: молодцы, парни! Скорее в работу! Я сценарий читать не буду, мне еще jpg-картинки с инопланетным австралийским лесом просчитать надо на хромакее. Так и вышел на большие экраны Чужой: Завет.

www.fast-torrent.ru

Скачать торрент Чужой: Завет / Alien: Covenant (2017) WEBRip-AVC

krutor.org

Информация о фильмеНазвание: Чужой: ЗаветОригинальное название: Alien: CovenantГод выхода: 2017Жанр: Фантастика, триллер, ужасыРежиссер: Ридли СкоттВ ролях: Майкл Фассбендер, Кэтрин Уотерстон, Билли Крадап, Дэнни МакБрайд, Демиан Бишир, Кармен Эджого, Джусси Смоллетт, Калли Эрнандес, Эми Саймец, Натаниель Дин, Александр Инглэнд, Бенжамин Ригби, Ули Латукефу, Тесс Хобрич, Лорелей Кинг, Горан Д’Клюе

О фильме: 2104 год. Колониальный корабль "Завет" с живыми людьми на борту бороздит просторы большого космоса на пути к неосвоенной целине. Попав в нейтринную вспышку и отделавшись легким испугом, экипаж получает загадочный сигнал с неизвестной планеты, на которой есть все условия для жизни. После непродолжительных колебаний команда прокладывает новый курс к источнику сигнала и вскоре оказывается в земном раю посреди рекордного урожая пшеницы. Однако, головокружение от успехов прерывает встреча с жертвами отсутствия генетического контроля и единственным выжившим членом экспедиции "Прометея" - андроидом Дэвидом. Неизведанный рай оборачивается суицидальным кошмаром с жестоким надругательством над психикой, купанием в соляной кислоте и поиском духовного смысла.

Страна: США, Австралия, Новая Зеландия, ВеликобританияСтудия: 20th Century Fox Film Corporation, Brandywine ProductionsПродолжительность: 02:03:22Перевод: Дублированный (TS)

ФайлКачество: WEBRip-AVCВидео: MPEG-4 AVC, 722x406, ~781 Кбит/с, 23.976 кадр/сЗвук: AAC, 2.0, ~64 Кбит/сСубтитры: Корейские (хардсаб)

БЕЗ РЕКЛАМЫ.

M/I

General Unique ID : 202671729564788716409937959181676632605 (0x987927C0C1477FDC38762AE207EADA1D) Complete name : F:Чужой- Завет.(2017).WEBRIP-AVC.[-=DoMiNo=-].mkv Format : Matroska Format version : Version 4 / Version 2 File size : 740 MiB Duration : 2 h 3 min Overall bit rate : 838 kb/s Movie name : Чужой: Завет Writing application : XviD4PSP 7.0.392 DAILY Writing library : Lavf57.71.100 ErrorDetectionType : Per level 1 Attachments : poster.jpg ACTORS : Майкл Фассбендер, Кэтрин Уотерстон, Билли Крудап, Дэнни МакБрайд, Демиан Бишир, Кармен Эджого, Джусси Смоллетт, Калли Эрнандес, Эми Саймец, Натаниель Дин, Александр Инглэнд, Бенжамин Ригби, Ули Латукефу, Тесс Хобрич, Лорелей Кинг, Горан Д’Клюе, Эндрю Кроуфорд, Хавьер Ботет, Джеймс Франко, Гай Пирс, Нуми Рапас COMPOSER : Джед Курзель COUNTRY : США, Великобритания, Австралия, Новая Зеландия, Канада DATE : 2017 DIRECTOR : Ридли Скотт ENCODING_INFO : MATROSKA,WEBM > MKV Произвольный / h364 > X264 VBR-2P 781kbps Произвольный / AC3 > AAC CBR 64kbps HE GENRE : ужасы, фантастика, триллер HD_VIDEO : 1 IMDB_RATING : 6.80 ITUNEXTC : mpaa|R|400| Language : und MEDIA_TYPE : 9 ORIGINAL_ACTORS : Michael Fassbender, Katherine Waterston, Billy Crudup, Danny McBride, Demián Bichir, Carmen Ejogo, Jussie Smollett, Callie Hernandez, Amy Seimetz, Nathaniel Dean, Alexander England, Benjamin Rigby, Uli Latukefu, Tess Haubrich, Lorelei King, Goran D'Kluet, Andrew Crawford, Javier Botet, James Franco, Guy Pearce, Noomi Rapace ORIGINAL_TITLE : Alien: Covenant PRODUCER : Дэвид Гайлер, Эми Грин Винс, Уолтер Хилл, Марк Хаффам, Ханна Айрлэнд, Тереза Келли, Майкл Шефер, Ридли Скотт RATING : 6.281 WRITER : Джон Логан, Данте Харпер, Дэн О’Бэннон, Рональд Шусетт, Джек Паглен, Майкл Грин

Video ID : 1 Format : AVC Format/Info : Advanced Video Codec Format profile : [email protected] Format settings, CABAC : Yes Format settings, RefFrames : 10 frames Codec ID : V_MPEG4/ISO/AVC Duration : 2 h 3 min Nominal bit rate : 781 kb/s Width : 722 pixels Height : 406 pixels Display aspect ratio : 16:9 Frame rate mode : Constant Frame rate : 23.976 (24000/1001) FPS Color space : YUV Chroma subsampling : 4:2:0 Bit depth : 8 bits Scan type : Progressive Bits/(Pixel*Frame) : 0.111 Title : RIP_BY_-=DoMiNo=- Writing library : x264 core 152 r2851M ba24899 Encoding settings : cabac=1 / ref=10 / deblock=1:-3:-3 / analyse=0x3:0x133 / me=umh / subme=10 / psy=1 / psy_rd=1.00:0.05 / mixed_ref=1 / me_range=32 / chroma_me=1 / trellis=2 / 8x8dct=1 / cqm=0 / deadzone=21,11 / fast_pskip=1 / chroma_qp_offset=-3 / threads=6 / lookahead_threads=1 / sliced_threads=0 / nr=0 / decimate=1 / interlaced=0 / bluray_compat=0 / constrained_intra=0 / bframes=9 / b_pyramid=2 / b_adapt=2 / b_bias=0 / direct=3 / weightb=1 / open_gop=0 / weightp=2 / keyint=230 / keyint_min=23 / scenecut=40 / intra_refresh=0 / rc_lookahead=60 / rc=2pass / mbtree=1 / bitrate=781 / ratetol=1.0 / qcomp=0.65 / qpmin=0 / qpmax=69 / qpstep=4 / cplxblur=20.0 / qblur=0.5 / ip_ratio=1.40 / aq=1:1.00 Language : English Default : Yes Forced : No Color range : Limited Color primaries : BT.709 Transfer characteristics : BT.709 Matrix coefficients : BT.709 DURATION : 02:01:51.179000000 ENCODING_INFO : x264 - core 142 r2479 dd79a61 - H.264/MPEG-4 AVC codec - Copyleft 2003-2014 - http://www.videolan.org/x264.html - options: cabac=1 ref=1 deblock=1:0:0 analyse=0x3:0x113 me=hex subme=2 psy=1 psy_rd=1.00:0.00 mixed_ref=0 me_range=16 chroma_me=1 trellis=0 8x8dct=1 cqm=0 deadzone=21,11 fast_pskip=1 chroma_qp_offset=0 threads=12 lookahead_threads=4 sliced_threads=0 nr=0 decimate=1 interlaced=0 bluray_compat=0 constrained_intra=0 bframes=3 b_pyramid=2 b_adapt=1 b_bias=0 direct=1 weightb=1 open_gop=0 weightp=1 keyint=240 keyint_min=24 scenecut=40 intra_refresh=0 rc_lookahead=10 rc=abr mbtree=1 bitrate=4200 ratetol=1.0 qcomp=0.60 qpmin=0 qpmax=69 qpstep=4 vbv_maxrate=62500 vbv_bufsize=78125 nal_hrd=none filler=0 ip_ratio=1.40 aq=1:1.00

Audio ID : 2 Format : AAC Format/Info : Advanced Audio Codec Format profile : HE-AAC / LC Codec ID : A_AAC Duration : 2 h 3 min Channel(s) : 2 channels Channel positions : Front: L R Sampling rate : 48.0 kHz / 24.0 kHz Frame rate : 23.438 FPS (1024 SPF) Compression mode : Lossy Title : DUB_TS_Clin Language : Russian Default : Yes Forced : No DURATION : 02:03:22.573000000

Menu 00:00:00.000 : :Глава 1 00:09:40.872 : :Глава 2 00:19:31.545 : :Глава 3 00:34:35.197 : :Глава 4 00:49:56.618 : :Глава 5 01:04:47.133 : :Глава 6 01:17:52.918 : :Глава 7 01:32:21.244 : :Глава 8 01:44:43.110 : :Глава 9 01:54:46.963 : :Глава 10

rutor.org :: Чужой: Завет / Alien: Covenant (2017) BDRip 1080p от HDClub | D, A

main-rutor.org

Ω Чужой: Завет (2017) 1080p BDRip HDClub Ω ✦ Название: Чужой: Завет ✦ Оригинальное название: Alien: Covenant ✦ Год выхода: 2017 ✦ Жанр: Фантастика, триллер, ужасы✦ Режиссер: Ридли Скотт ✦ В ролях: Майкл Фассбендер, Кэтрин Уотерстон, Билли Крадап, Дэнни МакБрайд, Демиан Бишир, Кармен Эджого, Джусси Смоллетт, Калли Эрнандес, Эми Саймец, Натаниель Дин, Александр Инглэнд, Бенжамин Ригби, Ули Латукефу, Тесс Хобрич, Лорелей Кинг, Горан Д’Клюе✦ О фильме: Во время обследования удаленной планеты, расположенной на другой стороне галактики, экипаж колониального корабля «Завет» обнаруживает, что то, что они изначально приняли за неизведанный рай, на самом деле — тёмный и опасный мир. Его единственный житель — синтетический андроид Дэвид, оставшийся в живых после обреченной экспедиционной миссии «Прометей».✦ Выпущено: США, Австралия, Новая Зеландия, Великобритания, 20th Century Fox Film Corporation, Brandywine Productions ✦ Продолжительность:  02:02:03

Что значит для нас HDClub

Все мы знаем HDClub, это качественный контент HD, невероятный выбор Remux с все возможными переводами, толковый и исключительно высочайший профессиональный подход к релизам. Но увы всему этому приходит конец... После более чем 10 лет онлайн, HDClub, ведущий в России HD и 3D сайт, закрывается. С большим сожалением сообщаю и за оказанного давления топовый сайт уходит из интернета. На сайте было примерно 170 000 пользователей, HDClub был известен высококачественными релизами, на него ровнялись большинство релиз групп заливая их на свои сайты, такие как The Pirate Bay и многие другие. Тем не менее администраторы говорят, что постоянные жалобы от правообладателей, вредоносные сторонние атаки, заставили их свернуть проект. Не известно кто стоит за этим, но все мы ходим под Богом, они не останутся безнаказанными. В то время как миллионы пользователей часто посещают популярные публичные сайты, такие как The Pirate Bay и RARBG каждый день, процветают так же и частные сайты, которые скрыты от широкой публики. Каждую неделю, частные сайты обслуживают десятки миллионов пользователей BitTorrent, которые потратили время и силы, чтобы получить доступ к этим более секретным сообществам. Часто обозначаясь как элитные данные ресурсы скрывают свое существование, однако они не идут ни в какое сравнение с HDClub который сделал возможным само существование лучшего контента, тем не менее частные сайты гордятся качеством, порядком и скоростью но тем не менее все равно не в состоянии конкурировать с HDClub, по скольку среди основных преимуществ ресурса не только толковое отношение к качеству релизов но и конечному пользователю. В течении 10 лет пользователям предоставлялась возможность скачивать лучший контент в на просторах интернета. Не оценили...

"Сообщество BitTorrent High Definition" - так себя назвал HDClub и это правда, кто же сейчас станет собирать деньги на выполнение озвучки контента Blu-ray который вовсе не был переведен на русский. С уходом ресурса мы теряем не только источник контента которым он был для многих пользователей, но и команду которая с позволяла людям увидеть то что другие предпочтут игнорировать. Когда HDClub открылся в 2007 году, еще ни кто и не знал каким будет будущее, сколь много смогут добиться его основатели. В этом году сайт отпраздновал 10 летие, позволяя все так же скачивать крутой контент. Однако мало кто заметил неладное, в последние месяцы сайт стал тухнуть, релизов становилось се меньше а его основатели долгое время пропадали...

Родился в 2007 году, HDClub отпраздновал свой 9 день рождения 9 марта прошлого года, а 2017 год ознаменовался полным десятилетием онлайн для сайта. Релизы сайта часто сохраняли английский вариант аудио, идеально подходящий для тех, кто ищет высококачественные релизы из неортодоксального источника на приличных скоростях.

Конечно, выпуски HDClub часто выходят за пределы сайта, а это означает, что тысячи его раздач разошлись на просторах сети, на обычных публичных ресурсах, без труда можно найти раздачу в которой обаятельно будет упомянуто имя HDClub. Отец современного HD контента.

Важно отметить, то что сайт предоставлял тысячи вариантов Remux, полностью недоступных в России из лицензированных источников, что означает то что ресурс заполнил нишу, в которой официальные торговые точки России не могли оказать конкуренцию. Это автоматически сделало HDClub одним из лучших сайтов в России, несмотря на то, что это закрытая платформа. В течение последних нескольких лет сайт ограничил членство в 190 000 пользователей, но на практике посещаемость проходила около отметки в 200 000 человек. Качающих и раздающих же было более 580 000. Таковым был успех проекта.

Теперь же десятилетний пробег HDClub завершился. Это нанесло неисправимый ущерб не только качеству релизов HD-контента но лишило многих возможности скачивать действительно качественные раздачи, порой вовсе не доступные на просторах интернета. Объявление на русском языке, представленное на главной странице, объясняет причины закрытия сайта.

«Недавно мы получили несколько десятков жалоб от правообладателей еженедельно, и наше сообщество подвергается нападениям и шпионажу », - говорится в заявлении.

Хотя публичные сайты всегда подвергаются атакам уведомлениями в стиле DMCA, частные сайты склонны избегать большого количества жалоб. В этом случае, HDClub явно был подвержен чудовищному давлению. Кроме того, сообщение ясно дает понять о том что сообщество клуба было подвержено атакам. Спросите себя, за чем. Разве деятельность сайта не достойна уважения...

«Параллельно в России, Украине и странах ЕС происходит ужесточение интернет-законодательства», - говорится в сообщении. Не известно коим образом данные страны могли повлиять на закрытие сайта.

«В сложившихся обстоятельствах мы больше не можем поддерживать работу клуба в первоначально задуманном формате. Проект закрыт, Но мы просим вас воздерживаться от громких прощаний. Спасибо всем и до свидания! »- заключает сообщение.

Все же что сайт заканчивается небольшим тизером, что может указывать на некоторую надежду на будущее.

«Идут переговоры по сохранению наследия клуба», - говорится в нем. Более ни какой информации на странице нет.

Остается только ждать и надеяться на возвращение сайта что стал легендарным...

Перевод с японского языка. Автор: ProCoder.

MI Info

Формат : Matroska Версия формата : Version 4 / Version 2 Размер файла : 16,8 Гбайт Продолжительность : 2 ч. 2 м. Общий поток : 19,7 Мбит/сек Название фильма : Alien: Covenant (2017) HDClub Дата кодирования : UTC 2017-09-07 13:37:49 Программа кодирования : mkvmerge v9.3.1 ('Mask Machine') 64bit Библиотека кодирования : libebml v1.3.4 + libmatroska v1.4.5 Attachements : cover.jpg DURATION : 01:54:05.768000000 NUMBER_OF_FRAMES : 1755 NUMBER_OF_BYTES : 74212 _STATISTICS_WRITING_APP : mkvmerge v9.3.1 ('Mask Machine') 64bit _STATISTICS_WRITING_DATE_UTC : 2017-09-07 13:37:49 _STATISTICS_TAGS : BPS DURATION NUMBER_OF_FRAMES NUMBER_OF_BYTES

Видео Идентификатор : 5 Формат : AVC Формат/Информация : Advanced Video Codec Профиль формата : [email protected] Параметр CABAC формата : Да Параметр ReFrames формата : 5 кадров Идентификатор кодека : V_MPEG4/ISO/AVC Продолжительность : 2 ч. 2 м. Битрейт : 14,4 Мбит/сек Ширина : 1920 пикселей Высота : 800 пикселей Соотношение сторон : 2,40:1 Режим частоты кадров : Постоянный Частота кадров : 23,976 кадра/сек Цветовое пространство : YUV Субдискретизация насыщенности : 4:2:0 Битовая глубина : 8 бит Тип развёртки : Прогрессивная Бит/(Пиксели*Кадры) : 0.392 Размер потока : 12,0 Гбайт (71%) Заголовок : HD 1080P || Released for HDClub 2017 年9 月7 日 Библиотека кодирования : x264 core 129 M9479+75 64bit by ProCoder[2016.07.08]Japan Настройки программы : cabac=1 / ref=5 / deblock=1:-3:-3 / analyse=0x3:0x110 / me=umh / subme=11 / psy=1 / fade_compensate=0.00 / psy_rd=1.30:0.30 / mixed_ref=1 / me_range=48 / chroma_me=1 / trellis=2 / 8x8dct=1 / cqm=0 / deadzone=21,11 / fast_pskip=0 / chroma_qp_offset=-2 / threads=28 / lookahead_threads=8 / sliced_threads=0 / slices=50 / nr=0 / decimate=1 / interlaced=0 / bluray_compat=0 / constrained_intra=0 / fgo=0 / bframes=16 / b_pyramid=2 / b_adapt=2 / b_bias=32 / direct=2 / weightb=1 / open_gop=1 / weightp=2 / keyint=240 / keyint_min=23 / scenecut=40 / intra_refresh=0 / rc_lookahead=40 / rc=2pass / mbtree=0 / bitrate=14444 / ratetol=1.0 / qcomp=0.60 / qpmin=0 / qpmax=69 / qpstep=4 / cplxblur=20.0 / qblur=0.5 / vbv_maxrate=50000 / vbv_bufsize=78125 / nal_hrd=none / ip_ratio=1.35 / pb_ratio=1.25 / aq=4:0.90 Язык : English Default : Да Forced : Нет Цветовой диапазон : Limited Основные цвета : BT.709 Характеристики трансфера : BT.709 Коэффициенты матрицы : BT.709

Аудио #1 Идентификатор : 1 Формат : DTS Формат/Информация : Digital Theater Systems Режим : 16 Параметр Endianness формата : Big Идентификатор кодека : A_DTS Продолжительность : 2 ч. 2 м. Вид битрейта : Постоянный Битрейт : 768 Кбит/сек Каналы : 6 каналов Расположение каналов : Front: L C R, Side: L R, LFE Частота : 48,0 КГц Битовая глубина : 24 бит Метод сжатия : С потерями Размер потока : 670 Мбайт (4%) Заголовок : [ Дубляж Blu-ray EUR ] Язык : Russian Default : Да Forced : Нет

Аудио #2 Идентификатор : 2 Формат : DTS Формат/Информация : Digital Theater Systems Профиль формата : ES Режим : 16 Параметр Endianness формата : Big Идентификатор кодека : A_DTS Продолжительность : 2 ч. 2 м. Вид битрейта : Постоянный Битрейт : 1509 Кбит/сек Каналы : 6 каналов Расположение каналов : Front: L C R, Side: L R, LFE Частота : 48,0 КГц Битовая глубина : 24 бит Метод сжатия : С потерями Размер потока : 1,29 Гбайт (8%) Заголовок : [ Авторский А. Матвеев ] Язык : Russian Default : Нет Forced : Нет

Аудио #3 Идентификатор : 3 Формат : DTS Формат/Информация : Digital Theater Systems Профиль формата : ES Режим : 16 Параметр Endianness формата : Big Идентификатор кодека : A_DTS Продолжительность : 2 ч. 2 м. Вид битрейта : Постоянный Битрейт : 1509 Кбит/сек Каналы : 6 каналов Расположение каналов : Front: L C R, Side: L R, LFE Частота : 48,0 КГц Битовая глубина : 24 бит Метод сжатия : С потерями Размер потока : 1,29 Гбайт (8%) Заголовок : [ Авторский А. Матвеев | без цензуры ] Язык : Russian Default : Нет Forced : Нет

Аудио #4 Идентификатор : 4 Формат : DTS Формат/Информация : Digital Theater Systems Профиль формата : ES Режим : 16 Параметр Endianness формата : Big Идентификатор кодека : A_DTS Продолжительность : 2 ч. 2 м. Вид битрейта : Постоянный Битрейт : 1509 Кбит/сек Каналы : 6 каналов Расположение каналов : Front: L C R, Side: L R, LFE Частота : 48,0 КГц Битовая глубина : 24 бит Метод сжатия : С потерями Размер потока : 1,29 Гбайт (8%) Язык : English Default : Нет Forced : Нет

Текст #1 Идентификатор : 6 Формат : UTF-8 Идентификатор кодека : S_TEXT/UTF8 Идентификатор кодека/Информация : UTF-8 Plain Text Заголовок : [ Forced sub ] Язык : Russian Default : Да Forced : Да

Текст #2 Идентификатор : 7 Формат : UTF-8 Идентификатор кодека : S_TEXT/UTF8 Идентификатор кодека/Информация : UTF-8 Plain Text Заголовок : [ A. Матвеев | без цензуры ] Язык : Russian Default : Нет Forced : Нет

Текст #3 Идентификатор : 8 Формат : UTF-8 Идентификатор кодека : S_TEXT/UTF8 Идентификатор кодека/Информация : UTF-8 Plain Text Заголовок : [ Full ] Язык : Russian Default : Нет Forced : Нет

Текст #4 Идентификатор : 9 Формат : UTF-8 Идентификатор кодека : S_TEXT/UTF8 Идентификатор кодека/Информация : UTF-8 Plain Text Заголовок : [ Full ] Язык : English Default : Нет Forced : Нет

Текст #5 Идентификатор : 10 Формат : UTF-8 Идентификатор кодека : S_TEXT/UTF8 Идентификатор кодека/Информация : UTF-8 Plain Text Заголовок : [ SDH ] Язык : English Default : Нет Forced : Нет

Текст #6 Идентификатор : 11 Формат : UTF-8 Идентификатор кодека : S_TEXT/UTF8 Идентификатор кодека/Информация : UTF-8 Plain Text Заголовок : [ SDH-Colored ] Язык : English Default : Нет Forced : Нет

Меню 00:00:00.000 : en:Chapter 01 00:04:47.662 : en:Chapter 02 00:13:07.495 : en:Chapter 03 00:18:11.924 : en:Chapter 04 00:22:46.448 : en:Chapter 05 00:27:51.169 : en:Chapter 06 00:33:12.907 : en:Chapter 07 00:37:18.736 : en:Chapter 08 00:42:19.912 : en:Chapter 09 00:47:43.694 : en:Chapter 10 00:52:04.371 : en:Chapter 11 00:55:56.269 : en:Chapter 12 01:00:17.447 : en:Chapter 13 01:06:20.643 : en:Chapter 14 01:11:25.030 : en:Chapter 15 01:16:35.882 : en:Chapter 16 01:21:10.031 : en:Chapter 17 01:28:18.793 : en:Chapter 18 01:31:21.559 : en:Chapter 19 01:34:52.436 : en:Chapter 20 01:39:23.666 : en:Chapter 21 01:43:35.876 : en:Chapter 22 01:50:49.309 : en:Chapter 23 01:55:27.754 : en:Chapter 24

✦ Релиз: ✦ Кодирование: ProCoder ✦ Формат: MKV ✦ Источник: Alien: Covenant Blu-ray ✦ Видео: 1920x800 at 23.976 fps, MPEG-4 AVC, ~ 14,4 mbps avg (2-pass) ✦ Аудио#1: Русский: 48 kHz/24-bit, DTS 5.1, 768.00 kbps |Дубляж Blu-ray EUR| ✦ Аудио#2: Русский: 48 kHz/24-bit, DTS 5.1, 1509.00 kbps |Авторский одноголосый А.Матвеев | ✦ Аудио#3: Русский: 48 kHz/24-bit, DTS 5.1, 1509.00 kbps |Авторский одноголосый А.Матвеев без цензуры | ✦ Аудио#4: English: 48 kHz/24-bit, DTS 5.1, 1509.00 kbps ✦ Субтитры: Russian ( forced, full), English (full, SDH, SDH-Colored) ✦ Сохранены оригинальные главы как на Blu-ray

Смотрите также