Гарри поттер и кубок огня скачать торрент расширенная версия


Фильм Гарри Поттер и Кубок Огня (режиссерская версия) / Harry Potter and The Goblet Of Fire (2005/DVDRip) скачать торрент

Информация о фильме Название: Гарри Поттер и Кубок Огня(режиссерская версия) Оригинальное название: Harry Potter and The Goblet Of Fire Год выхода: США\Великобритания Выпущено: студия-производитель, страна Жанр: приключения, фэнтэзи Режиссер: Майкл Ньюэлл Продолжительность: 02:37:44

В ролях: Дэниэл Рэдклифф, Руперт Гринт. Эмма Уотсон, Том Фелтон, Робби Колтрей, Мегги Смит, Алан Рикман, Кеннет Бранна, Фиона Шоу, Гарри Меллинг, Ричард Гриффитс, Дерек Дэмэн, Ричард Харрис, Майкл Гэмбон, Йен Харт

О фильме: Гарри Поттер, Рон и Гермиона возвращаются на четвертый курс школы чародейства и волшебства «Хогвартс». При таинственных обстоятельствах Гарри отобран в число участников опасного соревнования — Турнира Трех Волшебников, однако проблема в том, что все его соперники — намного старше и сильнее.

К тому же, знаки указывают на возвращение Лорда Волдеморта. Вскоре Гарри предстоит побороться не только за победу в соревновании, но и, прежде всего, за свою жизнь…

Доп. информация

ВСТАВЛЕНО 7 ЭПИЗОДОВ ОТСУТСТВУЮЩИХ В ОРИГИНАЛЬНОМ ФИЛЬМЕ!!!

Награды

Премия Британской Академии, победитель: Лучшая работа художника-постановщика; номинации: Лучшие визуальные эффекты, Лучший грим/прически. Номинация на премию Оскар

Интересные факты

Четвёртую часть «поттерианы» хотели снова доверить Альфонсо Куарону, однако последний сослался на то, что ему бы еще и «Узника Азкабана» (третья часть) закончить было бы неплохо для начала. В итоге режиссёром стал англичанин Майк Ньюэлл. В предыдущих трех эпизодах англичан на режиссёрском мостике замечено не было. 7 февраля 2004 года в Лондоне состоялось великое паломничество маленьких девочек: более 3000 кандидаток пришли, чтобы принять участие в кастинге на роль Чжоу Чанг. На роль Лорда Волан-де-Морта многие прочили Роуэна Эткинсона или Джона Малковича, однако, обе кандидатуры сошли с дистанции. В июне 2004 года поползли слухи о том, что эта роль достанется Ральфу Файнсу. Незадолго до начала съемок данная роль оставалась единственной актерской вакансией. Проникнувшись задумкой хитроумного Квентина Тарантино, разбившего свое полотно «Убить Билла 2» на две части, такую же диверсию хотели осуществить и продюсеры, однако, режиссер Майк Ньюэлл отсек данные предложения на корню. Во многом, опасения студии заключались в том, что уместить 734-страничную книгу в три часа экранного времени попросту невозможно. Майк Ньюэлл стал самым дешёвым режиссёром в истории «поттерианы»: он согласился работать за гонорар всего лишь в 1 миллион долларов. Для примера: гонорар Криса Коламбуса за «Философский камень» составил 10 миллионов + процент от общих сборов. На съемку в фильме рассматривалась знаменитая собака Фейт.

Киноляпы в фильме

Получив письмо от Сириуса, Гарри читает, а мы слышим голос Сириуса Блэка: «Постскриптум. Птица кусается» (”P.S. The bird bites”), но в письме нет никакого постскриптума, последняя строчка письма - "By the way, the bird bites” - «Между прочим, птица кусается». Сцена, где главный профессор объявляет о том, что соревнования будут проходить у них в школе. По центральному проёму между рядами, где сидят ученики, спешит волосатый сторож школы в костюме с галстуком, и галстук этот висит так красиво так хорошо - Бонд Д. лопнул бы от зависти. Затем сторож уже около профессора, что-то ябедничает, и галстук уже сбился и как бы задняя тонкая висюлька галстука торчит в сторону. Позже сторож в той же позе, только галстук опять поправлен, хотя по динамике движения и прошедшему времени он поправить его не смог бы. Во время шоу с посохами один из учеников Каркарова, выдувая огонь из волшебной палочки, каким-то чудом умудряется поменять руки - сначала держит палочку в левой руке, а посох в правой, но при смене ракурса все смотрится иначе. Когда юные волшебники сидят за столом во время танцулек, за спиной Рона разгуливает его чудовищный пиджак (наверное, он тоже волшебный). На уроке профессора Грюма, когда паук под заклятием империус, Аластор направляет его на учеников. Когда паук находится на одной из сестёр Патил можно увидеть, что та сестра, на которой нет паука, также пытается прогнать его, как та, на которой он есть. После бала Гермиона закатывает сцену, кричит что-то вслед друзьям, и при смене кадра можно заметить, что положение трех девочек, сидевших перед ней на ступеньках, изменилось - средняя плачущая, которую утешали, теперь в объятиях той, что слева, но она не смогла бы перескочить так быстро, словно маятник. Самый долгоиграющий прикол - с полотенцем. Подбегая к Гарри после второго испытания, Гермиона накидывает на него свое полотенце, целует Гарри в темечко и… тут же оказывается опять обернутой в свое полотенце (вид сверху, когда подходит главный волшебник). Затем полотенце Гермионы опять на Гарри, но в итоге жаба ее все-таки задушила - забрала назад. Перед первым испытанием (с драконами) Гермиона бросается на шею Гарри и их "застукивает” Рита Скитер с фотографом. Детишки довольно медленно отошли друг от друга и стояли близко. Однако, когда показывают фотографию объятий Гарри и Гермионы в газете, хорошо видно, что Гермиона просто отпрыгивает от Гарри. (возможно, что так было задумано, я не знаю). В сцене с яйцом дракона, когда Гарри выныривает из бассейна, положение его волос из кадра в кадр меняется - налипают по-разному. Когда Гарри улепётывает от дракона, он пролетает над одним из дворов Хогвартса, так вот в этом дворе ПОЛНО ЛЮДЕЙ (вид сверху), но что они там делают, ведь вся школа на стадионе наблюдает за первым заданием Турнира. Писанина по поводу трех проклятий выглядит на доске по-разному - тройку в кружке он точно писал по-другому, а колдолвать не было необходимости.

Файл Качество | Источник: DVDRip Перевод: Профессиональный (полное дублирование) Видео: 720x304 (2.37:1), 25 fps, DivX (4 \ 5 \ 6) ~1512 kbps avg, 0.28 bit/pixel Аудио: 48 kHz, MPEG Layer 3, 2 ch, ~128.00 kbps avg

bigtorrento.ru

/ Harry Potter and the Goblet of Fire ( / Mike Newell) [2005 ., , , , BDRip] [720p / DVD5 / DXVA] Dub + Original + Sub

---[NoImage] yuv [info]: 1280x534p 1:1 @ 10000000/417083 fps (cfr) ---[NoImage] x264 [info]: using SAR=1/1 ---[NoImage] x264 [info]: using cpu capabilities: MMX2 SSE2Fast SSSE3 FastShuffle SSE4.2 ---[NoImage] x264 [info]: profile High, level 4.1 ---[NoImage] x264 [info]: frame I:1516 Avg QP:15.18 size: 69675 PSNR Mean Y:48.23 U:51.70 V:52.35 Avg:49.09 Global:48.40 ---[NoImage] x264 [info]: frame P:49768 Avg QP:16.44 size: 30468 PSNR Mean Y:46.98 U:51.27 V:51.57 Avg:47.87 Global:46.73 ---[NoImage] x264 [info]: frame B:174700 Avg QP:18.20 size: 11529 PSNR Mean Y:45.74 U:50.27 V:50.81 Avg:46.72 Global:45.82 ---[NoImage] x264 [info]: consecutive B-frames: 1.2% 2.7% 8.5% 20.9% 23.8% 33.8% 4.3% 2.3% 0.7% 0.8% 0.4% 0.3% 0.1% 0.3% 0.0% 0.0% 0.0% ---[NoImage] x264 [info]: mb I I16..4: 8.0% 79.5% 12.6% ---[NoImage] x264 [info]: mb P I16..4: 2.7% 15.9% 1.7% P16..4: 42.0% 25.0% 4.5% 0.2% 0.2% skip: 7.8% ---[NoImage] x264 [info]: mb B I16..4: 0.3% 1.2% 0.1% B16..8: 38.9% 12.7% 2.7% direct: 9.2% skip:34.7% L0:43.2% L1:46.3% BI:10.5% ---[NoImage] x264 [info]: 8x8 transform intra:77.7% inter:59.0% ---[NoImage] x264 [info]: direct mvs spatial:100.0% temporal:0.0% ---[NoImage] x264 [info]: coded y,uvDC,uvAC intra: 77.8% 77.0% 58.3% inter: 28.0% 24.6% 3.6% ---[NoImage] x264 [info]: i16 v,h,dc,p: 58% 15% 8% 20% ---[NoImage] x264 [info]: i8 v,h,dc,ddl,ddr,vr,hd,vl,hu: 13% 8% 10% 9% 13% 12% 12% 11% 12% ---[NoImage] x264 [info]: i4 v,h,dc,ddl,ddr,vr,hd,vl,hu: 14% 7% 8% 9% 14% 13% 12% 10% 12% ---[NoImage] x264 [info]: i8c dc,h,v,p: 50% 21% 17% 11% ---[NoImage] x264 [info]: Weighted P-Frames: Y:4.9% ---[NoImage] x264 [info]: ref P L0: 43.8% 9.5% 17.1% 6.8% 5.6% 4.4% 3.8% 2.5% 2.3% 2.0% 1.8% 0.3% 0.0% ---[NoImage] x264 [info]: ref B L0: 74.0% 10.7% 5.1% 2.6% 2.1% 1.9% 1.6% 1.1% 0.7% 0.3% ---[NoImage] x264 [info]: ref B L1: 92.9% 7.1% ---[NoImage] x264 [info]: SSIM Mean Y:0.9843407 ---[NoImage] x264 [info]: PSNR Mean Y:46.033 U:50.497 V:50.989 Avg:46.993 Global:46.022 kb/s:3086.17 ---[NoImage] encoded 225984 frames, 7.41 fps, 3086.17 kb/s

Video

ID : 1 Format : AVC Format/Info : Advanced Video Codec Format profile : [email protected] Format settings, CABAC : Yes Format settings, ReFrames : 11 frames Muxing mode : Container [email protected] Codec ID : V_MPEG4/ISO/AVC Duration : 2h 36mn Bit rate : 3 009 Kbps Width : 1 280 pixels Height : 534 pixels Display aspect ratio : 2.35:1 Frame rate : 23.976 fps Resolution : 8 bits Colorimetry : 4:2:0 Scan type : Progressive Bits/(Pixel*Frame) : 0.184 Stream size : 3.30 GiB (75%) Title : Harry Potter and the Goblet of Fire Writing library : x264 core 94 r1570 d9db8b3 Encoding settings : cabac=1 / ref=11 / deblock=1:-2:-2 / analyse=0x3:0x133 / me=umh / subme=9 / psy=1 / psy_rd=1.20:0.00 / mixed_ref=1 / me_range=64 / chroma_me=1 / trellis=2 / 8x8dct=1 / cqm=0 / deadzone=21,11 / fast_pskip=0 / chroma_qp_offset=-2 / threads=9 / sliced_threads=0 / nr=0 / decimate=1 / interlaced=0 / constrained_intra=0 / bframes=16 / b_pyramid=2 / b_adapt=2 / b_bias=0 / direct=3 / wpredb=1 / wpredp=2 / keyint=250 / keyint_min=25 / scenecut=40 / intra_refresh=0 / rc_lookahead=60 / rc=crf / mbtree=0 / crf=18.6 / qcomp=0.60 / qpmin=10 / qpmax=51 / qpstep=4 / vbv_maxrate=50000 / vbv_bufsize=50000 / crf-max=0.0 / ip_ratio=1.40 / pb_ratio=1.30 / aq=1:1.10 / nal_hrd=none Language : English

Audio #1

ID : 2 Format : AC-3 Format/Info : Audio Coding 3 Codec ID : A_AC3 Duration : 2h 37mn Bit rate mode : Constant Bit rate : 448 Kbps Channel(s) : 6 channels Channel positions : Front: L C R, Side: L R, LFE Sampling rate : 48.0 KHz Stream size : 503 MiB (11%) Title : DD 5.1 48 KHz 448 kbps[Dub] Language : Russian

Audio #2

ID : 3 Format : AC-3 Format/Info : Audio Coding 3 Codec ID : A_AC3 Duration : 2h 37mn Bit rate mode : Constant Bit rate : 448 Kbps Channel(s) : 6 channels Channel positions : Front: L C R, Side: L R, LFE Sampling rate : 48.0 KHz Stream size : 503 MiB (11%) Title : DD 5.1 48 KHz 448 kbps[Original] Language : English

Text #1

ID : 4 Format : UTF-8 Codec ID : S_TEXT/UTF8 Codec ID/Info : UTF-8 Plain Text Title : Forced Language : Russian

Text #2

ID : 5 Format : UTF-8 Codec ID : S_TEXT/UTF8 Codec ID/Info : UTF-8 Plain Text Title : Full Language : Russian

Text #3

ID : 6 Format : UTF-8 Codec ID : S_TEXT/UTF8 Codec ID/Info : UTF-8 Plain Text Title : Original Language : English

Menu

00:00:00.000 : en:The Riddle House 00:03:46.559 : en:The Portkey 00:06:09.369 : en:The Quidditch World Cup 00:09:50.089 : en:The Dark Mark 00:13:45.324 : en:The Triwizard Tournament 00:19:14.987 : en:The Goblet of Fire 00:23:09.388 : en:The Unforgivable Curses 00:29:01.573 : en:The Four Champions 00:36:26.684 : en:Let Events Unfold 00:39:05.009 : en:Rita Skeeter 00:41:32.489 : en:Sirius Conversation 00:45:36.400 : en:The Hungarian Horntail 00:49:07.778 : en:Transforming Malfoy 00:54:06.243 : en:The First Task 01:02:46.596 : en:Best Foot Forward 01:09:12.982 : en:An Unexpected Challenge 01:14:43.979 : en:The Yule Ball 01:22:27.609 : en:The Egg''s Clue 01:30:34.762 : en:The Second Task 01:39:29.296 : en:Never Whole Again 01:42:42.489 : en:The Pensieve 01:47:22.936 : en:Dreams and Suspicions 01:50:19.279 : en:The Third Task 01:58:54.460 : en:Flesh, Blood and Bone 02:02:02.315 : en:The Death Eaters 02:06:36.589 : en:Priori Incantatem 02:10:01.627 : en:Veritaserum 02:17:38.083 : en:Parting Ways 02:23:48.620 : en:End Credits

unionpeer.com

rutor.org :: Гарри Поттер и Кубок огня / Harry Potter and the Goblet of Fire (2005) BDRip 720p от Leonardo and Scarabey ::: Скачать торрент

Гарри Поттер и Кубок огня / Harry Potter and the Goblet of Fire

Страна: США, ВеликобританияГод выпуска: 2005Жанр: фэнтези, детектив, приключения, семейныйПродолжительность: 02:37:05Перевод: Профессиональный (полное дублирование) Лицензия

Режиссер: Майк Ньюэлл / Mike Newell

Актеры: Дэниэл Рэдклифф, Руперт Гринт, Эмма Уотсон, Брендан Глисон, Алан Рикман, Майкл Гэмбон, Рэйф Файнс, Роберт Паттинсон, Робби Колтрейн, Мэгги Смит

Описание фильма: Гарри Поттер, Рон и Гермиона возвращаются на четвертый курс школы чародейства и волшебства «Хогвартс». При таинственных обстоятельствах Гарри отобран в число участников опасного соревнования — Турнира Трех Волшебников, однако проблема в том, что все его соперники — намного старше и сильнее.

К тому же, знаки указывают на возвращение Лорда Волдеморта. Вскоре Гарри предстоит побороться не только за победу в соревновании, но и, прежде всего, за свою жизнь…

ФайлКачество видео: BDRip 720p Исходник: Blu-rayФормат: MKV Видео кодек: MPEG-4 AVC Аудио кодек: AC3Видео: AVC, 1280x532 (2.40:1) at 23.976 fps, AVC at 3219 kbps avg, 0.193 bit/pixelАудио: 48 kHz, AC3 Dolby Digital, 3/2 (L,C,R,l,r) + LFE ch, 384.00 kbps - RussianСубтитры: Русские, английские

Автор рипа:

Релиз от:

АНОНСЫ МОИХ РАЗДАЧ!

MediaInfo

* * * MediaInfo Mac 0.7.33.4 file analysis report. * * * MediaInfo Mac is ©2010 by Diego Massanti - http://mediainfo.massanti.com * * * MediaInfoLib by Jerome Martinez - http://mediainfo.sourceforge.net Created on: 13.01.2014 22:27:49 Московское стандартное время Report for file: Harry Potter and the Goblet of Fire.2005.720p.BluRay.x264-LEONARDO_[scarabey.org].mkv

General / Container Stream #1 Total Video Streams for this File.................1 Total Audio Streams for this File.................1 Total Subtitle Streams for this File..............2 Video Codecs Used.................................AVC Audio Codecs Used.................................AC3 SubTitle Codecs Used..............................UTF-8 / UTF-8 Available Sutbitle Languages......................Russian / File Format.......................................Matroska Play Time.........................................2h 37mn Total File Size...................................3.96 GiB Total Stream BitRate..............................3 606 Kbps Title (Tag).......................................-=LEONARDO=- Encoded with......................................mkvmerge v5.0.1 ('Es ist Sommer') built on Oct 23 2011 00:46:40 Encoding Library..................................libebml v1.2.2 + libmatroska v1.3.0 Video Stream #1 Codec (Human Name)................................AVC Codec (FourCC)....................................V_MPEG4/ISO/AVC Codec [email protected] Frame Width.......................................1 280 pixels Frame Height......................................532 pixels Frame Rate........................................23.976 fps Total Frames......................................225984 Display Aspect Ratio..............................2.40:1 Scan Type.........................................Progressive Color Space.......................................YUV Codec Settings (Summary)..........................CABAC / 8 Ref Frames QF (like Gordian Knot)............................0.193 Codec Settings (CABAC)............................Yes Codec Settings (Reference Frames).................8 Video Stream Length...............................2h 37mn 5s 425ms Video Stream BitRate..............................3 150 Kbps Bit Depth.........................................8 bits Video Stream Size.................................3.46 GiB (87%) Video Encoder.....................................x264 - core 125 r2208 d9d2288 Video Encoder (Settings)..........................cabac=1 / ref=8 / deblock=1:-3:-3 / analyse=0x3:0x133 / me=umh / subme=11 / psy=1 / psy_rd=1.00:0.20 / mixed_ref=1 / me_range=32 / chroma_me=1 / trellis=2 / 8x8dct=1 / cqm=0 / deadzone=21,11 / fast_pskip=0 / chroma_qp_offset=-3 / threads=12 / lookahead_threads=2 / sliced_threads=0 / nr=0 / decimate=1 / interlaced=0 / bluray_compat=0 / constrained_intra=0 / bframes=12 / b_pyramid=2 / b_adapt=2 / b_bias=0 / direct=1 / weightb=1 / open_gop=0 / weightp=2 / keyint=250 / keyint_min=23 / scenecut=40 / intra_refresh=0 / rc=crf / mbtree=0 / crf=18.0 / qcomp=0.60 / qpmin=0 / qpmax=69 / qpstep=4 / ip_ratio=1.40 / pb_ratio=1.30 / aq=2:1.00 Audio Stream #1 Codec.............................................AC-3 Codec (FourCC)....................................A_AC3 Audio Stream Length...............................2h 37mn 5s 416ms Audio Stream BitRate..............................384 Kbps Audio Stream BitRate Mode.........................CBR Number of Audio Channels..........................6 Audio Channel's Positions.........................Front: L C R, Side: L R, LFE Sampling Rate.....................................48.0 KHz Audio Stream Size.................................431 MiB (11%) Audio Stream Language.............................Russian Subtitle Stream #1 Language..........................................Russian Format............................................UTF-8 Codec ID..........................................S_TEXT/UTF8 Codec Info........................................UTF-8 Plain Text Subtitle Stream #2 Format............................................UTF-8 Codec ID..........................................S_TEXT/UTF8 Codec Info........................................UTF-8 Plain Text Menu / Chapters Stream #1

x264

x264 [info]: frame I:1501 Avg QP:15.34 size: 88361 x264 [info]: frame P:54859 Avg QP:17.26 size: 34661 x264 [info]: frame B:169624 Avg QP:20.29 size: 10372 x264 [info]: consecutive B-frames: 3.1% 3.0% 12.6% 21.6% 26.5% 30.2% 2.3% 0.5% 0.1% 0.1% 0.0% 0.0% 0.1% x264 [info]: mb I I16..4: 13.3% 58.8% 27.9% x264 [info]: mb P I16..4: 1.8% 10.5% 3.2% P16..4: 28.7% 32.9% 11.3% 3.5% 0.6% skip: 7.5% x264 [info]: mb B I16..4: 0.2% 1.1% 0.5% B16..8: 34.0% 18.8% 2.6% direct: 4.7% skip:38.1% L0:37.8% L1:45.4% BI:16.7% x264 [info]: 8x8 transform intra:65.4% inter:44.4% x264 [info]: coded y,uvDC,uvAC intra: 80.8% 76.4% 53.4% inter: 19.1% 12.8% 1.8% x264 [info]: i16 v,h,dc,p: 29% 10% 7% 55% x264 [info]: i8 v,h,dc,ddl,ddr,vr,hd,vl,hu: 11% 8% 8% 9% 13% 13% 13% 12% 14% x264 [info]: i4 v,h,dc,ddl,ddr,vr,hd,vl,hu: 31% 6% 8% 7% 11% 10% 10% 9% 10% x264 [info]: i8c dc,h,v,p: 36% 29% 20% 15% x264 [info]: Weighted P-Frames: Y:12.5% UV:7.8% x264 [info]: ref P L0: 48.8% 8.8% 19.5% 6.7% 5.5% 4.2% 3.6% 2.2% 0.6% 0.1% x264 [info]: ref B L0: 84.1% 7.6% 3.6% 1.9% 1.3% 1.1% 0.4% x264 [info]: ref B L1: 96.3% 3.7% x264 [info]: kb/s:3219.80

main-rutor.org

Гарри Поттер и Кубок Огня торрент скачать

Гарри Поттер и кубок огня / Harry Potter and the Goblet of Fire (2005) HDRip от Scarabey | D1.45 GBГарри Поттер и Кубок огня / Harry Potter and the Goblet of Fire (Майк Ньюэлл / Mike Newell) [2005, Великобритания, США, фэнтези, детектив, приключения, семейный, HDRip-avc] Dub + Sub Rus + Original Eng1.71 GBГарри Поттер и Кубок огня / Harry Potter and the Goblet of Fire (2005) BDRip 720p от Leonardo and Scarabey3.96 GBГарри Поттер и кубок огня / Harry Potter and the Goblet of Fire (Майк Ньюэлл / Mike Newell) [2005, США, Великобритания, фэнтези, приключения, семейный, BDRip] Dub1.46 GBГарри Поттер и кубок огня / Harry Potter and the Goblet of Fire / 2005 / ДБ / HDRip / 1.45 ГБ1.45 GBГарри Поттер и Кубок огня / Harry Potter and the Goblet of Fire (Майк Ньюэлл / Mike Newell) [2005, Великобритания, Фэнтези, Приключения, Семейный, BDRip-AVC] Dub (CEE) + MVO (Кравец) + DVO (Tycoon) + Original + Subs (Rus, Eng)3.74 GBГарри Поттер и кубок огня / Harry Potter and the Goblet of Fire (2005) BDRip от HQ-ViDEO2.19 GBГарри Поттер и Кубок Огня / Harry Potter and the Goblet of Fire (2005) РС1.19 GBГарри Поттер и Кубок огня / Harry Potter and the Goblet of Fire (2005) BDRip 720p от HQ-ViDEO7 GBГарри Поттер и Кубок огня / Harry Potter and the Goblet of Fire (2005) BDRip [H.264]7.28 GBГарри Поттер и кубок огня (Максимальная редакция) / Harry Potter and the Goblet of Fire (Ultimate Edition) [2005, Фэнтези, детектив, приключения, семейный, BDRip]5.98 GBГарри Поттер и Кубок огня / Harry Potter and the Goblet of Fire (2005) HDRip [H.264] [Hand Made Ultimate Cut]2.05 GBРоулинг Джоан Кэтлин - Гарри Поттер и Кубок Огня [Александр Клюквин, 2009, 128 kbps]1.14 GBГарри Поттер и Кубок огня / Harry Potter and the Goblet of Fire (2005) BDRip-AVC от HQ-ViDEO2.9 GBГарри Поттер и Кубок огня / Harry Potter and the Goblet of Fire (Майк Ньюэлл / Mike Newell) [2005, США, Великобритания, фэнтези, детектив, приключения, семейный, HDTVRip] [Open Matte] Dub2.18 GBГарри Поттер и Кубок огня / Harry Potter and the Goblet of fire / 2005 / ДБ / Open Matte / HDTVRip / 1.46 ГБ1.46 GBГарри Поттер и кубок огня (Максимальная редакция) / Harry Potter and the Goblet of Fire (Ultimate Edition) [2005, Фэнтези, детектив, приключения, семейный, HDRip]2.08 GBHPT AVG 2017 - Harry Potter - Anthology / Гарри Поттер - Антология (Философский камень, Тайная комната, Узник Азкабана, Кубок огня, Орден Феникса, Принц полукровка, Дары смерти 1 и 2) [2017, приключения, обучение, MP4, 480p (16:9), ENG, RUS, engSUB]10.17 GBГарри Поттер и Кубок огня / Harry Potter and Goblet of Fire (HDTV 1080i) (Майк Ньюэлл) [2005, Приключения, детектив, фэнтези, семейный, HDTV]12.26 GBГарри Поттер и кубок огня / Harry Potter and the Goblet of Fire / 2005 / ДБ, СТ / BDRip (1080p) / 11.06 ГБ11.06 GBГарри Поттер и кубок огня / Harry Potter and the Goblet of Fire / 2005 / ДБ, СТ / BDRip (720p) / 8.36 ГБ8.36 GBГарри Поттер и Кубок огня / Harry Potter and the Goblet of Fire (Майк Ньюэлл / Mike Newell) [2005, США, Великобритания, фэнтези, детектив, приключения, семейный, HDTVRip] [Open Matte] Dub (R5)1.46 GBГарри Поттер и кубок огня / Harry Potter and the Goblet of Fire / 2005 / ДБ / BDRip (AVC) / 2.4 ГБ2.4 GBГарри Поттер и кубок огня / Harry Potter and the Goblet of Fire (2005) HDRip от Assassin's Creed | КПК1.33 GBГарри Поттер и кубок огня / Harry Potter and the Goblet of Fire / 2005 / ДБ / BDRip / 2.19 ГБ2.19 GBГарри Поттер и кубок огня / Harry Potter And The Goblet Of Fire (2005) DVDRip [Hand Made Extended Cut]2.19 GBГарри Поттер и кубок огня / Harry Potter and the Goblet of Fire / 2005 / ДБ, 2 x ПД, АП (Володарский, Сербин, Рябов), СТ / BDRip (720p) / 10.37 ГБ10.37 GBДжоан Ролинг - Гарри Поттер и Кубок огня [2002, PDF/DjVu, RUS]39.9 MBГарри Поттер и кубок огня / Harry Potter and the Goblet of Fire (2005) [H.264/720p-LQ] BDRip2.89 GBГарри Поттер и Кубок огня / Harry Potter and the Goblet of Fire (Майк Ньюэлл / Mike Newell) [2005, великобритания, сша, фэнтази, приключения, BDRemux>DVD9 (Custom)] DUB + Sub (rus, eng) + original eng7.94 GBГарри Поттер и кубок огня / Harry Potter and the Goblet of Fire (2005) BDRip 720p by msltel | D, 2 x P2, 3 x A10.37 GBГарри Поттер и кубок огня / Harry Potter and the Goblet of Fire (2005) HDRip от Sanjar & NeoJet | КПК | Лицензия472.27 MBГарри Поттер и кубок огня / Harry Potter and the Goblet of Fire / 2005 / ДБ / HDTV (1080i) / 12.03 ГБ12.03 GBГарри Поттер и кубок огня / Harry Potter and the Goblet of Fire (2005) BDRip [576p] iPad2.17 GBГарри Поттер и Кубок Огня / Harry Potter and the Goblet of Fire / 2005 / ДБ, СТ / 2 x DVD-9 / 13.44 ГБ13.44 GBГарри Поттер и Кубок Огня [Режиссёрская версия] / Harry Potter and The Goblet Of Fire [Director's Cut] (2005) DVDRip1.81 GBГарри Поттер и Кубок Огня / Harry Potter And The Goblet Of Fire / RU / Arcade / 2006 / PC (Windows) / 911 МБ911 MBДжоан Роулинг | Гарри Поттер и Кубок огня [Книга 4] (2008) [m4b|AAC]1.09 GBHarry Potter and the Goblet of Fire / Гарри Поттер и кубок огня [Ru\En] (L) 20052.38 GBГарри Поттер и кубок огня / Harry Potter and the Goblet of Fire / ДБ, СТ / 2005 / Blu-Ray Remux (1080p) / 18.9 ГБ18.9 GB[VIDEO] Гарри Поттер и кубок огня / Harry Potter and the Goblet of Fire (Майк Ньюэлл / Mike Newell) [2005, фэнтези, приключения, семейный, HDRip] [MP4, 640x] Dub1.33 GBГарри Поттер и кубок огня / Harry Potter and the Goblet of Fire (2005) HDRip от Scarabey | D2.19 GBГарри Поттер и кубок огня / Harry Potter and the Goblet of Fire (2005) HDRip-AVC | iPhone | D2.06 GBГарри Поттер и кубок огня / Harry Potter and the Goblet of Fire (2005) BRrip от RAMpage CHG1.09 GBГарри Поттер и кубок огня / Harry Potter and the Goblet of Fire (2005) DVDRip от HQ-ViDEO2.19 GBГарри Поттер и Кубок огня / Harry Potter and the Goblet of Fire (Майк Ньюэлл / Mike Newell) [2005, Фэнтези, детектив, приключения, семейный, BDRip] Dub (CEE) + MVO (Кравец) + DVO (Tycoon) + Original (Eng) + Subs (Rus, Ukr, Eng)3.65 GBГарри Поттер и кубок огня / Harry Potter and the Goblet of Fire (2005) BDRip-AVC by msltel | D, 2 x P2, 3 x A5.21 GB(Score) Гарри Поттер и Кубок огня / Harry Potter and the Goblet of Fire (Recording Session) (Patrick Doyle) - 2005, MP3, 320 kbps385 MBГарри Поттер и кубок огня / Harry Potter and the Goblet of Fire (2005) BDRip от HQCLUB2.91 GBГарри Поттер и кубок огня / Harry Potter and the Goblet of Fire (Майк Ньюэлл) [2005, Фэнтези, приключения, семейный, srt] Sub (Rus, Eng, Rus+Eng)367 KB tparser.org – торрент поисковик по популярным торрент трекерам. Находить и скачивать новинки кино в HDRip и BDRip качестве через tparser намного проще! Добро пожаловать на крупный торрент архив фильмов и игр tparser.org. Вам больше не придется искать торренты на основных торрент трекерах в поисках нужной раздачи – мы предлагаем найти и скачать фильмы в хорошем качестве прямо на нашем сайте. Наш сервис поиска торрентов в реальном времени собирает информацию с крупных торрент трекеров и сортирует полученные результаты в удобную таблицу. Скачивайте торренты без ограничений и без всяких регистраций на трекерах. Начните скачивать торрент Гарри Поттер и Кубок Огня прямо сейчас!

tparser.org

Гарри Поттер и кубок огня через торрент

frame I:1757 Avg QP:16.18 size: 46723frame P:49290 Avg QP:17.56 size: 17223frame B:174938 Avg QP:20.02 size: 5519

ОбщееПолное имя : D:VideoGarri Potter i kubok ognja.2005.BDRip-AVCGarri Potter i kubok ognja.2005..eng.srtФормат : SubRipРазмер файла : 111 Кбайт

ТекстФормат : SubRipМетод сжатия : Без потерь

ОбщееПолное имя : D:VideoGarri Potter i kubok ognja.2005.BDRip-AVCGarri Potter i kubok ognja.2005.AVO.rus.С.Рябов.ac3Формат : AC-3Формат/Информация : Audio Coding 3Размер файла : 503 МбайтПродолжительность : 2 ч. 37 м.Режим общего битрейта : ПостоянныйОбщий поток : 448 Кбит/сек

АудиоФормат : AC-3Формат/Информация : Audio Coding 3Расширение режима : CM (complete main)Параметр Endianness формата : BigПродолжительность : 2 ч. 37 м.Вид битрейта : ПостоянныйБитрейт : 448 Кбит/секКаналы : 6 каналовРасположение каналов : Front: L C R, Side: L R, LFEЧастота : 48,0 КГцБитовая глубина : 16 битМетод сжатия : С потерямиРазмер потока : 503 Мбайт (100%)

ОбщееПолное имя : D:VideoGarri Potter i kubok ognja.2005.BDRip-AVCGarri Potter i kubok ognja.2005.AVO.rus.Ю.Сербин.ac3Формат : AC-3Формат/Информация : Audio Coding 3Размер файла : 503 МбайтПродолжительность : 2 ч. 37 м.Режим общего битрейта : ПостоянныйОбщий поток : 448 Кбит/сек

АудиоФормат : AC-3Формат/Информация : Audio Coding 3Расширение режима : CM (complete main)Параметр Endianness формата : BigПродолжительность : 2 ч. 37 м.Вид битрейта : ПостоянныйБитрейт : 448 Кбит/секКаналы : 6 каналовРасположение каналов : Front: L C R, Side: L R, LFEЧастота : 48,0 КГцБитовая глубина : 16 битМетод сжатия : С потерямиРазмер потока : 503 Мбайт (100%)

ОбщееУникальный идентификатор : 184551116237333008402172294750996080138 (0x8AD74089D51E213D8F18CF1DCAD1260A)Полное имя : D:VideoGarri Potter i kubok ognja.2005.BDRip-AVCGarri Potter i kubok ognja.2005.BDRip-AVC.mkvФормат : MatroskaВерсия формата : Version 4 / Version 2Размер файла : 3,24 ГбайтПродолжительность : 2 ч. 37 м.Общий поток : 2956 Кбит/секДата кодирования : UTC 2015-03-06 15:41:09Программа кодирования : mkvmerge v7.7.0 ('Six Voices') 64bit built on Feb 28 2015 23:39:33Библиотека кодирования : libebml v1.3.1 + libmatroska v1.4.2DURATION : 02:37:05.504000000NUMBER_OF_FRAMES : 294547NUMBER_OF_BYTES : 527828224_STATISTICS_WRITING_APP : mkvmerge v7.7.0 ('Six Voices') 64bit built on Feb 28 2015 23:39:33_STATISTICS_WRITING_DATE_UTC : 2015-03-06 15:41:09_STATISTICS_TAGS : BPS DURATION NUMBER_OF_FRAMES NUMBER_OF_BYTES

ВидеоИдентификатор : 1Формат : AVCФормат/Информация : Advanced Video CodecПрофиль формата : [email protected]Параметр CABAC формата : ДаПараметр ReFrames формата : 9 кадровИдентификатор кодека : V_MPEG4/ISO/AVCПродолжительность : 2 ч. 37 м.Битрейт : 1553 Кбит/секШирина : 1024 пикселяВысота : 428 пикселейСоотношение сторон : 2,40:1Режим частоты кадров : ПостоянныйЧастота кадров : 23,976 кадра/секЦветовое пространство : YUVСубдискретизация насыщенности : 4:2:0Битовая глубина : 8 битТип развёртки : ПрогрессивнаяБит/(Пиксели*Кадры) : 0.148Размер потока : 1,70 Гбайт (53%)Заголовок : BDRip -- STarankovБиблиотека кодирования : x264 core 142 r2431 ac76440Настройки программы : cabac=1 / ref=9 / deblock=1:-2:-2 / analyse=0x3:0x113 / me=umh / subme=9 / psy=1 / psy_rd=1.00:0.15 / mixed_ref=1 / me_range=32 / chroma_me=1 / trellis=2 / 8x8dct=1 / cqm=0 / deadzone=21,11 / fast_pskip=1 / chroma_qp_offset=-3 / threads=6 / lookahead_threads=1 / sliced_threads=0 / nr=0 / decimate=1 / interlaced=0 / bluray_compat=0 / constrained_intra=0 / bframes=8 / b_pyramid=2 / b_adapt=2 / b_bias=0 / direct=3 / weightb=1 / open_gop=0 / weightp=2 / keyint=230 / keyint_min=23 / scenecut=40 / intra_refresh=0 / rc_lookahead=40 / rc=crf / mbtree=0 / crf=19.6 / qcomp=0.60 / qpmin=0 / qpmax=69 / qpstep=4 / vbv_maxrate=40000 / vbv_bufsize=50000 / crf_max=0.0 / nal_hrd=none / filler=0 / ip_ratio=1.40 / pb_ratio=1.30 / aq=1:1.00Язык : EnglishDefault : ДаForced : НетDURATION : 02:37:05.458000000NUMBER_OF_FRAMES : 225985NUMBER_OF_BYTES : 1896554334_STATISTICS_WRITING_APP : mkvmerge v7.7.0 ('Six Voices') 64bit built on Feb 28 2015 23:39:33_STATISTICS_WRITING_DATE_UTC : 2015-03-06 15:41:09_STATISTICS_TAGS : BPS DURATION NUMBER_OF_FRAMES NUMBER_OF_BYTES

Аудио #1Идентификатор : 2Формат : AC-3Формат/Информация : Audio Coding 3Расширение режима : CM (complete main)Параметр Endianness формата : BigИдентификатор кодека : A_AC3Продолжительность : 2 ч. 37 м.Вид битрейта : ПостоянныйБитрейт : 448 Кбит/секКаналы : 6 каналовРасположение каналов : Front: L C R, Side: L R, LFEЧастота : 48,0 КГцБитовая глубина : 16 битМетод сжатия : С потерямиРазмер потока : 503 Мбайт (15%)Заголовок : DUBЯзык : RussianDefault : ДаForced : Нет

Аудио #2Идентификатор : 3Формат : AC-3Формат/Информация : Audio Coding 3Расширение режима : CM (complete main)Параметр Endianness формата : BigИдентификатор кодека : A_AC3Продолжительность : 2 ч. 37 м.Вид битрейта : ПостоянныйБитрейт : 448 Кбит/секКаналы : 6 каналовРасположение каналов : Front: L C R, Side: L R, LFEЧастота : 48,0 КГцБитовая глубина : 16 битМетод сжатия : С потерямиРазмер потока : 503 Мбайт (15%)Заголовок : DVO (Tycoon)Язык : RussianDefault : НетForced : Нет

Аудио #3Идентификатор : 4Формат : AC-3Формат/Информация : Audio Coding 3Расширение режима : CM (complete main)Параметр Endianness формата : BigИдентификатор кодека : A_AC3Продолжительность : 2 ч. 37 м.Вид битрейта : ПостоянныйБитрейт : 448 Кбит/секКаналы : 6 каналовРасположение каналов : Front: L C R, Side: L R, LFEЧастота : 48,0 КГцБитовая глубина : 16 битМетод сжатия : С потерямиРазмер потока : 503 Мбайт (15%)Заголовок : AVO (Леонид Володарский)Язык : RussianDefault : НетForced : Нет

Меню00:00:00.000 : :Chapter 0100:03:46.558 : :Chapter 0200:06:09.369 : :Chapter 0300:09:50.088 : :Chapter 0400:13:45.324 : :Chapter 0500:19:14.987 : :Chapter 0600:23:09.388 : :Chapter 0700:29:01.573 : :Chapter 0800:36:26.684 : :Chapter 0900:39:05.009 : :Chapter 1000:41:32.489 : :Chapter 1100:45:36.400 : :Chapter 1200:49:07.777 : :Chapter 1300:54:06.243 : :Chapter 1401:02:46.595 : :Chapter 1501:09:12.982 : :Chapter 1601:14:43.979 : :Chapter 1701:22:27.609 : :Chapter 1801:30:34.762 : :Chapter 1901:39:29.296 : :Chapter 2001:42:42.488 : :Chapter 2101:47:22.936 : :Chapter 2201:50:19.279 : :Chapter 2301:58:54.460 : :Chapter 2402:02:02.315 : :Chapter 2502:06:36.589 : :Chapter 2602:10:01.627 : :Chapter 2702:17:38.083 : :Chapter 2802:23:48.620 : :Chapter 29

ОбщееПолное имя : D:VideoGarri Potter i kubok ognja.2005.BDRip-AVCGarri Potter i kubok ognja.2005.DVO.rus.Гланц.ac3Формат : AC-3Формат/Информация : Audio Coding 3Размер файла : 503 МбайтПродолжительность : 2 ч. 37 м.Режим общего битрейта : ПостоянныйОбщий поток : 448 Кбит/сек

АудиоФормат : AC-3Формат/Информация : Audio Coding 3Расширение режима : CM (complete main)Параметр Endianness формата : BigПродолжительность : 2 ч. 37 м.Вид битрейта : ПостоянныйБитрейт : 448 Кбит/секКаналы : 6 каналовРасположение каналов : Front: L C R, Side: L R, LFEЧастота : 48,0 КГцБитовая глубина : 16 битМетод сжатия : С потерямиРазмер потока : 503 Мбайт (100%)

ОбщееПолное имя : D:VideoGarri Potter i kubok ognja.2005.BDRip-AVCGarri Potter i kubok ognja.2005.Original.eng.ac3Формат : AC-3Формат/Информация : Audio Coding 3Размер файла : 503 МбайтПродолжительность : 2 ч. 37 м.Режим общего битрейта : ПостоянныйОбщий поток : 448 Кбит/сек

АудиоФормат : AC-3Формат/Информация : Audio Coding 3Расширение режима : CM (complete main)Параметр Endianness формата : BigПродолжительность : 2 ч. 37 м.Вид битрейта : ПостоянныйБитрейт : 448 Кбит/секКаналы : 6 каналовРасположение каналов : Front: L C R, Side: L R, LFEЧастота : 48,0 КГцБитовая глубина : 16 битМетод сжатия : С потерямиРазмер потока : 503 Мбайт (100%)

ОбщееПолное имя : D:VideoGarri Potter i kubok ognja.2005.BDRip-AVCGarri Potter i kubok ognja.2005.rus.srtФормат : SubRipРазмер файла : 108 Кбайт

ТекстФормат : SubRipМетод сжатия : Без потерь

piratbit.ru


Смотрите также