Хоббит нежданное путешествие режиссерская версия скачать торрент hd 1080


rutor.org :: Хоббит: Нежданное путешествие / The Hobbit: An Unexpected Journey (2012) BDRip 1080p от HQCLUB | Extended Cut

main-rutor.org

Хоббит: Нежданное путешествие / The Hobbit: An Unexpected Journey (2012) BDRip 1080p от HQCLUB

Информация о фильмеНазвание: Хоббит: Нежданное путешествиеОригинальное название: The Hobbit: An Unexpected JourneyГод выхода: 2012Жанр: Фэнтези, ПриключенияВ ролях: Мартин Фриман, Иэн МакКеллен, Ричард Армитедж, Джеймс Несбитт, Кен Стотт, Грэм МакТавиш, Дин О’Горман, Эйдан Тернер, Джед Брофи, Марк ХэдлоуРежиссёр: Питер Джексон / Peter Jackson

О фильме: Фильм повествует о путешествии Бильбо Бэггинса, который пускается в грандиозный поход, целью которого является отвоевание утраченного королевства гномов Эребор у зловещего дракона Смауга. Совершенно неожиданно с хоббитом налаживает контакт волшебник Гэндальф Серый. Так Бильбо находит себя, присоединяясь к компании тринадцати гномов, возглавляемых легендарным воином, Торином Дубощитом. Их путешествие проляжет через Дикий Край, через предательские земли, населенные гоблинами и орками, смертоносными варгами и гигантскими пауками, народом, меняющим шкуры, и волшебниками. И хотя их цель находится на Востоке, среди пустошей Одинокой Горы, сначала им придется выбраться из туннелей гоблинов, где Бильбо встретит существо, которое изменит его жизнь навсегда... Голлума. Здесь, один на один с Голлумом, на берегу подземного озера, непритязательный Бильбо Бэггинс обнаружит не только скрытые в глубине души хитрость и отвагу, которые удивят даже его, но и завладеет «прелестным» колечком Голлума, которое обладает нежданными и полезными свойствами... Простое золотое кольцо, c которым связана судьба всего Средиземья, нитями, о которых Бильбо не мог даже вообразить.

«From the smallest beginnings come the greatest legends.»

Релиз от - Автор рипа: Rensler

Выпущено: США, Новая Зеландия Студия: Metro-Goldwyn-Mayer (MGM), New Line Cinema, WingNut FilmsПродолжительность: 03:02:30Перевод: • Профессиональный (полное дублирование) BD CEEОригинальная аудиодорожка: АнглийскаяСубтитры: Русские (форсированные - на речь эльфов и орков, полные), Английские (форсированные, полные, SDH)Главы: Сохранены чаптеры с оригинального Blu-ray Disc

Дополнительные аудиодорожки: + Авторский (одноголосый, закадровый) «Ю.Сербин» + Авторский (одноголосый, закадровый) «В.Горчаков»

Файл:Формат: MKVКачество: BDRip 1080p (источник: / Blu-ray CEE 1080p)Видео: 1920x800 (2,40:1) at 23.976, MPEG-4 AVC ~ 9190 kbps avg, 0.250 bit/pixelАудио#1: 48 kHz/24-bit, DTS, 3/2 (L,C,R,l,r) + LFE ch, ~ 1536.00 kbps avg | RUSАудио#2: 48 kHz/24-bit, DTS, 3/2 (L,C,R,l,r) + LFE ch, ~ 1536.00 kbps avg | ENGАудио#3: 48 kHz/24-bit, DTS, 3/2 (L,C,R,l,r) + LFE ch, ~ 1536.00 kbps avg | RUS, Y.Serbin (отдельно)Аудио#4: 48 kHz/24-bit, DTS, 3/2 (L,C,R,l,r) + LFE ch, ~ 1536.00 kbps avg | RUS, V.Gorchakov (отдельно)Скачать: Семпл

Размер: 15,55 GB

[email protected]

x264 [info]: frame I:2144 Avg QP:15.44 size:196526 x264 [info]: frame P:62895 Avg QP:18.00 size: 88386 x264 [info]: frame B:197508 Avg QP:19.58 size: 33392 x264 [info]: consecutive B-frames: 2.3% 4.1% 7.7% 38.8% 17.3% 21.6% 4.8% 1.4% 0.1% x264 [info]: ref P L0: 57.7% 8.4% 18.6% 8.7% 5.8% 0.8% 0.0%

MediaInfo

Уникальный идентификатор : 230355158105724421014754020616487815589 (0xAD4CCA28BAD2AA2DB908BCD3B7ABC9A5) Полное имя : K:The.Hobbit.An.Unexpected.Journey.2012.1080p.BluRay.Rus.Eng.-HQCLUB.mkv Формат : Matroska Версия формата : Version 4 / Version 2 Размер файла : 15,6 Гбайт Продолжительность : 3 ч. 2 м. Общий поток : 12,2 Мбит/сек Дата кодирования : UTC 2010-02-22 21:41:31 Программа кодирования : mkvmerge v5.8.0 ('No Sleep / Pillow') built on Sep 30 2012 10:57:14 Библиотека кодирования : libebml v1.3.0 + libmatroska v1.4.0 Attachements : Covers.png

Видео Идентификатор : 1 Формат : AVC Формат/Информация : Advanced Video Codec Профиль формата : [email protected] Параметр CABAC формата : Да Параметр ReFrames формата : 5 кадров Идентификатор кодека : V_MPEG4/ISO/AVC Продолжительность : 3 ч. 2 м. Битрейт : 9190 Кбит/сек Ширина : 1920 пикселей Высота : 800 пикселей Соотношение сторон : 2,40:1 Режим частоты кадров : Постоянный Частота кадров : 23,976 кадра/сек Цветовое пространство : YUV Субдискретизация насыщенности : 4:2:0 Битовая глубина : 8 бит Тип развёртки : Прогрессивная Бит/(Пиксели*Кадры) : 0.250 Размер потока : 11,4 Гбайт (73%) Заголовок : Release by Rensler Библиотека кодирования : x264 core 146 r2538 121396c Настройки программы : cabac=1 / ref=5 / deblock=1:-2:-2 / analyse=0x3:0x113 / me=tesa / subme=11 / psy=1 / psy_rd=1.00:0.00 / mixed_ref=1 / me_range=24 / chroma_me=1 / trellis=2 / 8x8dct=1 / cqm=0 / deadzone=21,11 / fast_pskip=0 / chroma_qp_offset=-2 / threads=3 / lookahead_threads=1 / sliced_threads=0 / nr=0 / decimate=0 / interlaced=0 / bluray_compat=0 / constrained_intra=0 / bframes=8 / b_pyramid=2 / b_adapt=2 / b_bias=0 / direct=3 / weightb=1 / open_gop=0 / weightp=2 / keyint=250 / keyint_min=23 / scenecut=40 / intra_refresh=0 / rc_lookahead=60 / rc=2pass / mbtree=0 / bitrate=9190 / ratetol=1.0 / qcomp=0.80 / qpmin=0 / qpmax=69 / qpstep=4 / cplxblur=20.0 / qblur=0.5 / vbv_maxrate=50000 / vbv_bufsize=62500 / nal_hrd=none / filler=0 / ip_ratio=1.35 / pb_ratio=1.25 / aq=2:0.80 Язык : English Default : Да Forced : Нет

Аудио #1 Идентификатор : 2 Формат : DTS Формат/Информация : Digital Theater Systems Режим : 16 Параметр Endianness формата : Big Идентификатор кодека : A_DTS Продолжительность : 3 ч. 2 м. Вид битрейта : Постоянный Битрейт : 1509 Кбит/сек Каналы : 6 каналов Расположение каналов : Front: L C R, Side: L R, LFE Частота : 48,0 КГц Битовая глубина : 24 бит Метод сжатия : С потерями Размер потока : 1,92 Гбайт (12%) Заголовок : BD CEE Язык : Russian Default : Да Forced : Нет

Аудио #2 Идентификатор : 3 Формат : DTS Формат/Информация : Digital Theater Systems Режим : 16 Параметр Endianness формата : Big Идентификатор кодека : A_DTS Продолжительность : 3 ч. 2 м. Вид битрейта : Постоянный Битрейт : 1509 Кбит/сек Каналы : 6 каналов Расположение каналов : Front: L C R, Side: L R, LFE Частота : 48,0 КГц Битовая глубина : 24 бит Метод сжатия : С потерями Размер потока : 1,92 Гбайт (12%) Заголовок : Original Язык : English Default : Нет Forced : Нет

Текст #1 Идентификатор : 4 Формат : UTF-8 Идентификатор кодека : S_TEXT/UTF8 Идентификатор кодека/Информация : UTF-8 Plain Text Заголовок : Forced Язык : Russian Default : Да Forced : Нет

Текст #2 Идентификатор : 5 Формат : UTF-8 Идентификатор кодека : S_TEXT/UTF8 Идентификатор кодека/Информация : UTF-8 Plain Text Заголовок : Full Язык : Russian Default : Нет Forced : Нет

Текст #3 Идентификатор : 6 Формат : UTF-8 Идентификатор кодека : S_TEXT/UTF8 Идентификатор кодека/Информация : UTF-8 Plain Text Заголовок : Forced Язык : English Default : Нет Forced : Нет

Текст #4 Идентификатор : 7 Формат : UTF-8 Идентификатор кодека : S_TEXT/UTF8 Идентификатор кодека/Информация : UTF-8 Plain Text Заголовок : Full Язык : English Default : Нет Forced : Нет

Текст #5 Идентификатор : 8 Формат : UTF-8 Идентификатор кодека : S_TEXT/UTF8 Идентификатор кодека/Информация : UTF-8 Plain Text Заголовок : SDH Язык : English Default : Нет Forced : Нет

Меню 00:00:00.000 : en:Prologue: The Fall of Erebor 00:10:11.902 : en:"In a Hole in the Ground There Lived a Hobbit" 00:14:08.721 : en:Very Old Friends 00:17:27.250 : en:Mr. Baggins 00:18:44.623 : en:An Unexpected Party 00:23:16.603 : en:"Blunt the Knives" 00:27:59.469 : en:A Map, A Key and A Contract 00:36:04.871 : en:"Misty Mountains" 00:41:17.266 : en:"...The World Ahead" 00:46:30.829 : en:The Battle of Azanulbizar 00:53:04.181 : en:Radagast the Brown 00:58:07.650 : en:Trollshaws 00:59:55.300 : en:Roast Mutton 01:10:42.404 : en:A Troll-hoard 01:15:01.828 : en:The Hill of Sorcery 01:18:52.810 : en:Warg-scouts 01:24:56.925 : en:Rivendell 01:30:34.429 : en:A Short Rest 01:34:10.603 : en:Moon Runes 01:37:24.462 : en:The Defiler 01:39:03.479 : en:The Last Homely House 01:41:40.801 : en:The White Council 01:50:22.532 : en:"Why the Halfling?" 01:52:59.773 : en:Over Hill 01:59:06.345 : en:Under Hill 02:03:57.511 : en:The Great Goblin 02:09:51.573 : en:Riddles in the Dark 02:23:21.424 : en:Biter and Beater 02:25:18.876 : en:The Ring 02:26:31.199 : en:Escape from Goblin Town 02:30:52.915 : en:The Pity of Bilbo 02:33:00.546 : en:"Home is Behind..." 02:35:52.593 : en:Out of the Frying Pan... 02:46:51.209 : en:A Good Omen 02:52:21.370 : en:Credits

Соотношение сторон экрана

ЦитатаКто-то писал:Дорога №1 получена из оригинальной DTS-HD MA дорожки и дублированной, путем замены всех участков с английской речью, её эхом и отголосками на аналогичные с дублированной дорожки, во всех каналах. За нее спасибо sergey_n. За переводы Cербина и Горчакова спасибо трекеру Е-180. Спонсоры: oleg-k, MyxAmoP, ultrajeka, DMX-92, Foots, ZeDOK, denis_mgn_1987, Andrey_Tula, DB73, foxlight, idalgo, dir, STONECOLD, xerman13, пуля, Эдуард, HPotter, zaq-qaz, Letyoha3, dark1982, Drodder, Daniel Rock, ValK, luka69, Chistobaev, Iceman, Roman Lee, urassiks, Werewolf77, GKillah, Ochkarik1, masta, Guyver, _shurik_, Loki1982, uchitel538, Bilko, fryak, carnivale, Ramis, phaeton77, User, El Capitain, DeASS, vik19662007. Splinter, Эдуард, Nadoelo, idalgo, Daniel Rock, DIEnis82, AlBeOne, dir, uchitel538, bla_, User, Andrey_Tula, luka69,Hattori Hanzo, Guyver, Диммон, El Capitain, Партизан, фёдор александрович, STONECOLD, I_Am_Hell, SavineX, Dr. Destructo, farti, xerman13, ultrajeka2, mazeu, gross1978.

Нежданное путешествие (2012) смотреть онлайн или скачать фильм через торрент. Трейлеры, правдивые оценки, рецензии, комментарии, похожие фильмы, саундтрек, новости и интересные факты на Fast-torrent

Возвращение в Средиземье...

Пожалуй не на многие из фильмов в этом году был смысл покупать билеты зарание, но Хоббит был одним из таких...

Придя в кино, усевшись поудобнее, включили как обычно пару-тройку роликов и далее начался фильм! С первых минут уже начали показывать что-то новое, но в то же время что-то знакомое, не покидало ощущение лёгкого дежа вю! Всё это происходило из-за того, что снова мы увидели уже знакомых нам персонажей, увидели уже знакомый нам мир, который был показан в трилогии "Властелин Колец", но мы не могли знать, о чём же будет фильм "Хоббит", оставалось только догадываться... В начале фильма было краткое повествование о некогда самой могущественной рассе, населявшей Средиземье - о Гномах, показали их жизнь, краткий путь развития и то, что с ними случилось, честно говоря, удивило, что на их владения, на их бесчисленных богатства, которые они добывали в горе посегнул Дракон и выселил этот могущественный народ со своего дома! Так же были показаны Эльфы, которые видели то что происходило с их братьями, но не смогли помочь им ничем, ведь против Дракона ни у кого не было шансов и все знали, что по легенде, "огнедыщащий" до последнего вздоха будет охранять свою добычу, или то что он захватил! Гномам пришлось покинуть свой дом и они отпраились в поисках нового места, где бы могли остановится, пока Дракон не покинет их дом! Они прознали, что на их богатство, на их царство, посягает армия Орков, и воины-Гномы отправились сражаться за своё богатство. Было убито бесчётное количество Гномов, но они выстояли, правда в битве потеряли своего Короля, предвадителя, но у них появился новый воин, который повёл их за собой - им был Торин Дубощит! (это было краткое введение, предыстория к фильму...). Сама же история повествования начинается с повествования 1 Хоббита о своей молодости, который, сидя вечером за пером, решил поведать свою историю о том что было, когда он был юнцом, не видевшим мира и ни разу не покидавшим свой дом, и этим Хоббитом был Бильбо Бэггинс! Само действие фильма начало происходить тогда, когда он был ещё молод, много много лет назад! Однажды утром, сидя у себя на скамеечке, он встречает волшебника - Гэндальфа, и с этого момента его жизнь кардинально изменится! Тот рассказал ему про то, что скрыто за пределами его землянки, о том, что он хочет отправится в путешетсвие, для которого ему понадобится сам Бэггинс! Хоббит, испугавшись, отверг его предложение, но волшебник пометил его дом и туда, к вечеру, стали приходить Гномы, которые собирались отправится в путешествие, о котором сам Бильбо ещё ничего не знал! Он сначала был удивлён очень большому количеству гостей, но когда пришёл Гэндальф - он поведал ему о своих планах, что хочет отправится в поход, чтобы помочь Гномам вернуть их дом, но для этого ему понадобится Хоббит! Бильбо взвесил все за и против, ему рассказали про Дракона, который охраняет их пещеру, напугали его и он, подумав, отказался, хотя Гэндальф говорил ему: - "подумай, ведь ты живёшь 1, никогда не покидал своего дома, а я тебе предлагаю то, о чём тебе потом можно будет поведать, но после этого твоя жизнь координально изменится!" Утром Бэггинс понял, что он совершил ошибку, отвергнув предложение волшебника, и тот пошёл за ними, решив вступить в поход, полный сюрпризов и опасностей, где будут встерчаться кровожадные Орки, Тролли, Эльфы, гигантские Орлы, Каменные Великаны, ну и открою серет - будет и Голлум, который просто очарует собой и заствит моментами замирать, как в прочем и каждый персонаж, при виде которого просто открываешь рот и смотришь на экран!

Дальше нет смысла пересказывать сюжет этого фильма, поскольку можно говорить часами, прокручивая каждый эпизод снова и снова, но не хочется пересказывать даже этот фильм по 1 простой причине - его лучше увидеть самому, и насладится зрелищем, которое продолжается 3 часа, чем читать перезказ в крации о сюжете! Питер Джексон снял поистине шедевр, о котором будут долго говорить, возможно моментами критиковать, скорее всего восхвалять, но он подарил лично мне великолепную сказку, в которую я поверил и погрузился с первой минуты и до последней. 3 часа протели за миг, а на это способен только, безусловно, талантливый человек, перед которым просто снимаю шляпу! Эффекты фильме просто на высоте, как и съёмка, чего только стоит битва Каменных Великанов, которую смотришь с открытым ртом и задержав дыхание! Саундрек в фильме тоже великолепный - очень тонко передаёт атмосферу фильма и порой вызывает просто мурашки! Я так же был рад увидеть снова Средиземье, знакомых актёров, но уже в новом фильме и с новой историей, мой совет - даже думать не стоит, а неспеша начать собираться в кино, купить билет и погрузится в сказку, которую нам подарили под Новый Год!

Оценка шедевру - это уже лишнее, смотрите и наслаждайтесь!

detskiy.fast-torrent.ru

Хоббит Расширенная Версия торрент скачать

Хоббит: Битва пяти воинств / The Hobbit: The Battle of the Five Armies (Питер Джексон / Peter Jackson) [2014, Новая Зеландия, США, фэнтези, приключения, BDRip 1080p] [Расширенная версия / Extended Cut] Dub + Sub Rus, Eng + Original Eng19.11 GBХоббит: Нежданое путешествие / The Hobbit: An Unexpected Journey (Питер Джексон / Peter Jackson) [2012, США, Новая Зеландия, Фэнтези, Приключения, BDRip] [Расширенная версия / Extended Edition] MVO (Омикрон) + Sub (Rus, Eng) + Original Eng2.2 GBХоббит (Расширенная Версия) (Трилогия) / The Hobbit (Extended Version) (Trilogy) / 2012-2014 / ДБ, СТ / BDRip (1080p) / 34.92 ГБ34.92 GBХоббит: Нежданное путешествие (Расширенная версия) / The Hobbit: An Unexpected Journey (Extended Cut) / 2012 / ДБ / HDRip / 2.82 ГБ2.82 GBХоббит: Пустошь Смауга / The Hobbit: The Desolation of Smaug (Питер Джексон / Peter Jackson) [2013, США, Новая Зеландия, фэнтези, приключения, BDRip] [Расширенная версия / Extended Edition] MVO (Омикрон) + Original Eng + Subs2.2 GBХоббит: Нежданное путешествие / The Hobbit: An Unexpected Journey (Питер Джексон / Peter Jackson) [2012, США, Новая Зеландия, фэнтези, приключения, BDrip-AVC] [Extended Cut / Расширенная версия] Dub + Original Eng + Sub Rus, Eng4.37 GBХоббит: Битва пяти воинств (Расширенная версия) / The Hobbit: The Battle of the Five Armies (Extended cut) / 2014 / ДБ / HDRip / 2.75 ГБ2.75 GBХоббит: Пустошь Смауга / The Hobbit: The Desolation of Smaug (Питер Джексон / Peter Jackson) [2013, США, Новая Зеландия, Фэнтези, приключения, BDRip-AVC] [Расширенная версия] Dub + AVO (Ю. Сербин) + AVO (В. Горчаков) + Sub Rus, Eng + Original Eng6.79 GBХоббит: Нежданное путешествие / The Hobbit: An Unexpected Journey (Питер Джексон / Peter Jackson) [2012, США, Новая Зеландия, фэнтези, приключения, BDRip 1080p] [Расширенная версия / Extended Cut] Dub + 2x AVO + Original Eng + Sub (Rus, Ukr, Eng)24.58 GBХоббит (Трилогия) (Расширенная версия) / The Hobbit: Trilogy (Extended Version) / 2012-2014 / ДБ, СТ / BDRip / 6.54 ГБ6.54 GBХоббит: Нежданное путешествие / The Hobbit: An Unexpected Journey (Питер Джексон / Peter Jackson) [2012, США, Новая Зеландия, фэнтези, приключения, BDRip-AVC] [Extended Cut / Расширенная версия] 2xDub + 2xAVO + Original Eng + Subs8.42 GBХоббит: Пустошь Смауга (Расширенная версия) / The Hobbit: The Desolation of Smaug (Extended Cut) / 2013 / ДБ / BDRip / 2.18 ГБ2.18 GBХоббит: Битва пяти воинств / The Hobbit: The Battle of the Five Armies (Питер Джексон / Peter Jackson) [2014, Новая Зеландия, США, фэнтези, приключения, BDRip 720p] [Расширенная версия / Extended Cut] Dub + Sub Rus, Eng + Original Eng10.78 GBThe Hobbit. The Motion Picture Trilogy. 3-Film Collection (Extended Edition) / Хоббит. Кинотрилогия (Расширенная версия) [2012-2014, США, Новая Зеландия, фэнтези, приключения, BDRip HD (1080p, 720p), SD (480p)] DUB, AVO, Original + SUB (rus,ukr,eng)82.34 GBХоббит: Битва пяти воинств / The Hobbit: The Battle of the Five Armies (Питер Джексон / Peter Jackson) [2014, Новая Зеландия, США, Фэнтези, приключения, BDRip] [Расширенная версия / Extended Cut] Dub + Sub (Rus)1.47 GBХоббит: Битва пяти воинств (Расширенная версия) / The Hobbit: The Battle of the Five Armies (Extended cut) / 2014 / ДБ / HDRip / 2.18 ГБ2.18 GBХоббит (Трилогия) (Расширенная версия) / The Hobbit: Trilogy (Extended Version) / 2012-2014 / ДБ, СТ / BDRip / 4.4 ГБ4.4 GBХоббит (Расширенная Версия) (Трилогия) / The Hobbit (Extended Version) (Trilogy) / 2012-2014 / ДБ, СТ / BDRip (720p) / 27.89 ГБ27.89 GBХоббит: Битва пяти воинств / The Hobbit: The Battle of the Five Armies (Питер Джексон / Peter Jackson) [2014, Новая Зеландия, США, фэнтези, приключения, Blu-ray disc 1080p] [3-Disc Расширенная версия / Extended Cut] Dub + Sub Rus, Eng + Original Eng111.18 GBХоббит: Нежданное путешествие (Расширенная Версия) / The Hobbit: An Unexpected Journey (Extended Cut) / 2012 / ДБ, СТ / 3D (HOU) / BDRip (1080p) / 14.35 ГБ14.35 GBХоббит: Нежданное путешествие (Расширенная Версия) / The Hobbit: An Unexpected Journey (Extended Cut) / 2012 / ДБ, СТ / BDRip (720p) / 8.49 ГБ8.49 GBХоббит (Расширенная Версия) (Трилогия) / The Hobbit (Extended Version) (Trilogy) / 2012-2014 / ДБ, ПМ, АП (Сербин, Горчаков), СТ / BDRip (720p) / 32.9 ГБ32.9 GBХоббит: Нежданное путешествие в 3Д / The Hobbit: An Unexpected Journey 3D (Питер Джексон / Peter Jackson) [2012, Фэнтези, Приключения, BDrip-AVC] (Расширенная версия / Extended Cut), Half OverUnder / Вертикальная анаморфная стереопара14.35 GBХоббит: Пустошь Смауга (Расширенная версия) / The Hobbit: The Desolation of Smaug (Extended Cut) / 2013 / ДБ, 2 x АП, СТ / BDRip (1080p) / 25.32 ГБ25.32 GBХоббит: Пустошь Смауга (Расширенная версия) / The Hobbit: The Desolation of Smaug (Extended Cut) / 2013 / ДБ / BDRip / 2.73 ГБ2.73 GBХоббит: Битва пяти воинств / The Hobbit: The Battle of the Five Armies (Питер Джексон / Peter Jackson) [2014, Новая Зеландия, США, Фэнтези, приключения, BDRip] [Расширенная версия / Extended Cut] Dub + Sub (Rus)1.47 GBХоббит (Расширенная Версия) (Трилогия) / The Hobbit (Extended Version) (Trilogy) / 2012-2014 / ДБ, СТ / HEVC / BDRip (1080p) / 27.64 ГБ27.64 GBХоббит: Нежданное путешествие (Расширенная Версия) / The Hobbit: An Unexpected Journey (Extended Cut) / 2012 / ДБ, СТ / BDRip (1080p) / 11.74 ГБ11.74 GBХоббит: Битва пяти воинств / The Hobbit: The Battle of the Five Armies (Питер Джексон / Peter Jackson) [2014, Новая Зеландия, США, фэнтези, приключения, BDRip] [Расширенная версия / Extended Cut] Dub2.9 GBХоббит: Битва пяти воинств в 3Д / The Hobbit: The Battle of the Five Armies 3D (Питер Джексон / Peter Jackson) [2014, Фэнтези, Приключения, BDrip-AVC] [Расширенная версия / Extended Cut] Half OverUnder / Вертикальная анаморфная стереопара17.78 GBХоббит (Расширенная Версия) (Трилогия) / The Hobbit (Extended Version) (Trilogy) / 2012-2014 / ДБ, АП (Сербин, Горчаков), СТ / Blu-Ray Remux (1080p) / 102.75 ГБ102.75 GBХоббит: Пустошь Смауга / The Hobbit: The Desolation of Smaug (Питер Джексон / Peter Jackson) [2013, Фэнтези, приключения, BDRip 720p] DUB (RUS, BD 3D CEE) + Original (ENG) + Subs (RUS, UKR, ENG) | Расширенная версия| Лицензия7.12 GBХоббит: Пустошь Смауга 3D / The Hobbit: The Desolation of Smaug 3D (Питер Джексон / Peter Jackson) [2013, фэнтези, приключения, BDRip-AVC] [Расширенная версия / Extended Edition] Half OverUnder / Вертикальная анаморфная стереопара13.27 GBХоббит: Пустошь Смауга (Расширенная версия) / The Hobbit: The Desolation of Smaug (Extended Cut) / 2013 / ДБ, СТ / 3D (HOU) / BDRip (1080p) / 13.13 ГБ13.13 GBХоббит: Нежданное путешествие (Расширенная Версия) / The Hobbit: An Unexpected Journey (Extended Cut) / 2012 / ДБ, 2 x АП, СТ / BDRip (1080p) / 24.58 ГБ24.58 GBХоббит: Нежданное путешествие / The Hobbit: An Unexpected Journey (Питер Джексон / Peter Jackson) [2012, США, Новая Зеландия, фэнтези, приключения, Blu-ray disc 1080p] [Расширенная версия / Extended Cut] Dub + Sub Rus, Eng + Original Eng38.65 GBХоббит: Нежданное путешествие (Расширенная версия) / The Hobbit: An Unexpected Journey (Extended Cut) / 2012 / ДБ / HDRip / 1.45 ГБ1.45 GBХоббит: Пустошь Смауга (Расширенная версия) / The Hobbit: The Desolation of Smaug (Extended Cut) / 2013 / ДБ, 2 x АП, СТ / BDRip (720p) / 11.38 ГБ11.38 GBХоббит: Битва пяти воинств (Расширенная версия) / The Hobbit: The Battle of the Five Armies (Extended cut) / 2014 / ДБ, СТ / 3D (HOU) / BDRip (1080p) / 17.78 ГБ17.78 GBХоббит: Пустошь Смауга (Расширенная версия) / The Hobbit: The Desolation of Smaug (Extended Cut) / 2013 / ДБ, СТ / Blu-Ray Remux (1080p) / 34.36 ГБ34.36 GBХоббит: Пустошь Смауга / The Hobbit: The Desolation of Smaug (Питер Джексон / Peter Jackson) [2013, США, Новая Зеландия, Фэнтези, приключения, BDRip] [Расширенная версия / Extended Cut] Dub + Sub (Rus)2.19 GBХоббит: Битва пяти воинств (Расширенная версия) / The Hobbit: The Battle of the Five Armies / 2014 / ДБ, АП (Сербин), СТ / BDRip (1080p) / 14.91 ГБ14.91 GB[iPad] Хоббит: Нежданное путешествие (Расширенная Версия) / The Hobbit: An Unexpected Journey (Extended Cut) (Питер Джексон / Peter Jackson ) [2012, Новая Зеландия, фэнтези, приключения, BDRip, SD (576p)] DUB + Original + sub (rus forced, rus)3.22 GBХоббит: Битва пяти воинств (Расширенная версия) / The Hobbit: The Battle of the Five Armies (Extended cut) / 2014 / ДБ, СТ / Blu-Ray Remux (1080p) / 31.2 ГБ31.2 GBХоббит: Пустошь Смауга (Расширенная версия) / The Hobbit: The Desolation of Smaug (Extended Cut) / 2013 / ДБ, СТ / BDRip (AVC) / 4.37 ГБ4.37 GBХоббит: Нежданное путешествие в 3Д (Расширенная Версия) / The Hobbit: An Unexpected Journey 3D (Extended Cut) (Питер Джексон / Peter Jackson) [2012, фэнтези, приключения, BDremux, 1080p] BD3D [Re-Encode - Left foreshortening first]57.4 GBХоббит: Нежданное путешествие [Расширенная версия] / The Hobbit: An Unexpected Journey [Extended Edition] (Питер Джексон) [2012, США, Новая Зеландия, фэнтези, приключения, WEB-DL HD (1080p, 720p)] DUB, Original + SUB (rus, eng и др.)12.3 GBХоббит: Нежданное путешествие (Расширенная версия) / The Hobbit: An Unexpected Journey / 2012 / ДБ, СТ / 3D / 2 x Blu-Ray CEE (1080p) / 69.55 ГБ69.55 GBХоббит: Битва пяти воинств (Расширенная версия) / The Hobbit: The Battle of the Five Armies (Extended cut) / 2014 / ДБ, СТ / BDRip (720p) / 9.46 ГБ9.46 GBХоббит: Битва пяти воинств / The Hobbit: The Battle of the Five Armies (Питер Джексон / Peter Jackson) [2014, Новая Зеландия, США, фэнтези, приключения, BDRip] [Расширенная версия / Extended Cut] AVO (Сербин)2.9 GB tparser.org – торрент поисковик по популярным торрент трекерам. Находить и скачивать новинки кино в HDRip и BDRip качестве через tparser намного проще! Добро пожаловать на крупный торрент архив фильмов и игр tparser.org. Вам больше не придется искать торренты на основных торрент трекерах в поисках нужной раздачи – мы предлагаем найти и скачать фильмы в хорошем качестве прямо на нашем сайте. Наш сервис поиска торрентов в реальном времени собирает информацию с крупных торрент трекеров и сортирует полученные результаты в удобную таблицу. Скачивайте торренты без ограничений и без всяких регистраций на трекерах. Начните скачивать торрент Хоббит Расширенная Версия прямо сейчас!

tparser.org

Хоббит+Нежданное+путешествие+Расширенная+Версия торрент скачать | Скачать торренты в BDRip и HDRip качестве

Хоббит: Нежданое путешествие / The Hobbit: An Unexpected Journey (Питер Джексон / Peter Jackson) [2012, США, Новая Зеландия, Фэнтези, Приключения, BDRip] [Расширенная версия / Extended Edition] MVO (Омикрон) + Sub (Rus, Eng) + Original Eng2.2 GBХоббит: Нежданное путешествие / The Hobbit: An Unexpected Journey (Питер Джексон / Peter Jackson) [2012, США, Новая Зеландия, фэнтези, приключения, BDrip-AVC] [Extended Cut / Расширенная версия] Dub + Original Eng + Sub Rus, Eng4.37 GBХоббит: Нежданное путешествие / The Hobbit: An Unexpected Journey (Питер Джексон / Peter Jackson) [2012, США, Новая Зеландия, фэнтези, приключения, BDRip 1080p] [Расширенная версия / Extended Cut] Dub + 2x AVO + Original Eng + Sub (Rus, Ukr, Eng)24.58 GBХоббит: Нежданное путешествие (Расширенная версия) / The Hobbit: An Unexpected Journey (Extended Cut) / 2012 / ДБ / HDRip / 2.82 ГБ2.82 GBХоббит: Нежданное путешествие в 3Д / The Hobbit: An Unexpected Journey 3D (Питер Джексон / Peter Jackson) [2012, Фэнтези, Приключения, BDrip-AVC] (Расширенная версия / Extended Cut), Half OverUnder / Вертикальная анаморфная стереопара14.35 GBХоббит: Нежданное путешествие (Расширенная версия) / The Hobbit: An Unexpected Journey (Extended Cut) / 2012 / ДБ / HDRip / 1.45 ГБ1.45 GBХоббит: Нежданное путешествие / The Hobbit: An Unexpected Journey (Питер Джексон / Peter Jackson) [2012, США, Новая Зеландия, фэнтези, приключения, BDRip-AVC] [Extended Cut / Расширенная версия] 2xDub + 2xAVO + Original Eng + Subs8.42 GBХоббит: Нежданное путешествие в 3Д (Расширенная Версия) / The Hobbit: An Unexpected Journey 3D (Extended Cut) (Питер Джексон / Peter Jackson) [2012, фэнтези, приключения, BDremux, 1080p] BD3D [Re-Encode - Left foreshortening first]57.4 GBХоббит: Нежданное путешествие (Расширенная Версия) / The Hobbit: An Unexpected Journey (Extended Cut) / 2012 / ДБ, СТ / BDRip (720p) / 8.49 ГБ8.49 GBХоббит: Нежданное путешествие (Расширенная Версия) / The Hobbit: An Unexpected Journey (Extended Cut) / 2012 / ДБ, СТ / 3D (HOU) / BDRip (1080p) / 14.35 ГБ14.35 GBХоббит: Нежданное путешествие (Расширенная Версия) / The Hobbit: An Unexpected Journey (Extended Cut) / 2012 / ДБ, СТ / BDRip (1080p) / 11.74 ГБ11.74 GBХоббит: Нежданное путешествие / The Hobbit: An Unexpected Journey (Питер Джексон / Peter Jackson) [2012, США, Новая Зеландия, фэнтези, приключения, Blu-ray disc 1080p] [Расширенная версия / Extended Cut] Dub + Sub Rus, Eng + Original Eng38.65 GBХоббит: Нежданное путешествие (Расширенная Версия) / The Hobbit: An Unexpected Journey (Extended Cut) / 2012 / ДБ, 2 x АП, СТ / BDRip (1080p) / 24.58 ГБ24.58 GBХоббит: Нежданное путешествие (Расширенная Версия) / The Hobbit: An Unexpected Journey (Extended Cut) / 2012 / ДБ, СТ / BDRip (AVC) / 4.72 ГБ4.72 GBХоббит: Нежданное путешествие / The Hobbit: An Unexpected Journey (Питер Джексон / Peter Jackson) [2012, США, Новая Зеландия, фэнтези, приключения, BD > DVD9+DVD5 (Custom)] [Расширенная версия / Extended Cut] DUB+2AVO+Sub Eng/Rus/Ukr+Original Eng12.27 GBХоббит: Нежданное путешествие (Расширенная Версия) / The Hobbit: An Unexpected Journey (Extended Cut) / 2012 / ДБ, СТ / HEVC / BDRip (1080p) / 7.52 ГБ7.52 GB[iPad] Хоббит: Нежданное путешествие (Расширенная Версия) / The Hobbit: An Unexpected Journey (Extended Cut) (Питер Джексон / Peter Jackson ) [2012, Новая Зеландия, фэнтези, приключения, BDRip, SD (576p)] DUB + Original + sub (rus forced, rus)3.22 GBХоббит: Нежданное путешествие (Расширенная Версия) / The Hobbit: An Unexpected Journey (Extended Cut) / 2012 / ДБ, СТ / 2D, 3D / Blu-Ray Remux (1080p) / 57.4 ГБ57.4 GBХоббит: Нежданное путешествие (Расширенная Версия) / The Hobbit: An Unexpected Journey (Extended Cut) / 2012 / ДБ / 3D (OU) / BDRip (1080p) / 23.59 ГБ23.59 GBХоббит: Нежданное путешествие [Расширенная версия] / The Hobbit: An Unexpected Journey [Extended Edition] (Питер Джексон) [2012, США, Новая Зеландия, фэнтези, приключения, WEB-DL HD (1080p, 720p)] DUB, Original + SUB (rus, eng и др.)12.3 GBХоббит: Нежданное путешествие (Расширенная версия) / The Hobbit: An Unexpected Journey / 2012 / ДБ, СТ / 3D / 2 x Blu-Ray CEE (1080p) / 69.55 ГБ69.55 GBХоббит: Нежданное путешествие (Расширенная Версия) / The Hobbit: An Unexpected Journey (Extended Cut) / 2012 / ДБ, 2 x АП, СТ / BDRip (AVC) / 3.97 ГБ3.97 GBХоббит: Нежданное путешествие (Расширенная Версия) / The Hobbit: An Unexpected Journey / 2012 / ДБ, АП (Сербин, Горчаков), СТ / Blu-Ray Remux (1080p) / 47.82 ГБ47.82 GBХоббит: Нежданное путешествие (Расширенная Версия) / The Hobbit: An Unexpected Journey (Extended Cut) / 2012 / ДБ, СТ / Blu-Ray Remux (1080p) / 40.07 ГБ40.07 GBХоббит: Нежданное путешествие (Расширенная Версия) / The Hobbit: An Unexpected Journey / 2012 / ДБ, 2 x АП, СТ / 3D (HOU) / BDRip (1080p) / 15.33 ГБ15.33 GBХоббит: Нежданное путешествие (Расширенная Версия) / The Hobbit: An Unexpected Journey (Extended Cut) / 2012 / ДБ, СТ / 3D (OU) / HEVC / BDRip (1080p) / 12.4 ГБ12.4 GBХоббит: Нежданное путешествие (Расширенная Версия) / The Hobbit: An Unexpected Journey (Extended Cut) / 2012 / ДБ, СТ / Blu-Ray (1080p) / 38 ГБ38 GBХоббит: Нежданное путешествие (Расширенная Версия) / The Hobbit: An Unexpected Journey (Extended Cut) / 2012 / ДБ, СТ / 3D (HSBS) / BDRip (1080p) / 16.68 ГБ16.68 GBХоббит: Нежданное путешествие (Расширенная Версия) / The Hobbit: An Unexpected Journey (Extended Cut) / 2012 / ДБ, 2 x АП, СТ / BDRip (720p) / 13.56 ГБ13.56 GBХоббит: Нежданное путешествие / The Hobbit: An Unexpected Journey (Питер Джексон / Peter Jackson) [2012, фэнтези, приключения, DTS-HD MA, NTSC] [Extended Cut / Расширенная версия] MVO (Омикрон)6.8 GBХоббит: Нежданное путешествие (Расширенная версия) / The Hobbit: An Unexpected Journey (Extended Cut) / 2012 / ДБ, АП (Сербин, Горчаков), СТ / BDRip / 4.38 ГБ4.38 GBХоббит: Нежданное путешествие (Расширенная версия) / The Hobbit: An Unexpected Journey (Extended Cut) / 2012 / ДБ / HDRip / 2.18 ГБ2.18 GBХоббит: Нежданное путешествие (Расширенная версия) / The Hobbit: An Unexpected Journey / 2012 / ДБ, АП (Сербин, Горчаков), СТ / DVD-9 + DVD-5 / 12.27 ГБ12.27 GBХоббит: Нежданное путешествие (Расширенная Версия) / The Hobbit: An Unexpected Journey (Extended Cut) / 2012 / ПМ, СТ / Blu-Ray Remux (1080p) / 50.12 ГБ50.12 GB tparser.org – торрент поисковик по популярным торрент трекерам. Находить и скачивать новинки кино в HDRip и BDRip качестве через tparser намного проще! Добро пожаловать на крупный торрент архив фильмов и игр tparser.org. Вам больше не придется искать торренты на основных торрент трекерах в поисках нужной раздачи – мы предлагаем найти и скачать фильмы в хорошем качестве прямо на нашем сайте. Наш сервис поиска торрентов в реальном времени собирает информацию с крупных торрент трекеров и сортирует полученные результаты в удобную таблицу. Скачивайте торренты без ограничений и без всяких регистраций на трекерах. Начните скачивать торрент Хоббит Нежданное путешествие Расширенная Версия прямо сейчас!

tparser.org

Хоббит: Нежданное путешествие / The Hobbit: An Unexpected Journey (2012) BDRip 1080p | 3D-Video | halfOU | Extended Cut

Год выпуска: 2012Страна: США, Новая Зеландия (Warner Bros. Pictures, New Line Cinema, Metro-Goldwyn-Mayer, WingNut Films)Жанр: Фэнтези, ПриключенияПродолжительность: 03:02:34

Перевод: Профессиональный дублированный (Лицензия)

Режиссер: Питep Джeкcoн / Реtеr Jасksоn

Роли исполняли (дублировали):

Bilbo - Мартин Фриман (Илья Хвостиков)Gandalf - Иэн МакКеллен (Василий Бочкарев)Thorin - Ричард Армитидж (Игорь Балалаев)Bofur - Джеймс Несбитт (Владислав Копп)Balin - Кен Стотт (Алексей Борзунов)Dwalin - Грэм МакТавиш (Андрей Данилюк)Bifur / Tom Troll - Уильям Кирчер (Сергей Смирнов)Bombur - Стивен Хантер (Сергей Вещёв)Fili - Дин О’Горман (Иван Жарков)Galadriel - Кейт Бланшетт (Ольга Зубкова)Elrond - Хьюго Уивинг (Валерий Сторожик)

Описание: Фильм повествует о путешествии Бильбо Бэггинса, который пускается в грандиозный поход, целью которого является отвоевание утраченного королевства гномов Эребор у зловещего дракона Смауга. Совершенно неожиданно с хоббитом налаживает контакт волшебник Гэндальф Серый. Так Бильбо находит себя, присоединяясь к компании тринадцати гномов, возглавляемых легендарным воином, Торином Дубощитом. Их путешествие проляжет через Дикий Край, через предательские земли, населенные гоблинами и орками, смертоносными варгами и гигантскими пауками, народом, меняющим шкуры, и волшебниками.И хотя их цель находится на Востоке среди пустошей Одинокой Горы, сначала им придется выбраться из туннелей гоблинов, где Бильбо встретит существо, которое изменит его жизнь навсегда… Голлума.Здесь, один на один с Голлумом, на берегу подземного озера, непритязательный Бильбо Бэггинс обнаружит не только скрытые в глубине души хитрость и отвагу, которые удивят даже его, но и завладеет «прелестным» колечком Голлума, которое обладает нежданными и полезными свойствами… Простое золотое кольцо, c которым связана судьба всего Средиземья, нитями, о которых Бильбо не мог даже вообразить.

Доп. информация: Расширенная версия длиннее театральной на 13 минут.

Знаете ли вы, что...:

Фильм является экранизацией повести-сказки Джона Р. Р. Толкина «Хоббит, или Туда и обратно» (The Hobbit, or There and Back Again), впервые опубликованной в 1937 году.

Работа над проектом началась еще в 2007 году, однако подготовка к съемкам сильно затянулась из-за бесконечных судебных разбирательств вокруг прав на экранизацию, прав на прокат и на выручку от продажи сопутствующих товаров, в которые были втянуты несколько киностудий, наследники Толкина и сам Питер Джексон.

Только после ухода Гильермо дель Торо с поста режиссера и личных просьб студий Warner и MGM в 2010 году Питер Джексон согласился вернуться в режиссерское кресло проекта, а в октябре того же года съемкам фильмов дали зеленый свет.

Рон Перлман был готов сняться в фильме при условии, что режиссером будет Гильермо дель Торо. Когда последний покинул проект, Перлман отказался от роли.

Это не первый из проектов Питера Джексона, где он просил Гильермо дель Торо быть режиссером. Ему также предлагали возглавить фильм «Хэло», но он отказался, чтобы заниматься режиссурой собственного детища «Хеллбой II: Золотая армия» (2008). Дель Торо принял предложение заниматься режиссурой этого фильма, но после того, как фильм пробыл нескольких лет в подвешенном состоянии в стадии препродакшна, он отказался от него, чтобы заниматься другими проектами.

Дэниэл Рэдклифф, Шайа ЛаБаф, Джеймс МакЭвой, Эррин Аркин и Тоби Магуайр рассматривались на роль Бильбо Бэггинса. Тем не менее Питер Джексон заявил, что он всегда видел в этой роли только Мартина Фримана. Фриман изначально не мог принять роль в связи с расхождениями в расписаниях съемок с сериалом «Шерлок» (2010), но Джексон переработал весь график съемок фильма «Хоббит: Нежданное путешествие» (2012), чтобы актер смог сыграть эту роль.

Билл Бэйли пробовался на роль Глоина. В сериале «Долбанутые» (1999-2001) он играет персонажа по имени Бильбо, названного в честь главного героя этого фильма.

Мартин Фриман ранее снимался в фильме «Зомби по имени Шон» (2004) с Биллом Найи и Пенелопой Уилтон, которая была замужем за предыдущим исполнителем роли Бильбо — актером Иэном Холмом.

Этот фильм был снят при помощи 30 камер Red Epic — новейшей модели этой серии, доступной во время производства фильма.

Этот фильм прошел через несколько этапов препродакшна, в том числе отдельные правовые споры между New Line Cinema, Питером Джексоном и наследниками Толкина. Затем компания MGM сдвинула проект с мертвой точки в 2008 году, но последовало еще больше осложнений. MGM обанкротилась, и проект заморозили, в результате чего режиссер Гильермо дель Торо ушел после трех лет препродакшна. Затем были проблемы с некоторыми организациями в Новой Зеландии, а также начало съемок было отложено, пока Питер Джексон восстанавливался после операции из-за перфорированной язвы.

Имя Beorn со староанглийского означает «медведь». Оно тесно связано со скандинавским именем Bjorn, которое тоже означает «медведь». И английский, и скандинавский языки, такие как норвежский и шведский, являются частью одной и той же германской языковой группы. Старый английский и древнескандинавский языки были еще более похожими.

Роберт Казински пробовался на роль Фили, и с ним даже было снято несколько сцен, но он покинул проект по личным причинам и вернулся в Англию примерно через месяц после начала съемок. В итоге роль получил Дин О’Горман.

Голлум появляется в книге только в одной сцене. Энди Серкис завершил работу над этой сценой еще за первую неделю продакшна, но остался и продолжил работать в качестве режиссера второго плана.

Ричард Армитэдж сказал, что его первым опытом игры на сцене была роль эльфа в театральной постановке «Хоббита».

Персонаж Азог не появляется в книге. Его сын Болг является лидером сил орков в битве пяти армий. Азог появляется только в приложении к «Властелину колец», в котором рассказывается, как он убил Трора, а впоследствии был убит Даином Железностопом.

Трандуил, отец Леголаса, впервые появляется в книге о хоббите как эльфийский король, при этом его настоящее имя не упоминается. Только в книге «Властелин колец», когда Леголас появляется впервые, он представляет себя как сына Трандуила из Лихолесья.

Сильвестр МакКой ранее рассматривался на роль Бильбо Бэггинса для фильма «Властелин колец: Братство кольца» (2001).

Все сцены с Иэном Холмом и Кристофером Ли были отсняты в лондонской студии Pinewood, потому что из-за проблем со здоровьем актеры не смогли полететь в Новую Зеландию.

Сирша Ронан рассматривалась на роль молодой эльфийки, но отказалась из-за несогласованности расписаний съемок.

Кристофер Ли отметил, что ему было бы интересно озвучивать дракона Смога в этом фильме. Но вместо этого персонажа он озвучивал дракона Бармаглота в фильме «Алиса в Стране чудес» (2010).

Стивен Фрай описал свою роль правителя Эсгарота так: «Питер Джексон заставлял меня есть яички для этой роли! У моего персонажа лысина и прическа с отвратительным зачесом, к тому же тонкие усы и борода, пятнистая кожа и омерзительные ногти… В общем, очень неаппетитный персонаж».

Съемки этого фильма и ленты «Хоббит: Пустошь Смога» (2013) были закончены 6 июля 2012 года и длились 266 дней.

Это первый фильм, который снят с частотой 48 кадров в секунду. Целью этого было сделать картинку более гладкой, движения более реалистичными и уменьшить эффект стробирования. Это особенно действенно сказывается при просмотре фильма в 3D, так как высокая частота кадров помогает лучше синхронизировать изображение для каждого глаза.

Во втором трейлере Гэндальф произносит фразу «Дом уже позади, а впереди дорога». Это цитата из «Властелина колец» и часть песни, которую Пиппин поет Денетору в книге «Властелин колец: Возвращение короля».

Адам Браун первоначально пробовался на роль Бильбо Бэггинса.

Джон Коллен первоначально пробовался на роль Радагаста и на голос Смога.

Фродо (Элайджа Вуд), Саруман (Кристофер Ли), Галадриэль (Кейт Бланшетт) и Леголас (Орландо Блум) — персонажи, взятые из книги «Властелин колец», хотя ни один из них на самом деле не появляется в книге про хоббита. Как и Радагаст (Сильвестр МакКой), который только упоминается в книге о хоббите, а появляется во «Властелине колец». Однако в фильмах серии «Властелин колец» он так и не появился.

В 2009 году в интернете ходили слухи о том, что исполнителем роли Бильбо Бэггинса может стать Дэвид Теннант (после того как он и Питер Джексон вместе появились на Comic-Con). Оба они отрицали эти слухи. Однако в 2010 году Теннант проходил прослушивание на роль Трандуила, но был вынужден отказаться от роли, когда его девушка забеременела.

Метод создания ног хоббита в этом фильме был изменен. В трилогии «Властелин колец» это были специальные протезы, которые надевались на ступни актеров, и через какое-то время их приходилось менять. В этом фильме протезы по длине доходили актерам до колен.

«Крик Вильгельма» можно услышать, когда гномы бегут по горам гоблинов, а один гоблин падает с дорожки.

Брэт МакКензи, который играет роль эльфа Линдира, ранее исполнял роль другого эльфа в фильмах «Властелин колец: Братство кольца» (2001) и «Властелин колец: Возвращение короля» (2003). Его персонаж из трилогии «Властелин колец» изначально был безымянным, но неофициально фанаты прозвали его Фигвит (имя Figwit пошло от фразы «Frodo is great… Who is THAT?», произнесенной одним из фанатов во время просмотра момента, где появляется МакКензи в «Братстве кольца»).

Некоторые названия глав из книги упоминаются в диалогах, такие как «Радушный прием», «Из огня да в полымя» и «Баранье жаркое».

На вопрос о количестве волшебников Гэндальф отвечает, что есть пятеро, называя себя, Сарумана и Радагаста, а затем говорит, что не может вспомнить имена двух других. Их имена — Алатар и Палландо. Они появляются в книге «Неоконченные сказания», но создатели фильма не имели права использовать материал из этой книги.

Контактные линзы Гэндальфа видны на крупных планах в сценах за столом Бильбо.

Когда Торин обращается к группе за обеденным столом Бильбо Бэггинса, расположение, цвет и текстура элементов на блюде (печенье или бисквиты) меняются.

Вскоре после того как команда встречается с Радагастом, их прогоняют из леса и в тундру, но, когда после этого камера движется вокруг карликов, никакого леса нет и в помине.

Прежде чем орлы спасают Торина и компанию, меч Торина лежит в стороне от него, слишком далеко, чтобы его достать. Когда же орел подхватывает его, меч лежит на нем.

Когда Бильбо пытается спасти пони от троллей, настоящие лошади привязаны поводьями к столбам. Когда затем показывают пони, уже созданных при помощи компьютерной графики, они не только не привязаны, но и без поводьев вообще.

В сценах с Галадриэль можно заметить, что, когда она поворачивается на месте, нижняя часть ее платья красиво оборачивается вокруг ее ног. Когда она прощается с Гэндальфом, она поворачивается и в этот момент широко расставляет ноги, но в следующем кадре ее ноги уже сдвинуты и опять красиво завернуты в платье.

Меч Бильбо не светится синим во время нападения орков на скале.

Радагаст получает сообщение от дрозда, зависшего рядом с ним. Единственная птица, физически способная так парить в воздухе, — это колибри.

Техн. детали съёмки

Производство 21 марта 2011 — нет данных

Съёмки: 21 марта 2011 — 6 июля 2012

Формат изображения: 2.35 : 1

Камера: Red Epic, Zeiss Ultra Prime and Angenieux Optimo Lenses

Формат копии: 35 mm (anamorphic) (Kodak Vision 2383)

70 mm (horizontal) (IMAX DMR blow-up) (also dual-strip 3-D) (Kodak Vision 2383)

D-Cinema (also 3-D version)

Формат съёмок: Redcode RAW

Премьера: 28 ноября 2012 (19 декабря 2012)

Релиз на DVD и Blu-Ray: 11 апреля 2013

Бюджет: $180 000 000

Кассовые сборы: $1 017 003 568

Кинопоиск Топ250: 80

Качество: BDRip (by Ash61)

Контейнер: MKV

Формат 3D: Half OverUnder / Вертикальная анаморфная стереопара

Порядок ракурсов: левый ракурс первый

Видео кодек: x264

Аудио кодек: AC3

Видео: AVC / 23,976 fps / 1920х1080p / 9.9 Mbps

Аудио:

#1 - Русский / AC3 / 48 KHz / 5.1 ch / 448 Kbps (Дубляж - BD CEE)

#2 - Английский / AC3 / 48 KHz / 5.1 ch / 640 Kbps (Original)

Субтитры:

Вшитые softsub SRT:

#1 - Русские Форсированные (На придуманные языки) (включены по умолчанию)

#2 - Украинские Форсированные (На придуманные языки)

Внешние SRT (UTF-8):

#1 - Русские Форсированные (На придуманные языки) (включены по умолчанию)

#2 - Русские Полные

#3 - Украинские Форсированные (На придуманные языки)

#4 - Украинские Полные

#5 - English Full

#6 - English SDH

MediaInfo

General

Unique ID : 230074114984705816729114749593962153225 (0xAD16A9A9D60CAE54B530488BBD000509)

Complete name : E:TheHobbit.AnUnexpectedJourney[ExtendedCut](2012)3D-halfOU(Ash61)TheHobbit.AnUnexpectedJourney[ExtendedCut](2012)3D-halfOU(Ash61).mkv

Format : Matroska

Format version : Version 2

File size : 14.3 GiB

Duration : 3h 2mn

Overall bit rate : 11.3 Mbps

Movie name : Хоббит: Нежданное путешествие [Расширенная версия] / The Hobbit: An Unexpected Journey [Extended Cut] (2012) 3D

Encoded date : UTC 2013-11-14 15:23:58

Writing application : mkvmerge v5.8.0 ('No Sleep / Pillow') built on Sep 2 2012 15:37:04

Writing library : libebml v1.2.3 + libmatroska v1.3.0

Video

ID : 1

Format : AVC

Format/Info : Advanced Video Codec

Format profile : [email protected]

Format settings, CABAC : Yes

Format settings, ReFrames : 4 frames

Codec ID : V_MPEG4/ISO/AVC

Duration : 3h 2mn

Bit rate : 9 940 Kbps

Width : 1 920 pixels

Height : 1 080 pixels

Display aspect ratio : 16:9

Frame rate mode : Constant

Frame rate : 23.976 fps

Color space : YUV

Chroma subsampling : 4:2:0

Bit depth : 8 bits

Scan type : Progressive

Bits/(Pixel*Frame) : 0.200

Stream size : 12.7 GiB (88%)

Title : BDRip by Ash61

Writing library : x264 core 129 r2245 bc13772

Encoding settings : cabac=1 / ref=4 / deblock=1:-3:-3 / analyse=0x3:0x113 / me=umh / subme=10 / psy=1 / psy_rd=1.00:0.15 / mixed_ref=1 / me_range=32 / chroma_me=1 / trellis=2 / 8x8dct=1 / cqm=0 / deadzone=21,11 / fast_pskip=1 / chroma_qp_offset=-3 / threads=12 / lookahead_threads=2 / sliced_threads=0 / nr=0 / decimate=1 / interlaced=0 / bluray_compat=0 / constrained_intra=0 / bframes=10 / b_pyramid=2 / b_adapt=2 / b_bias=0 / direct=3 / weightb=1 / open_gop=0 / weightp=2 / keyint=250 / keyint_min=23 / scenecut=40 / intra_refresh=0 / rc_lookahead=60 / rc=crf / mbtree=1 / crf=17.0 / qcomp=0.70 / qpmin=0 / qpmax=69 / qpstep=4 / vbv_maxrate=40000 / vbv_bufsize=30000 / crf_max=0.0 / nal_hrd=none / frame-packing=4 / ip_ratio=1.40 / aq=1:0.70

Language : English

Default : Yes

Forced : No

Audio #1

ID : 2

Format : AC-3

Format/Info : Audio Coding 3

Mode extension : CM (complete main)

Format settings, Endianness : Big

Codec ID : A_AC3

Duration : 3h 2mn

Bit rate mode : Constant

Bit rate : 448 Kbps

Channel(s) : 6 channels

Channel positions : Front: L C R, Side: L R, LFE

Sampling rate : 48.0 KHz

Bit depth : 16 bits

Compression mode : Lossy

Stream size : 585 MiB (4%)

Title : Дубляж - BD CEE

Language : Russian

Default : Yes

Forced : No

Audio #2

ID : 3

Format : AC-3

Format/Info : Audio Coding 3

Mode extension : CM (complete main)

Format settings, Endianness : Big

Codec ID : A_AC3

Duration : 3h 2mn

Bit rate mode : Constant

Bit rate : 640 Kbps

Channel(s) : 6 channels

Channel positions : Front: L C R, Side: L R, LFE

Sampling rate : 48.0 KHz

Bit depth : 16 bits

Compression mode : Lossy

Stream size : 836 MiB (6%)

Title : Original

Language : English

Default : No

Forced : No

Text #1

ID : 4

Format : UTF-8

Codec ID : S_TEXT/UTF8

Codec ID/Info : UTF-8 Plain Text

Title : Форсированные

Language : Russian

Default : Yes

Forced : No

Text #2

ID : 5

Format : UTF-8

Codec ID : S_TEXT/UTF8

Codec ID/Info : UTF-8 Plain Text

Title : Форсированные

Language : Ukrainian

Default : No

Forced : No

Menu

00:00:00.000 : :1. Prologue: The Fall of Erebor

00:10:11.903 : :2. "In a Hole in the Ground There Lived a Hobbit"

00:14:08.723 : :3. Very Old Friends

00:17:27.255 : :4. Mr. Baggins

00:18:44.623 : :5. An Unexpected Party

00:23:16.604 : :6. "Blunt the Knives"

00:27:59.469 : :7. A Map, A Key and A Contract

00:36:04.871 : :8. "Misty Mountains"

00:41:17.266 : :9. "...The World Ahead"

00:46:30.830 : :10. The Battle of Azanulbizar

00:53:04.181 : :11. Radagast the Brown

00:58:07.651 : :12. Trollshaws

00:59:55.300 : :13. Roast Mutton

01:10:42.405 : :14. A Troll-hoard

01:15:01.831 : :15. The Hill of Sorcery

01:18:52.811 : :16. Warg-scouts

01:24:56.925 : :17. Rivendell

01:30:34.429 : :18. A Short Rest

01:34:10.603 : :19. Moon Runes

01:37:24.464 : :20. The Defiler

01:39:05.479 : :21. The Last Homely House

01:41:44.803 : :22. The White Council

01:50:26.533 : :23. "Why the Halfling?"

01:53:03.773 : :24. Over Hill

01:59:10.348 : :25. Under Hill

02:04:01.513 : :26. The Great Goblin

02:09:55.575 : :27. Riddles in the Dark

02:23:25.426 : :28. Biter and Beater

02:25:22.877 : :29. The Ring

02:26:35.199 : :30. Escape from Goblin Town

02:30:56.919 : :31. The Pity of Bilbo

02:33:04.546 : :32. "Home is Behind..."

02:35:56.593 : :33. Out of the Frying Pan...

02:46:55.210 : :34. A Good Omen

02:52:25.373 : :35. Credits

allbesta.cc


Смотрите также