Хоббит скачать торрент все части режиссерская версия 1080


Нежданное путешествие (2012) смотреть онлайн или скачать фильм через торрент. Трейлеры, правдивые оценки, рецензии, комментарии, похожие фильмы, саундтрек, новости и интересные факты на Fast-torrent

Возвращение в Средиземье...

Пожалуй не на многие из фильмов в этом году был смысл покупать билеты зарание, но Хоббит был одним из таких...

Придя в кино, усевшись поудобнее, включили как обычно пару-тройку роликов и далее начался фильм! С первых минут уже начали показывать что-то новое, но в то же время что-то знакомое, не покидало ощущение лёгкого дежа вю! Всё это происходило из-за того, что снова мы увидели уже знакомых нам персонажей, увидели уже знакомый нам мир, который был показан в трилогии "Властелин Колец", но мы не могли знать, о чём же будет фильм "Хоббит", оставалось только догадываться... В начале фильма было краткое повествование о некогда самой могущественной рассе, населявшей Средиземье - о Гномах, показали их жизнь, краткий путь развития и то, что с ними случилось, честно говоря, удивило, что на их владения, на их бесчисленных богатства, которые они добывали в горе посегнул Дракон и выселил этот могущественный народ со своего дома! Так же были показаны Эльфы, которые видели то что происходило с их братьями, но не смогли помочь им ничем, ведь против Дракона ни у кого не было шансов и все знали, что по легенде, "огнедыщащий" до последнего вздоха будет охранять свою добычу, или то что он захватил! Гномам пришлось покинуть свой дом и они отпраились в поисках нового места, где бы могли остановится, пока Дракон не покинет их дом! Они прознали, что на их богатство, на их царство, посягает армия Орков, и воины-Гномы отправились сражаться за своё богатство. Было убито бесчётное количество Гномов, но они выстояли, правда в битве потеряли своего Короля, предвадителя, но у них появился новый воин, который повёл их за собой - им был Торин Дубощит! (это было краткое введение, предыстория к фильму...). Сама же история повествования начинается с повествования 1 Хоббита о своей молодости, который, сидя вечером за пером, решил поведать свою историю о том что было, когда он был юнцом, не видевшим мира и ни разу не покидавшим свой дом, и этим Хоббитом был Бильбо Бэггинс! Само действие фильма начало происходить тогда, когда он был ещё молод, много много лет назад! Однажды утром, сидя у себя на скамеечке, он встречает волшебника - Гэндальфа, и с этого момента его жизнь кардинально изменится! Тот рассказал ему про то, что скрыто за пределами его землянки, о том, что он хочет отправится в путешетсвие, для которого ему понадобится сам Бэггинс! Хоббит, испугавшись, отверг его предложение, но волшебник пометил его дом и туда, к вечеру, стали приходить Гномы, которые собирались отправится в путешествие, о котором сам Бильбо ещё ничего не знал! Он сначала был удивлён очень большому количеству гостей, но когда пришёл Гэндальф - он поведал ему о своих планах, что хочет отправится в поход, чтобы помочь Гномам вернуть их дом, но для этого ему понадобится Хоббит! Бильбо взвесил все за и против, ему рассказали про Дракона, который охраняет их пещеру, напугали его и он, подумав, отказался, хотя Гэндальф говорил ему: - "подумай, ведь ты живёшь 1, никогда не покидал своего дома, а я тебе предлагаю то, о чём тебе потом можно будет поведать, но после этого твоя жизнь координально изменится!" Утром Бэггинс понял, что он совершил ошибку, отвергнув предложение волшебника, и тот пошёл за ними, решив вступить в поход, полный сюрпризов и опасностей, где будут встерчаться кровожадные Орки, Тролли, Эльфы, гигантские Орлы, Каменные Великаны, ну и открою серет - будет и Голлум, который просто очарует собой и заствит моментами замирать, как в прочем и каждый персонаж, при виде которого просто открываешь рот и смотришь на экран!

Дальше нет смысла пересказывать сюжет этого фильма, поскольку можно говорить часами, прокручивая каждый эпизод снова и снова, но не хочется пересказывать даже этот фильм по 1 простой причине - его лучше увидеть самому, и насладится зрелищем, которое продолжается 3 часа, чем читать перезказ в крации о сюжете! Питер Джексон снял поистине шедевр, о котором будут долго говорить, возможно моментами критиковать, скорее всего восхвалять, но он подарил лично мне великолепную сказку, в которую я поверил и погрузился с первой минуты и до последней. 3 часа протели за миг, а на это способен только, безусловно, талантливый человек, перед которым просто снимаю шляпу! Эффекты фильме просто на высоте, как и съёмка, чего только стоит битва Каменных Великанов, которую смотришь с открытым ртом и задержав дыхание! Саундрек в фильме тоже великолепный - очень тонко передаёт атмосферу фильма и порой вызывает просто мурашки! Я так же был рад увидеть снова Средиземье, знакомых актёров, но уже в новом фильме и с новой историей, мой совет - даже думать не стоит, а неспеша начать собираться в кино, купить билет и погрузится в сказку, которую нам подарили под Новый Год!

Оценка шедевру - это уже лишнее, смотрите и наслаждайтесь!

www.fast-torrent.ru

Скачать торрент Хоббит: Битва пяти воинств / The Hobbit: The Battle of the Five Armies (2014) BDRip 1080p от Ash61 | 3D-Video | hOU | Расширенная

Хоббит: Битва пяти воинствThe Hobbit: The Battle of the Five Armies(Расширенная версия / Extended Cut)Год выпуска: 2014Страна: Новая Зеландия, США (Warner Bros. Pictures, New Line Cinema, Metro-Goldwyn-Mayer)Жанр: Фэнтези, ПриключенияПродолжительность: 2:44:02

Перевод: Профессиональный дублированный - Лицензия

Режиссер: Питер Джексон / Peter Jackson

Роли исполняли (дублировали):

Bilbo - Мартин Фриман (Илья Хвостиков), Gandalf - Иэн МакКеллен (Василий Бочкарев), Thorin - Ричард Армитедж (Игорь Балалаев), Bard - Люк Эванс (Дмитрий Поляновский), Tauriel - Эванджелин Лилли (Марьяна Спивак), Thranduil - Ли Пейс (Антон Савенков), Legolas - Орландо Блум (Олег Вирозуб), Smaug / Necromancer - Бенедикт Камбербэтч (Олег Куценко), Balin - Кен Стотт (Борис Быстров), Kili - Эйдан Тернер (Александр Дзюба), Galadriel - Кейт Бланшетт (Ольга Зубкова), Elrond - Хьюго Уивинг (Валерий Сторожик), Dwalin - Грэм МакТавиш (Борис Токарев), Bifur - Уильям Кирчер (Владислав Копп), Bombur - Стивен Хантер (Михаил Белякович), Fili - Дин О’Горман (Иван Жарков), Bofur - Джеймс Несбитт, Oin - Джон Коллен (Игорь Старосельцев), Gloin - Питер Хэмблтон (Александр Груздев), Nori - Джед Брофи (Григорий Шевчук), Saruman - Кристофер Ли (Владимир Левашёв), Old Bilbo - Иэн Холм (Александр Воеводин), Dori - Марк Хэдлоу (Михаил Бескаравайный), Ori - Адам Браун (Диомид Виноградов), Beorn - Микаэл Персбрандт (Андрей Ташков), Radagast - Сильвестр МакКой (Сергей Чихачев), Master of Laketown - Стивен Фрай (Алексей Колган), Alfrid - Райан Гейдж (Даниил Эльдаров), Azog - Ману Беннетт

Описание: Когда отряд из тринадцати гномов нанимал хоббита Бильбо Бэгинса в качестве взломщика и четырнадцатого, «счастливого», участника похода к Одинокой горе, Бильбо полагал, что его приключения закончатся, когда он выполнит свою задачу — найдет сокровище, которое так необходимо предводителю гномов Торину. Путешествие в Эребор, захваченное драконом Смаугом королевство гномов, оказалось еще более опасным, чем предполагали гномы и даже Гэндальф — мудрый волшебник, протянувший Торину и его отряду руку помощи. В погоню за гномами устремилась армия орков, ведомых пробудившимся в руинах древним злом, а эльфы и люди, с которыми Бильбо и его товарищам пришлось иметь дело во время путешествия и которые пострадали от последствий желания гномов вернуть свой дом, предъявили права на щедрое вознаграждение — часть сокровищ Одинокой горы. Скоро неподалеку от Одинокой горы встретятся пять армий, и лишь кровопролитная битва определит результаты смелого гномьего похода.Доп. инфо: Из видео вырезана тёмная пауза на стыке дисков (т.е. синхронизировано с 2Д версией фильма). Главы именованные. Данная версия длиннее театральной почти на 20 минут.

Знаете ли вы, что...

  • Фильм снят по мотивам повести Джона Рональда Роуэла Толкина «Хоббит, или Туда и обратно» (The Hobbit, or There and Back Again, 1937).
  • 13 октября 2015 года в кинотеатрах США состоялась премьера расширенной версии фильма, которая получила возрастной рейтинг «18+». До этого момента новые версии картин из трилогии «Хоббит», как и расширенные версии трех фильмов «Властелин колец», никогда не демонстрировались в кино.
  • После завершения съемок несколько актеров оставили себе некоторые предметы реквизита на память. Мартин Фриман оставил себе меч Бильбо и протезные уши, Ричард Армитедж сохранил меч Оркрист, а Ли Пейс — эльфийский меч своего персонажа. Сэр Иэн МакКеллен же смог забрать с площадки знаменитую остроконечную шляпу Гендальфа.
  • Несмотря на то, что Кейт Бланшетт появляется во всех фильмах трилогии, она провела на съемочной площадке всего восемь дней.
  • Когда серия фильмов о хоббите была на ранней стадии развития, планировалось, что будет всего два фильма, а у второго появится подзаголовок «Туда и обратно» (There and Back Again). Но в июле 2012 года было принято решение разбить историю на три части, а этот подзаголовок отдать последнему фильму. В апреле 2014 года Питер Джексон объявил, что название третьего фильма все же изменится, и это будет «Битва пяти воинств» (The Battle of the Five Armies). Основной причиной для изменения названия стало то, что в последнем фильме в центре внимания находится именно эта битва. Джексон написал на своей странице в Facebook, что название «Туда и обратно» подходило для второй части фильма, если бы она была последней, но, когда решили сделать три фильма, это название стало неуместным, поскольку Бильбо уже прибыл «туда» во второй части.
  • Когда было объявлено, что у фильма будет свой стенд на фестивале Comic-Con в Сан-Диего, несколько фанатов разместились у входа на фестиваль за день до события, чтобы получить лучшие места. Посреди ночи фанатов разбудили актеры Ли Пейс и Энди Серкис. Они раздавали автографы, общались с фанатами и фотографировались с ними на протяжении нескольких часов. В итоге Пейс от усталости уснул на матрасе рядом с фанатами.
  • Оленя, на котором ездит Трандуил (Ли Пейс), играла лошадь по имени Муз («Moose» буквально переводится как «лось»).
  • Песню из первого трейлера («Edge of the Night») пел Перегрин Тук (Билли Бойд) в фильме «Властелин колец: Возвращение короля» (2003). Более того, Билли Бойд исполнил финальную песню к фильму («The Last Goodbye»).
  • Все сцены с Иэном Холмом и Кристофером Ли были отсняты в лондонской студии Pinewood, потому что из-за проблем со здоровьем актеры не смогли полететь в Новую Зеландию.
  • В самом первом трейлере к фильму был момент, где некоторые гномы ехали в колеснице, в которую были запряжены козлы, навстречу волкам. Но в финальной версии фильма такого момента — нет.
  • В основном сражении фильма участвуют 5 тысяч гномов и эльфов и 36 тысяч орков, а также стаи гигантских летучих мышей и несколько троллей. Все они в основном были нарисованы при помощи компьютерной графики.
  • Питер Джексон построил точную копию норы Бильбо Бэггинса, в подвале своего новозеландского дома. Под жилье Бильбо был переделан подвал поместья в городе Мастертон, купленного Джексоном в начале 2000-х. По словам дизайнера Бино Смита, работавшего декоратором на съемках экранизаций книг Толкина, чтобы попасть в нору, нужно спуститься в винный погреб, потянуть за одну из бутылок, пересечь тоннель длиной около 30 м и войти в потайную дверь. Этот дом Бильбо посещали режиссеры Стивен Спилберг и Джордж Лукас, а также актер Дэнни ДеВито, которого Смит назвал одним из ближайших друзей Джексона.
  • Ошибки в фильме (Осторожно, содержатся спойлеры!)

  • Когда Торин Дубощит падает, он показан на краю ледяной скалы, но когда к нему подбегает Бильбо, он лежит возле лестницы.
  • В сцене, когда Трандуил приказывает трубить об отходе, Гендальф обращается к нему, что бы тот послал отряд на помощь Торину. После ответа Трандуила, Гендальф зовёт его по имени. В этот момент можно увидеть, что Гендальф держит свой старый посох, разрушенный во 2 части фильма.
  • Азог ранил Торина через лед в ногу, но позже, когда Бильбо стоит над Торином, в кадр попадают его целые подошвы.
  • В момент в конце фильма, когда Бильбо прощается с умирающим Торином, есть план сверху над двумя персонажами, на котором видно много теней сражающихся орлов и летучих мышей, а когда персонажей показывают крупным планом, никаких теней вокруг них нет.
  • Когда Леголас побеждает орка, который падает на мост и вместе с мостом подает в ущелье, то можно заметить, что там нет трупов, хотя там должны быть как минимум трупы орка гиганта и двух простых орков.
  • Премьера: 1 декабря 2014 (11 декабря 2014)Релиз театральной на Blu-Ray (DVD) (Россия): 26 марта 2015Бюджет: $250 000 000Кассовые сборы: $956 019 788

    Качество: BDRip (by Ash61)Контейнер: MKVФормат 3D: Half OverUnder / Вертикальная анаморфная стереопараПорядок ракурсов: левый ракурс первыйВидео: AVC / 23,976 fps / 1920х1080p / 14.1 Mbps

    Аудио:#1 - Русский / AC3 / 48 KHz / 5.1 ch / 448 Kbps (Дубляж - BD CEE)#2 - Английский / AC3 / 48 KHz / 5.1 ch / 640 Kbps (Original)

    Субтитры: (SRT)Вшитые (softsub):#1 - Русские Форсированные (в т.ч. на речь эльфов и орков) [Color] (включены по умолчанию)#2 - Русские Полные#3 - Украинские Полные#4 - English Full#5 - English SDH

    Внешние (UTF-8):#1 - Русские Форсированные (в т.ч. на речь эльфов и орков) [Color] (включены по умолчанию)

    MediaInfo

    General Unique ID : 246788137504637741689265378473676456418 (0xB9A9AA98CBA311E394B9514A5CC941E2) Complete name : E:TheHobbit3[Extended](2014)3D-halfOU(Ash61)TheHobbit3[Extended](2014)3D-halfOU(Ash61).mkv Format : Matroska Format version : Version 2 File size : 17.8 GiB Duration : 2h 44mn Overall bit rate : 15.5 Mbps Movie name : Хоббит: Битва пяти воинств (Расширенная версия) / The Hobbit: The Battle of the Five Armies (Extended Cut) (2014) в 3Д Encoded date : UTC 2015-11-22 20:44:00 Writing application : mkvmerge v5.8.0 ('No Sleep / Pillow') built on Sep 2 2012 15:37:04 Writing library : libebml v1.2.3 + libmatroska v1.3.0

    Video ID : 1 Format : AVC Format/Info : Advanced Video Codec Format profile : [email protected] Format settings, CABAC : Yes Format settings, ReFrames : 4 frames Codec ID : V_MPEG4/ISO/AVC Duration : 2h 44mn Bit rate : 14.1 Mbps Width : 1 920 pixels Height : 1 080 pixels Display aspect ratio : 16:9 Frame rate mode : Constant Frame rate : 23.976 fps Color space : YUV Chroma subsampling : 4:2:0 Bit depth : 8 bits Scan type : Progressive Bits/(Pixel*Frame) : 0.284 Stream size : 16.2 GiB (91%) Title : BDRip by Ash61 (without coffee break) Writing library : x264 core 146 r2538 121396c Encoding settings : cabac=1 / ref=4 / deblock=1:-3:-3 / analyse=0x3:0x113 / me=umh / subme=10 / psy=1 / psy_rd=1.00:0.00 / mixed_ref=1 / me_range=32 / chroma_me=1 / trellis=2 / 8x8dct=1 / cqm=0 / deadzone=21,11 / fast_pskip=1 / chroma_qp_offset=-2 / threads=12 / lookahead_threads=3 / sliced_threads=0 / nr=0 / decimate=1 / interlaced=0 / bluray_compat=0 / constrained_intra=0 / bframes=10 / b_pyramid=2 / b_adapt=2 / b_bias=0 / direct=3 / weightb=1 / open_gop=0 / weightp=2 / keyint=250 / keyint_min=23 / scenecut=40 / intra_refresh=0 / rc_lookahead=60 / rc=crf / mbtree=1 / crf=15.0 / qcomp=0.70 / qpmin=0 / qpmax=69 / qpstep=4 / vbv_maxrate=40000 / vbv_bufsize=30000 / crf_max=0.0 / nal_hrd=none / filler=0 / frame-packing=4 / ip_ratio=1.40 / aq=1:0.70 Language : English Default : Yes Forced : No

    Audio #1 ID : 2 Format : AC-3 Format/Info : Audio Coding 3 Mode extension : CM (complete main) Format settings, Endianness : Big Codec ID : A_AC3 Duration : 2h 44mn Bit rate mode : Constant Bit rate : 448 Kbps Channel(s) : 6 channels Channel positions : Front: L C R, Side: L R, LFE Sampling rate : 48.0 KHz Bit depth : 16 bits Compression mode : Lossy Stream size : 526 MiB (3%) Title : Дубляж - BD CEE Language : Russian Default : Yes Forced : No

    Audio #2 ID : 3 Format : AC-3 Format/Info : Audio Coding 3 Mode extension : CM (complete main) Format settings, Endianness : Big Codec ID : A_AC3 Duration : 2h 44mn Bit rate mode : Constant Bit rate : 640 Kbps Channel(s) : 6 channels Channel positions : Front: L C R, Side: L R, LFE Sampling rate : 48.0 KHz Bit depth : 16 bits Compression mode : Lossy Stream size : 751 MiB (4%) Title : Original Language : English Default : No Forced : No

    Text #1 ID : 4 Format : UTF-8 Codec ID : S_TEXT/UTF8 Codec ID/Info : UTF-8 Plain Text Title : Форсированные (в т.ч. на речь эльфов и орков) - iTunes (edited) Language : Russian Default : Yes Forced : No

    Text #2 ID : 5 Format : UTF-8 Codec ID : S_TEXT/UTF8 Codec ID/Info : UTF-8 Plain Text Title : Полные - iTunes Language : Russian Default : No Forced : No

    Text #3 ID : 6 Format : UTF-8 Codec ID : S_TEXT/UTF8 Codec ID/Info : UTF-8 Plain Text Title : Полные - iTunes Language : Ukrainian Default : No Forced : No

    Text #4 ID : 7 Format : UTF-8 Codec ID : S_TEXT/UTF8 Codec ID/Info : UTF-8 Plain Text Title : Full Language : English Default : No Forced : No

    Text #5 ID : 8 Format : UTF-8 Codec ID : S_TEXT/UTF8 Codec ID/Info : UTF-8 Plain Text Title : SDH Language : English Default : No Forced : No

    Menu 00:00:00.000 : : 1. Fire and Water 00:05:12.395 : : 2. Bard the Dragon-Slayer 00:12:47.058 : : 3. Dungeons of the Dark Lord 00:13:19.298 : : 4. Shores of the Long Lake 00:18:57.428 : : 5. Not at Home 00:23:42.171 : : 6. "Others will Now Look to the Mountain" 00:24:56.161 : : 7. Legions of the Defiler 00:26:04.563 : : 8. The Mark of Gundabad 00:27:33.026 : : 9. Attack on Dol Guldur 00:35:45.685 : : 10. "Summon Our Friends" 00:36:41.282 : : 11. The King's Jewel 00:40:41.898 : : 12. The Ruins of Dale 00:42:01.144 : : 13. Erebor Fortified 00:43:11.756 : : 14. The Elvenking's Aid 00:46:16.148 : : 15. The Gathering of the Clouds 00:51:27.668 : : 16. A Token of Friendship 00:54:57.961 : : 17. The Shadow of Gundabad 00:56:14.830 : : 18. "The Last Move in a Master Plan" 00:58:31.299 : : 19. Bolg of the North 01:00:26.957 : : 20. The Night Watch 01:02:43.593 : : 21. A Thief in the Night 01:06:10.175 : : 22. An Honest Burglar 01:12:23.297 : : 23. Dain Ironfoot 01:17:22.555 : : 24. The Clouds Burst 01:20:36.331 : : 25. The Battle at Dale 01:24:57.217 : : 26. The Darkest Hour 01:28:41.775 : : 27. Dragon-Sickness 01:30:52.280 : : 28. The Return of Thorin Oakenshild 01:33:02.159 : : 29. Sons of Durin 01:35:12.832 : : 30. "To the King!" 01:38:32.489 : : 31. A Call to Arms 01:39:42.893 : : 32. Thorin's Plan 01:41:00.596 : : 33. The War Chariot 01:45:03.505 : : 34. Courage and Cowardice 01:47:13.635 : : 35. The Fifth Army 01:49:05.288 : : 36. Scouting Ravenhill 01:50:03.013 : : 37. Blood of the Eldar 01:52:59.606 : : 38. An Unforeseen Remedy 01:53:51.282 : : 39. The Fallen 01:57:15.236 : : 40. The Battle at Ravenhill 02:05:38.572 : : 41. To the Death 02:12:07.044 : : 42. Parting in Friendship 02:15:26.243 : : 43. The Sorrow of Elves 02:18:32.512 : : 44. Eyes That Fire and Sword Have Seen 02:20:07.440 : : 45. King under the Mountain 02:22:27.205 : : 46. The Return Journey 02:26:11.596 : : 47. The Last Stage 02:30:54.462 : : 48. Credits

    О методах просмотра 3D

    krutor.org

    Нежданное путешествие (2012) смотреть онлайн или скачать фильм через торрент. Трейлеры, правдивые оценки, рецензии, комментарии, похожие фильмы, саундтрек, новости и интересные факты на Fast-torrent

    Возвращение в Средиземье...

    Пожалуй не на многие из фильмов в этом году был смысл покупать билеты зарание, но Хоббит был одним из таких...

    Придя в кино, усевшись поудобнее, включили как обычно пару-тройку роликов и далее начался фильм! С первых минут уже начали показывать что-то новое, но в то же время что-то знакомое, не покидало ощущение лёгкого дежа вю! Всё это происходило из-за того, что снова мы увидели уже знакомых нам персонажей, увидели уже знакомый нам мир, который был показан в трилогии "Властелин Колец", но мы не могли знать, о чём же будет фильм "Хоббит", оставалось только догадываться... В начале фильма было краткое повествование о некогда самой могущественной рассе, населявшей Средиземье - о Гномах, показали их жизнь, краткий путь развития и то, что с ними случилось, честно говоря, удивило, что на их владения, на их бесчисленных богатства, которые они добывали в горе посегнул Дракон и выселил этот могущественный народ со своего дома! Так же были показаны Эльфы, которые видели то что происходило с их братьями, но не смогли помочь им ничем, ведь против Дракона ни у кого не было шансов и все знали, что по легенде, "огнедыщащий" до последнего вздоха будет охранять свою добычу, или то что он захватил! Гномам пришлось покинуть свой дом и они отпраились в поисках нового места, где бы могли остановится, пока Дракон не покинет их дом! Они прознали, что на их богатство, на их царство, посягает армия Орков, и воины-Гномы отправились сражаться за своё богатство. Было убито бесчётное количество Гномов, но они выстояли, правда в битве потеряли своего Короля, предвадителя, но у них появился новый воин, который повёл их за собой - им был Торин Дубощит! (это было краткое введение, предыстория к фильму...). Сама же история повествования начинается с повествования 1 Хоббита о своей молодости, который, сидя вечером за пером, решил поведать свою историю о том что было, когда он был юнцом, не видевшим мира и ни разу не покидавшим свой дом, и этим Хоббитом был Бильбо Бэггинс! Само действие фильма начало происходить тогда, когда он был ещё молод, много много лет назад! Однажды утром, сидя у себя на скамеечке, он встречает волшебника - Гэндальфа, и с этого момента его жизнь кардинально изменится! Тот рассказал ему про то, что скрыто за пределами его землянки, о том, что он хочет отправится в путешетсвие, для которого ему понадобится сам Бэггинс! Хоббит, испугавшись, отверг его предложение, но волшебник пометил его дом и туда, к вечеру, стали приходить Гномы, которые собирались отправится в путешествие, о котором сам Бильбо ещё ничего не знал! Он сначала был удивлён очень большому количеству гостей, но когда пришёл Гэндальф - он поведал ему о своих планах, что хочет отправится в поход, чтобы помочь Гномам вернуть их дом, но для этого ему понадобится Хоббит! Бильбо взвесил все за и против, ему рассказали про Дракона, который охраняет их пещеру, напугали его и он, подумав, отказался, хотя Гэндальф говорил ему: - "подумай, ведь ты живёшь 1, никогда не покидал своего дома, а я тебе предлагаю то, о чём тебе потом можно будет поведать, но после этого твоя жизнь координально изменится!" Утром Бэггинс понял, что он совершил ошибку, отвергнув предложение волшебника, и тот пошёл за ними, решив вступить в поход, полный сюрпризов и опасностей, где будут встерчаться кровожадные Орки, Тролли, Эльфы, гигантские Орлы, Каменные Великаны, ну и открою серет - будет и Голлум, который просто очарует собой и заствит моментами замирать, как в прочем и каждый персонаж, при виде которого просто открываешь рот и смотришь на экран!

    Дальше нет смысла пересказывать сюжет этого фильма, поскольку можно говорить часами, прокручивая каждый эпизод снова и снова, но не хочется пересказывать даже этот фильм по 1 простой причине - его лучше увидеть самому, и насладится зрелищем, которое продолжается 3 часа, чем читать перезказ в крации о сюжете! Питер Джексон снял поистине шедевр, о котором будут долго говорить, возможно моментами критиковать, скорее всего восхвалять, но он подарил лично мне великолепную сказку, в которую я поверил и погрузился с первой минуты и до последней. 3 часа протели за миг, а на это способен только, безусловно, талантливый человек, перед которым просто снимаю шляпу! Эффекты фильме просто на высоте, как и съёмка, чего только стоит битва Каменных Великанов, которую смотришь с открытым ртом и задержав дыхание! Саундрек в фильме тоже великолепный - очень тонко передаёт атмосферу фильма и порой вызывает просто мурашки! Я так же был рад увидеть снова Средиземье, знакомых актёров, но уже в новом фильме и с новой историей, мой совет - даже думать не стоит, а неспеша начать собираться в кино, купить билет и погрузится в сказку, которую нам подарили под Новый Год!

    Оценка шедевру - это уже лишнее, смотрите и наслаждайтесь!

    fast-torrent.ru

    : [ ] | The Hobbit: An Unexpected Journey [Extended Cut] ( ) [2012 ., , , BDRip 1080p]

                                   : 1                                     : AVC  /                        : Advanced Video Co   CABAC                    :   ReFrames                 : 5                        : V_MPEG4/ISO/AVC                          : 3 . 2 .                                    : 10,7 /                                     : 1920                                     : 800                          : 2,40:1                        :                              : 23,976 /                       : YUV               : 4:2:0                             : 8                               :  /(*)                      : 0.289                               : 13,3 (83%)                                  : The Hobbit: An Unexpected Journey                      : x264 core 138 r2356 a1d3d17                         : cabac=1 / ref=5 / deblock=1:-3:-3 / analyse=0x3:0x113 / me=umh / subme=10 / psy=1 / psy_rd=1.00:0.05 / mixed_ref=1 / me_range=32 / chroma_me=1 / trellis=2 / 8x8dct=1 / cqm=0 / deadzone=21,11 / fast_pskip=0 / chroma_qp_offset=-2 / threads=18 / lookahead_threads=1 / sliced_threads=0 / nr=0 / decimate=1 / interlaced=0 / bluray_compat=0 / constrained_intra=0 / bframes=5 / b_pyramid=2 / b_adapt=2 / b_bias=0 / direct=3 / weightb=1 / open_gop=0 / weightp=2 / keyint=250 / keyint_min=23 / scenecut=40 / intra_refresh=0 / rc=2pass / mbtree=0 / bitrate=10651 / ratetol=1.0 / qcomp=0.70 / qpmin=0 / qpmax=69 / qpstep=4 / cplxblur=20.0 / qblur=0.5 / ip_ratio=1.40 / pb_ratio=1.30 / aq=2:1.00                                       : English  Default                                  :  Forced                                   :

      #1

                                 : 2                                     : DTS  /                        : Digital Theater Systems                                      : 16   Endianness               : Big                        : A_DTS                          : 3 . 2 .                                :                                    : 1509 /                                     : 6                        : Front: L C R, Side: L R, LFE                                    : 48,0                             : 24                                :                               : 1,92 (12%)                                       : English  Default                                  :  Forced                                   :

      #2

                                 : 3                                     : AC-3  /                        : Audio Coding 3                           : CM (complete main)   Endianness               : Big                        : A_AC3                          : 3 . 2 .                                :                                    : 384 /                                     : 6                        : Front: L C R, Side: L R, LFE                                    : 48,0                             : 16                                :                              : 1 . 0 .                               : 501 (3%)                                  : iTunes Russia                                       : Russian  Default                                  :  Forced                                   :

      #1

                                 : 4                                     : UTF-8                        : S_TEXT/UTF8   /          : UTF-8 Plain Text                                       : English  Default                                  :  Forced                                   :

      #2

                                 : 5                                     : UTF-8                        : S_TEXT/UTF8   /          : UTF-8 Plain Text                                  : Forced                                       : English  Default                                  :  Forced                                   :

      #3

                                 : 6                                     : UTF-8                        : S_TEXT/UTF8   /          : UTF-8 Plain Text                                  : iTunes                                       : Russian  Default                                  :  Forced                                   :

      #4

                                 : 7                                     : UTF-8                        : S_TEXT/UTF8   /          : UTF-8 Plain Text                                  : iTunes -                                       : Russian  Default                                  :  Forced                                   :

    unionpeer.com

    Скачать торрент Хоббит: Битва пяти воинств / The Hobbit: The Battle of the Five Armies (2014) BDRip 1080p от Ash61 | 3D-Video | hOU | Расширенная

    Хоббит: Битва пяти воинствThe Hobbit: The Battle of the Five Armies(Расширенная версия / Extended Cut)Год выпуска: 2014Страна: Новая Зеландия, США (Warner Bros. Pictures, New Line Cinema, Metro-Goldwyn-Mayer)Жанр: Фэнтези, ПриключенияПродолжительность: 2:44:02

    Перевод: Профессиональный дублированный - Лицензия

    Режиссер: Питер Джексон / Peter Jackson

    Роли исполняли (дублировали):

    Bilbo - Мартин Фриман (Илья Хвостиков), Gandalf - Иэн МакКеллен (Василий Бочкарев), Thorin - Ричард Армитедж (Игорь Балалаев), Bard - Люк Эванс (Дмитрий Поляновский), Tauriel - Эванджелин Лилли (Марьяна Спивак), Thranduil - Ли Пейс (Антон Савенков), Legolas - Орландо Блум (Олег Вирозуб), Smaug / Necromancer - Бенедикт Камбербэтч (Олег Куценко), Balin - Кен Стотт (Борис Быстров), Kili - Эйдан Тернер (Александр Дзюба), Galadriel - Кейт Бланшетт (Ольга Зубкова), Elrond - Хьюго Уивинг (Валерий Сторожик), Dwalin - Грэм МакТавиш (Борис Токарев), Bifur - Уильям Кирчер (Владислав Копп), Bombur - Стивен Хантер (Михаил Белякович), Fili - Дин О’Горман (Иван Жарков), Bofur - Джеймс Несбитт, Oin - Джон Коллен (Игорь Старосельцев), Gloin - Питер Хэмблтон (Александр Груздев), Nori - Джед Брофи (Григорий Шевчук), Saruman - Кристофер Ли (Владимир Левашёв), Old Bilbo - Иэн Холм (Александр Воеводин), Dori - Марк Хэдлоу (Михаил Бескаравайный), Ori - Адам Браун (Диомид Виноградов), Beorn - Микаэл Персбрандт (Андрей Ташков), Radagast - Сильвестр МакКой (Сергей Чихачев), Master of Laketown - Стивен Фрай (Алексей Колган), Alfrid - Райан Гейдж (Даниил Эльдаров), Azog - Ману Беннетт

    Описание: Когда отряд из тринадцати гномов нанимал хоббита Бильбо Бэгинса в качестве взломщика и четырнадцатого, «счастливого», участника похода к Одинокой горе, Бильбо полагал, что его приключения закончатся, когда он выполнит свою задачу — найдет сокровище, которое так необходимо предводителю гномов Торину. Путешествие в Эребор, захваченное драконом Смаугом королевство гномов, оказалось еще более опасным, чем предполагали гномы и даже Гэндальф — мудрый волшебник, протянувший Торину и его отряду руку помощи. В погоню за гномами устремилась армия орков, ведомых пробудившимся в руинах древним злом, а эльфы и люди, с которыми Бильбо и его товарищам пришлось иметь дело во время путешествия и которые пострадали от последствий желания гномов вернуть свой дом, предъявили права на щедрое вознаграждение — часть сокровищ Одинокой горы. Скоро неподалеку от Одинокой горы встретятся пять армий, и лишь кровопролитная битва определит результаты смелого гномьего похода.Доп. инфо: Из видео вырезана тёмная пауза на стыке дисков (т.е. синхронизировано с 2Д версией фильма). Главы именованные. Данная версия длиннее театральной почти на 20 минут.

    Знаете ли вы, что...

  • Фильм снят по мотивам повести Джона Рональда Роуэла Толкина «Хоббит, или Туда и обратно» (The Hobbit, or There and Back Again, 1937).
  • 13 октября 2015 года в кинотеатрах США состоялась премьера расширенной версии фильма, которая получила возрастной рейтинг «18+». До этого момента новые версии картин из трилогии «Хоббит», как и расширенные версии трех фильмов «Властелин колец», никогда не демонстрировались в кино.
  • После завершения съемок несколько актеров оставили себе некоторые предметы реквизита на память. Мартин Фриман оставил себе меч Бильбо и протезные уши, Ричард Армитедж сохранил меч Оркрист, а Ли Пейс — эльфийский меч своего персонажа. Сэр Иэн МакКеллен же смог забрать с площадки знаменитую остроконечную шляпу Гендальфа.
  • Несмотря на то, что Кейт Бланшетт появляется во всех фильмах трилогии, она провела на съемочной площадке всего восемь дней.
  • Когда серия фильмов о хоббите была на ранней стадии развития, планировалось, что будет всего два фильма, а у второго появится подзаголовок «Туда и обратно» (There and Back Again). Но в июле 2012 года было принято решение разбить историю на три части, а этот подзаголовок отдать последнему фильму. В апреле 2014 года Питер Джексон объявил, что название третьего фильма все же изменится, и это будет «Битва пяти воинств» (The Battle of the Five Armies). Основной причиной для изменения названия стало то, что в последнем фильме в центре внимания находится именно эта битва. Джексон написал на своей странице в Facebook, что название «Туда и обратно» подходило для второй части фильма, если бы она была последней, но, когда решили сделать три фильма, это название стало неуместным, поскольку Бильбо уже прибыл «туда» во второй части.
  • Когда было объявлено, что у фильма будет свой стенд на фестивале Comic-Con в Сан-Диего, несколько фанатов разместились у входа на фестиваль за день до события, чтобы получить лучшие места. Посреди ночи фанатов разбудили актеры Ли Пейс и Энди Серкис. Они раздавали автографы, общались с фанатами и фотографировались с ними на протяжении нескольких часов. В итоге Пейс от усталости уснул на матрасе рядом с фанатами.
  • Оленя, на котором ездит Трандуил (Ли Пейс), играла лошадь по имени Муз («Moose» буквально переводится как «лось»).
  • Песню из первого трейлера («Edge of the Night») пел Перегрин Тук (Билли Бойд) в фильме «Властелин колец: Возвращение короля» (2003). Более того, Билли Бойд исполнил финальную песню к фильму («The Last Goodbye»).
  • Все сцены с Иэном Холмом и Кристофером Ли были отсняты в лондонской студии Pinewood, потому что из-за проблем со здоровьем актеры не смогли полететь в Новую Зеландию.
  • В самом первом трейлере к фильму был момент, где некоторые гномы ехали в колеснице, в которую были запряжены козлы, навстречу волкам. Но в финальной версии фильма такого момента — нет.
  • В основном сражении фильма участвуют 5 тысяч гномов и эльфов и 36 тысяч орков, а также стаи гигантских летучих мышей и несколько троллей. Все они в основном были нарисованы при помощи компьютерной графики.
  • Питер Джексон построил точную копию норы Бильбо Бэггинса, в подвале своего новозеландского дома. Под жилье Бильбо был переделан подвал поместья в городе Мастертон, купленного Джексоном в начале 2000-х. По словам дизайнера Бино Смита, работавшего декоратором на съемках экранизаций книг Толкина, чтобы попасть в нору, нужно спуститься в винный погреб, потянуть за одну из бутылок, пересечь тоннель длиной около 30 м и войти в потайную дверь. Этот дом Бильбо посещали режиссеры Стивен Спилберг и Джордж Лукас, а также актер Дэнни ДеВито, которого Смит назвал одним из ближайших друзей Джексона.
  • Ошибки в фильме (Осторожно, содержатся спойлеры!)

  • Когда Торин Дубощит падает, он показан на краю ледяной скалы, но когда к нему подбегает Бильбо, он лежит возле лестницы.
  • В сцене, когда Трандуил приказывает трубить об отходе, Гендальф обращается к нему, что бы тот послал отряд на помощь Торину. После ответа Трандуила, Гендальф зовёт его по имени. В этот момент можно увидеть, что Гендальф держит свой старый посох, разрушенный во 2 части фильма.
  • Азог ранил Торина через лед в ногу, но позже, когда Бильбо стоит над Торином, в кадр попадают его целые подошвы.
  • В момент в конце фильма, когда Бильбо прощается с умирающим Торином, есть план сверху над двумя персонажами, на котором видно много теней сражающихся орлов и летучих мышей, а когда персонажей показывают крупным планом, никаких теней вокруг них нет.
  • Когда Леголас побеждает орка, который падает на мост и вместе с мостом подает в ущелье, то можно заметить, что там нет трупов, хотя там должны быть как минимум трупы орка гиганта и двух простых орков.
  • Премьера: 1 декабря 2014 (11 декабря 2014)Релиз театральной на Blu-Ray (DVD) (Россия): 26 марта 2015Бюджет: $250 000 000Кассовые сборы: $956 019 788

    Качество: BDRip (by Ash61)Контейнер: MKVФормат 3D: Half OverUnder / Вертикальная анаморфная стереопараПорядок ракурсов: левый ракурс первыйВидео: AVC / 23,976 fps / 1920х1080p / 14.1 Mbps

    Аудио:#1 - Русский / AC3 / 48 KHz / 5.1 ch / 448 Kbps (Дубляж - BD CEE)#2 - Английский / AC3 / 48 KHz / 5.1 ch / 640 Kbps (Original)

    Субтитры: (SRT)Вшитые (softsub):#1 - Русские Форсированные (в т.ч. на речь эльфов и орков) [Color] (включены по умолчанию)#2 - Русские Полные#3 - Украинские Полные#4 - English Full#5 - English SDH

    Внешние (UTF-8):#1 - Русские Форсированные (в т.ч. на речь эльфов и орков) [Color] (включены по умолчанию)

    MediaInfo

    General Unique ID : 246788137504637741689265378473676456418 (0xB9A9AA98CBA311E394B9514A5CC941E2) Complete name : E:TheHobbit3[Extended](2014)3D-halfOU(Ash61)TheHobbit3[Extended](2014)3D-halfOU(Ash61).mkv Format : Matroska Format version : Version 2 File size : 17.8 GiB Duration : 2h 44mn Overall bit rate : 15.5 Mbps Movie name : Хоббит: Битва пяти воинств (Расширенная версия) / The Hobbit: The Battle of the Five Armies (Extended Cut) (2014) в 3Д Encoded date : UTC 2015-11-22 20:44:00 Writing application : mkvmerge v5.8.0 ('No Sleep / Pillow') built on Sep 2 2012 15:37:04 Writing library : libebml v1.2.3 + libmatroska v1.3.0

    Video ID : 1 Format : AVC Format/Info : Advanced Video Codec Format profile : [email protected] Format settings, CABAC : Yes Format settings, ReFrames : 4 frames Codec ID : V_MPEG4/ISO/AVC Duration : 2h 44mn Bit rate : 14.1 Mbps Width : 1 920 pixels Height : 1 080 pixels Display aspect ratio : 16:9 Frame rate mode : Constant Frame rate : 23.976 fps Color space : YUV Chroma subsampling : 4:2:0 Bit depth : 8 bits Scan type : Progressive Bits/(Pixel*Frame) : 0.284 Stream size : 16.2 GiB (91%) Title : BDRip by Ash61 (without coffee break) Writing library : x264 core 146 r2538 121396c Encoding settings : cabac=1 / ref=4 / deblock=1:-3:-3 / analyse=0x3:0x113 / me=umh / subme=10 / psy=1 / psy_rd=1.00:0.00 / mixed_ref=1 / me_range=32 / chroma_me=1 / trellis=2 / 8x8dct=1 / cqm=0 / deadzone=21,11 / fast_pskip=1 / chroma_qp_offset=-2 / threads=12 / lookahead_threads=3 / sliced_threads=0 / nr=0 / decimate=1 / interlaced=0 / bluray_compat=0 / constrained_intra=0 / bframes=10 / b_pyramid=2 / b_adapt=2 / b_bias=0 / direct=3 / weightb=1 / open_gop=0 / weightp=2 / keyint=250 / keyint_min=23 / scenecut=40 / intra_refresh=0 / rc_lookahead=60 / rc=crf / mbtree=1 / crf=15.0 / qcomp=0.70 / qpmin=0 / qpmax=69 / qpstep=4 / vbv_maxrate=40000 / vbv_bufsize=30000 / crf_max=0.0 / nal_hrd=none / filler=0 / frame-packing=4 / ip_ratio=1.40 / aq=1:0.70 Language : English Default : Yes Forced : No

    Audio #1 ID : 2 Format : AC-3 Format/Info : Audio Coding 3 Mode extension : CM (complete main) Format settings, Endianness : Big Codec ID : A_AC3 Duration : 2h 44mn Bit rate mode : Constant Bit rate : 448 Kbps Channel(s) : 6 channels Channel positions : Front: L C R, Side: L R, LFE Sampling rate : 48.0 KHz Bit depth : 16 bits Compression mode : Lossy Stream size : 526 MiB (3%) Title : Дубляж - BD CEE Language : Russian Default : Yes Forced : No

    Audio #2 ID : 3 Format : AC-3 Format/Info : Audio Coding 3 Mode extension : CM (complete main) Format settings, Endianness : Big Codec ID : A_AC3 Duration : 2h 44mn Bit rate mode : Constant Bit rate : 640 Kbps Channel(s) : 6 channels Channel positions : Front: L C R, Side: L R, LFE Sampling rate : 48.0 KHz Bit depth : 16 bits Compression mode : Lossy Stream size : 751 MiB (4%) Title : Original Language : English Default : No Forced : No

    Text #1 ID : 4 Format : UTF-8 Codec ID : S_TEXT/UTF8 Codec ID/Info : UTF-8 Plain Text Title : Форсированные (в т.ч. на речь эльфов и орков) - iTunes (edited) Language : Russian Default : Yes Forced : No

    Text #2 ID : 5 Format : UTF-8 Codec ID : S_TEXT/UTF8 Codec ID/Info : UTF-8 Plain Text Title : Полные - iTunes Language : Russian Default : No Forced : No

    Text #3 ID : 6 Format : UTF-8 Codec ID : S_TEXT/UTF8 Codec ID/Info : UTF-8 Plain Text Title : Полные - iTunes Language : Ukrainian Default : No Forced : No

    Text #4 ID : 7 Format : UTF-8 Codec ID : S_TEXT/UTF8 Codec ID/Info : UTF-8 Plain Text Title : Full Language : English Default : No Forced : No

    Text #5 ID : 8 Format : UTF-8 Codec ID : S_TEXT/UTF8 Codec ID/Info : UTF-8 Plain Text Title : SDH Language : English Default : No Forced : No

    Menu 00:00:00.000 : : 1. Fire and Water 00:05:12.395 : : 2. Bard the Dragon-Slayer 00:12:47.058 : : 3. Dungeons of the Dark Lord 00:13:19.298 : : 4. Shores of the Long Lake 00:18:57.428 : : 5. Not at Home 00:23:42.171 : : 6. "Others will Now Look to the Mountain" 00:24:56.161 : : 7. Legions of the Defiler 00:26:04.563 : : 8. The Mark of Gundabad 00:27:33.026 : : 9. Attack on Dol Guldur 00:35:45.685 : : 10. "Summon Our Friends" 00:36:41.282 : : 11. The King's Jewel 00:40:41.898 : : 12. The Ruins of Dale 00:42:01.144 : : 13. Erebor Fortified 00:43:11.756 : : 14. The Elvenking's Aid 00:46:16.148 : : 15. The Gathering of the Clouds 00:51:27.668 : : 16. A Token of Friendship 00:54:57.961 : : 17. The Shadow of Gundabad 00:56:14.830 : : 18. "The Last Move in a Master Plan" 00:58:31.299 : : 19. Bolg of the North 01:00:26.957 : : 20. The Night Watch 01:02:43.593 : : 21. A Thief in the Night 01:06:10.175 : : 22. An Honest Burglar 01:12:23.297 : : 23. Dain Ironfoot 01:17:22.555 : : 24. The Clouds Burst 01:20:36.331 : : 25. The Battle at Dale 01:24:57.217 : : 26. The Darkest Hour 01:28:41.775 : : 27. Dragon-Sickness 01:30:52.280 : : 28. The Return of Thorin Oakenshild 01:33:02.159 : : 29. Sons of Durin 01:35:12.832 : : 30. "To the King!" 01:38:32.489 : : 31. A Call to Arms 01:39:42.893 : : 32. Thorin's Plan 01:41:00.596 : : 33. The War Chariot 01:45:03.505 : : 34. Courage and Cowardice 01:47:13.635 : : 35. The Fifth Army 01:49:05.288 : : 36. Scouting Ravenhill 01:50:03.013 : : 37. Blood of the Eldar 01:52:59.606 : : 38. An Unforeseen Remedy 01:53:51.282 : : 39. The Fallen 01:57:15.236 : : 40. The Battle at Ravenhill 02:05:38.572 : : 41. To the Death 02:12:07.044 : : 42. Parting in Friendship 02:15:26.243 : : 43. The Sorrow of Elves 02:18:32.512 : : 44. Eyes That Fire and Sword Have Seen 02:20:07.440 : : 45. King under the Mountain 02:22:27.205 : : 46. The Return Journey 02:26:11.596 : : 47. The Last Stage 02:30:54.462 : : 48. Credits

    О методах просмотра 3D

    mrutor.org


    Смотрите также