Хранители скачать торрент максимальная версия


rutor.org :: Хранители / Watchmen (2009) BDRip 1080p от NoLimits-Team & FireBit-Films

main-rutor.org

Информация о фильме

Название: Хранители (Максимальная версия)Оригинальное название: Watchmen (Ultimate cut)Год выхода: 2009Жанр: Фантастика, Боевик, Триллер, ДетективРежиссер: Зак СнайдерВ ролях: Малин Акерман, Билли Крудап, Мэттью Гуд, Джеки Эрл Хейли, Джеффри Дин Морган, Патрик Уилсон, Карла Гуджино, Мэтт Фрюэр, Стивен МакХэтти, Лаура Меннелл

О фильме

Действие картины разворачивается в параллельной реальности, в Америке 1985 года. В этом мире супергерои стали частью повседневной жизни общества, а Часы Судного Дня, застыв в пяти минутах от полуночи, отсчитывают время до столкновения ведущих мировых держав. После убийства одного из своих прежних коллег Роршах - супергерой, никогда не снимающий маски, - полон решимости свершить суд Линча. Он начинает расследование заговора, призванного уничтожить или дискредитировать всех супергероев прошлого и настоящего. Он собирает своих соратников - отставной легион борцов с преступностью, но лишь один из них обладает подлинной силой. Постепенно Роршах осознает пугающий масштаб заговора, связанного с общим прошлым героев и сулящего катастрофические последствия в будущем. Они хранят наш покой, но кто охранит нас от Хранителей?

Дополнительно

Страна: СШАСтудия: Warner Bros. PicturesПродолжительность: 03:35:27Перевод: Дубляж + вставки Киномания

Файл

Качество: BDRip 1080p (исходник Blu-ray Disc)Видео: 1920х800, 5432 Kbps, 23.976 кадр/сек, AVC, x264, 2.40, 0.147 Бит/(Пиксели*Кадры)Аудио1: AC-3, 448 Кбит/сек, 6 канала(ов), 48,0 КГц |Дубляж + вставки Киномания|Аудио2: AC-3, 448 Кбит/сек, 6 канала(ов), 48,0 КГц |Киномания|Аудио3: AC-3, 448 Кбит/сек, 6 канала(ов), 48,0 КГц |Сербин|Аудио4: AC-3, 448 Кбит/сек, 6 канала(ов), 48,0 КГц |Строев v.2 (без цензуры)|Аудио5: AC-3, 448 Кбит/сек, 6 канала(ов), 48,0 КГц |English|Субтитры: форсированные, на места без перевода, киномания, Д.Строев, без цензуры, на основе дубляжа, English, English (SHD)Чаптеры: ЕстьРазмер: 11.5 Гб

Важно

Во всех русских дорожках перевод "Истории черной шхуны" двухголосый от Новафильм.

Несколько минут, отсутствующих в режиссерской версии и в "Истории черной шхуны", переведены субтитрами.

Дубляж взят с BD CEE театральной версии. Содержит вставки закадрового перевода киномании с режиссерской версии, наложенного на оригинальную HD дорожку.

Сохранены плавные переходы между эпизодами максимальной и режиссерской версий.

Дорожки киномании, Сербина, а также перевод "Истории черной шхуны" получены наложением чистого голоса, выделенного с DVD.

Благодарю m0j0 за форсированные сабы и 0xotHik'а за DTS-исходник режиссерской версии с переводом Строева.

MediaInfo

Format : Matroska Format version : Version 4 / Version 2 File size : 11.5 GiB Duration : 3h 35mn Overall bit rate : 7 672 Kbps Movie name : Хранители.[Максимальная версия / Ultimate cut].(2009).BDRip1080p.от.[NoLimits-Team].[mitrian] Encoded date : UTC 2013-08-24 09:41:11 Writing application : mkvmerge v6.3.0 ('You can't stop me!') built on Jun 28 2013 20:09:41 Writing library : libebml v1.3.0 + libmatroska v1.4.0

Video ID : 1 Format : AVC Format/Info : Advanced Video Codec Format profile : [email protected] Format settings, CABAC : Yes Format settings, ReFrames : 5 frames Codec ID : V_MPEG4/ISO/AVC Duration : 3h 35mn Bit rate : 5 432 Kbps Width : 1 920 pixels Height : 800 pixels Display aspect ratio : 2.40:1 Frame rate mode : Constant Frame rate : 23.976 fps Color space : YUV Chroma subsampling : 4:2:0 Bit depth : 8 bits Scan type : Progressive Bits/(Pixel*Frame) : 0.147 Stream size : 7.94 GiB (69%) Title : Хранители [Максимальная версия / Ultimate cut] (2009) BDRip 1080p от NoLimits-Team Writing library : x264 core 133 r2334 a3ac64b Encoding settings : cabac=1 / ref=5 / deblock=1:0:0 / analyse=0x3:0x113 / me=umh / subme=10 / psy=1 / psy_rd=1.00:0.10 / mixed_ref=1 / me_range=32 / chroma_me=1 / trellis=2 / 8x8dct=1 / cqm=0 / deadzone=21,11 / fast_pskip=0 / chroma_qp_offset=-3 / threads=6 / lookahead_threads=1 / sliced_threads=0 / slices=4 / nr=0 / decimate=1 / interlaced=0 / bluray_compat=0 / constrained_intra=0 / bframes=5 / b_pyramid=2 / b_adapt=2 / b_bias=0 / direct=3 / weightb=1 / open_gop=0 / weightp=2 / keyint=240 / keyint_min=24 / scenecut=40 / intra_refresh=0 / rc_lookahead=60 / rc=2pass / mbtree=1 / bitrate=5432 / ratetol=2.0 / qcomp=0.60 / qpmin=0 / qpmax=51 / qpstep=4 / cplxblur=20.0 / qblur=0.5 / ip_ratio=1.40 / aq=1:1.00 Language : English Default : Yes Forced : No

Audio #1 ID : 2 Format : AC-3 Format/Info : Audio Coding 3 Mode extension : CM (complete main) Format settings, Endianness : Big Codec ID : A_AC3 Duration : 3h 35mn Bit rate mode : Constant Bit rate : 448 Kbps Channel(s) : 6 channels Channel positions : Front: L C R, Side: L R, LFE Sampling rate : 48.0 KHz Bit depth : 16 bits Compression mode : Lossy Stream size : 690 MiB (6%) Title : Дубляж + вставки Киномания Language : Russian Default : Yes Forced : No

Audio #2 ID : 3 Format : AC-3 Format/Info : Audio Coding 3 Mode extension : CM (complete main) Format settings, Endianness : Big Codec ID : A_AC3 Duration : 3h 35mn Bit rate mode : Constant Bit rate : 448 Kbps Channel(s) : 6 channels Channel positions : Front: L C R, Side: L R, LFE Sampling rate : 48.0 KHz Bit depth : 16 bits Compression mode : Lossy Stream size : 690 MiB (6%) Title : Киномания Language : Russian Default : No Forced : No

Audio #3 ID : 4 Format : AC-3 Format/Info : Audio Coding 3 Mode extension : CM (complete main) Format settings, Endianness : Big Codec ID : A_AC3 Duration : 3h 35mn Bit rate mode : Constant Bit rate : 448 Kbps Channel(s) : 6 channels Channel positions : Front: L C R, Side: L R, LFE Sampling rate : 48.0 KHz Bit depth : 16 bits Compression mode : Lossy Stream size : 690 MiB (6%) Title : Сербин Language : Russian Default : No Forced : No

Audio #4 ID : 5 Format : AC-3 Format/Info : Audio Coding 3 Mode extension : CM (complete main) Format settings, Endianness : Big Codec ID : A_AC3 Duration : 3h 35mn Bit rate mode : Constant Bit rate : 448 Kbps Channel(s) : 6 channels Channel positions : Front: L C R, Side: L R, LFE Sampling rate : 48.0 KHz Bit depth : 16 bits Compression mode : Lossy Stream size : 690 MiB (6%) Title : Строев v.2 (без цензуры) Language : Russian Default : No Forced : No

Audio #5 ID : 6 Format : AC-3 Format/Info : Audio Coding 3 Mode extension : CM (complete main) Format settings, Endianness : Big Codec ID : A_AC3 Duration : 3h 35mn Bit rate mode : Constant Bit rate : 448 Kbps Channel(s) : 6 channels Channel positions : Front: L C R, Side: L R, LFE Sampling rate : 48.0 KHz Bit depth : 16 bits Compression mode : Lossy Stream size : 690 MiB (6%) Title : Оригинал Language : English Default : No Forced : No

Text #1 ID : 7 Format : UTF-8 Codec ID : S_TEXT/UTF8 Codec ID/Info : UTF-8 Plain Text Title : форсированные, на места без перевода Language : Russian Default : Yes Forced : Yes

Text #2 ID : 8 Format : UTF-8 Codec ID : S_TEXT/UTF8 Codec ID/Info : UTF-8 Plain Text Title : киномания Language : Russian Default : No Forced : No

Text #3 ID : 9 Format : UTF-8 Codec ID : S_TEXT/UTF8 Codec ID/Info : UTF-8 Plain Text Title : Д.Строев, без цензуры Language : Russian Default : No Forced : No

Text #4 ID : 10 Format : UTF-8 Codec ID : S_TEXT/UTF8 Codec ID/Info : UTF-8 Plain Text Title : на основе дубляжа Language : Russian Default : No Forced : No

Text #5 ID : 11 Format : UTF-8 Codec ID : S_TEXT/UTF8 Codec ID/Info : UTF-8 Plain Text Title : English Language : English Default : No Forced : No

Text #6 ID : 12 Format : UTF-8 Codec ID : S_TEXT/UTF8 Codec ID/Info : UTF-8 Plain Text Title : English (SDH) Language : English Default : No Forced : No

Menu 00:00:00.000 : en:00:00:00.000 00:10:00.000 : en:00:10:00.000 00:20:00.000 : en:00:20:00.000 00:30:00.000 : en:00:30:00.000 00:40:00.000 : en:00:40:00.000 00:50:00.000 : en:00:50:00.000 01:00:00.000 : en:01:00:00.000 01:10:00.000 : en:01:10:00.000 01:20:00.000 : en:01:20:00.000 01:30:00.000 : en:01:30:00.000 01:40:00.000 : en:01:40:00.000 01:50:00.000 : en:01:50:00.000 02:00:00.000 : en:02:00:00.000 02:10:00.000 : en:02:10:00.000 02:20:00.000 : en:02:20:00.000 02:30:00.000 : en:02:30:00.000 02:40:00.000 : en:02:40:00.000 02:50:00.000 : en:02:50:00.000 03:00:00.000 : en:03:00:00.000 03:10:00.000 : en:03:10:00.000 03:20:00.000 : en:03:20:00.000

Релиз Группа | Автор Рипа: |

Хранители (2009) смотреть онлайн или скачать фильм через торрент. Трейлеры, правдивые оценки, рецензии, комментарии, похожие фильмы, саундтрек, новости и интересные факты на Fast-torrent

1. На роль Роршаха претендовали Робин Уильямс, Даг Хатчинсон и Пэдди Консидайн.

2. «Хранители» – экранизация культового комикса Алана Мура «Watchmen».

3. По задумке режиссера, в фильме должны были звучать исключительно песни известных музыкантов — Боба Дилана, Джими Хендрикса и Саймона и Гарфункеля. Но потом Снайдер посчитал, что кино «по картинкам» не может обойтись без свежего звука.

4. Сам автор первоисточника, Алан Мур, считает, что комикс и кинематограф — вещи несовместимые. А самой ненавистной экранизацией комиксов Мур считает «300 спартанцев», сценаристом и режиссером которой является как раз-таки Зак Снайдер.

5. В завязке картины, во время драки Комедианта с человеком в маске, стакан попадает в дверь номера «3001» и сбивает «1», что является своеобразной отсылкой на предыдущую работу Зака Снайдера «300 спартанцев»

6. Состоящая из двенадцати глав графическая новелла Алана Мура была впервые опубликована в 1986-1987 годах и с того времени неоднократно переиздавалась.

7. Актёр Натан Филлион рассматривался в качестве одной из кандидатур на роли Комедианта и Ночной Совы.

8. Карла Гуджино играет Салли Юпитер, мать Лори Юспечик, роль которой исполнила Малин Акерман, хотя в реальности разница в возрасте между двумя актрисами составляет только семь лет.

9. Среди многих других фильмов на телевизионных экранах Озимандиаса можно заметить классическую киноленту «300 спартанцев» (1962), рассказывающую о тех же событиях, что и предыдущая работа Зака Снайдера «300 спартанцев» (2006), сделавшая режиссёра знаменитым.

10. Первым побуждением актёра Джеффри Дина Моргана после прочтения начальных трёх страниц сценария было отказаться от предложенной ему роли Комедианта. Он полагал, что в них заключена единственная сцена с участием этого персонажа и не хотел связываться с героем, которому отведено так мало экранного времени. Агент актёра убедил его дочитать сценарий до конца и только после этого принимать окончательное решение.

11. Томас Джейн был одной из главных кандидатур режиссёра Зака Снайдера на роль Комедианта, но занятость в другом проекте не позволила ему сняться в «Хранителях».

12. Зак Снайдер сознательно пригласил на многие роли актёров значительно моложе свои персонажей из-за большого количества различных флэшбэков по ходу фильма. Режиссёр посчитал, что с помощью грима и компьютерной графики будет значительно проще сделать актёром выглядящими старше, чем моложе. Особенно это заметно с Карлой Гуджино, которой на момент съёмок было лишь 37 лет, хотя во время большей части событий фильма ей уже далеко за шестьдесят.

13. Происхождение имени Роршаха ведёт к известному тесту Роршаха, широко используемому в психотерапии. Имя Озимандиаса является отсылкой к известному сонету с таким названием британского поэта-романтика начала 19-го века Перси Биши Шелли.В некоторые кинотеатры копии c фильмом доставлялись под фальшивым названием «Старые герои никогда не умирают» (“Old Heroes Never Die”).

14. Первый трейлер фильма, прикреплённый к прокатным копиям «Тёмного рыцаря», поднял интерес к графической новелле Алана Мура до такой степени, что на некоторое время «Хранители» вернулись в число ведущих общенациональных бестселлеров.

15. Пистолеты Комедианта в фильме были настоящим огнестрельным оружием, а не как это обычно бывает специально подготовленным для съёмок реквизитом. Это D&L Sports “Professional Model” 45-го калибра.

16. На одном из телевизионных мониторов у Адриана Вейдта идёт фильм «Рэмбо 2», в котором главный герой после окончания войны возвращается во Вьетнам за брошенными на произвол судьбы американскими военнопленными. Это выглядит очень странно, поскольку в реальности «Хранителей» война во Вьетнаме завершилась с совсем другим исходом.

17. Материал, из которого Роршах сделал себе маску, придумал доктор Манхэттэн. Первоначально были задуманы платья, на которых черные пятна меняют свою форму на белом фоне. Эти платья не пользовались спросом, зато Роршах из одного вырезал себе маску.

18. Первый официальный кадр фильма – тестовый кадр Роршаха – появился в трейлере «300 спартанцев» (2006). На кадре мы видим Уэсли Коллера, одного из продюсеров, переодетого в костюм Роршаха на фоне Нью-Йорка. Кадр был создан Снайдером, для того чтобы продемонстрировать атмосферу будущего фильма. Дебора Снайдер, жена Зака, поспорила с ним на $100, что никто не заметит кадра. Зак выиграл пари.

19. Зак Снайдер делал раскадровки на основе комикса.

20. Несмотря на то, что Алан Мур отрекся от экранизации комикса, Зак Снайдер надеется, что когда-нибудь Мур посмотрит фильм и останется доволен экранизацией.

21. Хоровая и органная музыка из тизера – часть композиции «Prophecies», написанной Филипом Глассом для «Кояанискатси» (1982). В трейлере также содержится часть композиции «Pruit Igoe» Гласса. Переработанную версию обеих композиций можно услышать в фильме во время рассказа о Докторе Манхэттене.

22. Когда Мэттью Гуду предложили роль Эдриана Вайдта, он еще не прочитал комикс. Мэттью позвонил другу и спросил, следует ли ему вообще читать сценарий. Его друг не только посоветовал прочитать сценарий, но и графическую новеллу и согласиться на роль без раздумий.

23. Когда началось производство фильма (в 1987 году), актеры, в итоге сыгравшие главные роли за исключением Джеки Эрл Хейли, даже еще не начали актерскую карьеру.

24. В сцене, где на Лори Юспечик / Шелковый Призрак II и Дэна Драйберга / Филин II нападает молодежная банда, на одном из парней надета футболка с символом «V», повторяющим эмблему главного героя из «V значит Вендетта» (2005).

25. Вечеринка по поводу ухода на пенсию Салли Юпитер – воссоздание известной «Тайной вечери» Леонардо Да Винчи.

26. Фильм вышел в 3,611 кинотеатрах, тем самым установив рекорд для картин с рейтингом «R».

27. На компьютере в офисе Эдриана Вайдта установлена ранняя версия «Mac OS».

28. Кадр, где Комедиант пожимает руку Никсону, основан на фотографии Ричарда Никсона, пожимающего руку Элвису Пресли.

29. На ранних этапах разработки проекта Терри Гиллиама заявил, что экранизация комикса обойдется в $1 миллион за каждую страницу.

30. В комиксе фраза «Who Watches the Watchmen?» ни разу не написана полностью. Фраза всегда частично закрыта либо объектом, либо человеком. Однако в фильме зритель видит фразу целиком минимум дважды.

Персонажи:

Лори Юпитер / Юспешик / Шёлковый Призрак II (Малин Акерман) — американка польского происхождения, унаследовала костюм супергероя от своей матери, Салли Юпитер/Юспешик, которая как член «Дозорных» занималась борьбой с преступностью ради продвижения своей карьеры в шоу-бизнесе. Мать хотела, чтобы Лори пошла по её стопам, и с раннего детства заставляла всячески тренироваться. Несмотря на то, что Лори выросла обеспеченной, её мать быстро развелась со своим мужем и никогда больше не выходила замуж, а о том, что её настоящий отец был тем, кого она всю жизнь считала насильником, домогавшимся её матери, Лори узнаёт только ближе к концу фильма. Так или иначе, в течение фильма Лори обнаруживает, что ей вообще-то и самой нравится супергероическая жизнь. Дата рождения: 2.12.1949 (можно увидеть, когда она надевает очки Ночной Совы).Уолтер Ковач / Роршах (Джеки Эрл Хейли) — живет на съемной квартире, сын проститутки, практически не знавший своего отца и большую часть юности проведший в детском доме. Несмотря на отсутствие высшего образования, умён, начитан, разбирается в истории. Он примкнул к «костюмированным героям» именно для того, чтобы бороться со Злом. Однако скоро его понимание Зла и, как следствие, борьбы со Злом становится чрезвычайно категоричным. Роршах вступает в эту борьбу под девизом «никаких компромиссов, даже перед лицом Армагеддона». Собственно, кроме этого принципа, терять ему практически нечего — всё, что у него есть — это подшивка ультраправых журналов «New Frontiersman», маска, на которой всё время передвигаются чёрные пятна, напоминающие тест Роршаха (откуда и псевдоним), пальто, шляпа, фиолетовые брюки и плакат с надписью «Конец близок».

Дэниэл Драйберг / Ночная Сова II (Патрик Уилсон) — орнитолог, получивший приличное состояние в наследство от отца. Он не уверен в себе и закомплексован с детства. Когда Холлис Мэйсон, бывший полицейский, решил выйти на пенсию и сообщить миру, что он и есть Ночная Сова, Дэниэл Драйберг попросил у своего любимого «дозорного» разрешения использовать его образ для того, чтобы продолжить начатое им дело. Холлис разрешает, и Драйберг становится новым Ночной Совой. Соорудив на имеющиеся у него деньги секретную базу и обеспечив себя супергеройским оборудованием, Дэниэл вполне справляется со своей задачей и заодно повышает свою самооценку. После введения запрета на «костюмированных героев» возвращается к обычной жизни и часто проводит время в дружеских посиделках со своим предшественником.Джон Остерман / Доктор Манхэттен (Билли Крудап) — учёный-физик, вследствие фатальной ошибки разложенный на атомы, но сумевший собрать своё тело заново. После перерождения его способности оказываются почти безграничными: он полностью контролирует материю и знает своё будущее. Используя их, он обеспечивает США надёжную защиту от СССР, победу во Вьетнаме, предоставляет индустрии передовые технологии, позволяя создать летающие машины на электродвигателях, чем снижает зависимость экономики США от цен на нефтепродукты. Однако, одновременно он отдаляется от человечества, с которым у него теперь слишком мало общего. «То, как он смотрит на некоторые вещи, как будто не может вспомнить, что это такое, и ему на это наплевать… Этот мир, настоящий мир, для него что-то вроде тумана, а люди как будто тени…» — рассказывает Лори. Проблемы, мучающие людей уже века, для Остермана теперь не стоят и выеденного яйца: «Ты, самый умный человек на планете, — говорит он Адриану Вэйтду, — для меня не более чем самый умный термит».Адриан Вэйдт / Озимандия (Мэттью Гуд) — назван «самым умным человеком на Земле». Чрезвычайно амбициозный и целеустремлённый миллиардер, он обладает недюжинным интеллектом, позволившим ему построить с нуля сверхдоходную корпорацию, используя ресурсы которой он пытается изменить мир к лучшему. Однако, глядя на мир с высоты своего самомнения, Адриан готов собственноручно убивать миллионы ради того, что он считает спасением миллиардов. Обладает феноменальной силой и реакцией, хотя она и не выходит за грань доступного человеку. У него есть домашнее животное — линкс — генетически модифицированный гибрид рыси и тигра женского пола по кличке Бубастис. В фильме Бубастис можно увидеть на базе в Антарктиде . В комиксе у неё не фиолетовый, а красный окрас.Эдвард Морган Блейк / Комедиант (Джеффри Дин Морган) - радикальный борец с преступностью, считающий, что людей надо защищать от них самих. Джон Остерман (Доктор Манхэттен) характеризует его как «принципиально аморального человека.» «Когда я начал понимать Вьетнам и то, что он делает с людьми, я осознал ещё и то, что очень немногие позволяют себе такое понимание. Блейк другой. Он всё понимает, и ему наплевать.» — говорит о нём Остерман. Блейк патриотичен до нацизма, но при этом уничижительно отзывается о жителях собственной страны. Он сделает любую грязную работу, если будет уверен, что это пойдет на пользу США. Именно он по сюжету является снайпером, убившим президента Кеннеди. Блейк упивается своей силой и не стесняется её использовать, чтобы уничтожать своих врагов.

Доктор Манхэттен / Джонатан Остерман родился в 1929 году. Его отец был часовщиком и Джон планировал пойти по его стопам. Когда отец Джонатана увидел в газете статью о бомбардировке Хиросимы, он столкнулся с неоспоримыми фактами теории относительности и решил, что занятие ремонтом часов устарело. Будущее было за ядерной физикой. По этой причине он остановил обучение сына часовому делу и отправил изучать физику.

В 1958 году Джонатан получил ученую степень в области физики. В мае 1959 года он начал работать в исследовательском центре Гила Флэтс. Здесь он встречает научного сотрудника Джени Слейтер, в которую Остерман влюбляется.

В августе 1959 года, разыскивая часы своей подруги Дженни Слейтер, он случайно попал в испытательную капсулу лаборатории. В испытательной капсуле исчез его естественный облик, а Джонатан был разложен на мельчайшие частицы. В течение ноября 1959 года частицы, из которых состоял Джонатан, стали медленно собираться вместе и к 22 ноября полностью воссоединились.

После проекта «Манхэттен» Джонатану дали имя Доктор Манхэттен. В последующие годы Доктор Манхэттен работал борцом с преступностью, что по мнению Пентагона, должно было хорошо отразиться на его имидже.

В 1971 году президент Никсон попросил доктора Манхэттена вступить во Вьетнамскую войну. Доктор Манхэттен выиграл войну для Никсона в течение двух недель.Силы и способности

Джонатан управляет материей на квантовом уровне. Это позволяет перемещать частицы с помощью телепортации.Также к его способностям можно отнести:

Вневременное (с точки зрения его восприятия времени) существованиеВозможность реструктурировать себя после удаления из своего собственного поля энергии и материиЛевитацияСверхчеловеческая силаТелекинезНеосязаемостьПредвидениеТелепортацияНеуязвимость

www.fast-torrent.ru

rutor.org :: Хранители / Watchmen (2009) BDRip 720p | Максимальная версия

Для того чтобы картинка в рипе была очень плавной и с высокой динамической четкостью используются максимальные (по возможности) настройки качества по рендерингу из 23.976 (24-25) в 60 кадров/сек. Поэтому в динамичных сценах видео (или на динамичных объектах) возможны визуальные артефакты из-за неправильного добавления в видеоряд новых кадров, содержащих промежуточные положения объектов (ошибки поиска векторов).

Поэтому просьба в комментах не писать что вы этим открыли Америку обнаружив где-то недочеты в картинке. Я как автор рипов прекрасно об этом знаю и программно получить 100%-чистый релиз в 60 FPS (из 24-25) без визуальных артефактов на сегодняшний день невозможно но при этом я постоянно работаю над оптимизацией качества каждого рипа чтобы оно было на достаточно высоком уровне с минимальным количеством артефактов.

Вопрос №1: В сети есть программы которые умеют это делать "на лету" при просмотре фильма. Для чего нужны эти релизы?

Ответ: Релизы предназначены для тех, кто ценит плавность в фильмах и у кого нет возможности смотреть рипы с помощью аналогичных программ например на телевизоре, медиаплеере, других устройствах или же на слабых (бюджетных) компьютерах/ноутбуках.

Вопрос №2:Звук воспроизводится нормально с картинкой НО сама картинка с непривычки кажется очень быстрой (как на перемотке 1.5x). Это нормально?

Ответ: Да. :) В этом и весь кайф что вы видите иллюзию реальных 60 FPS (интерполированые с 24-25).

Для тех кто собрался смотреть в первый раз скажу только одно - к повышенной частоте кадров требуется какое-то время привыкания (наверное как минимум не меньше часа). Поначалу все это смотрится... как-то стремно! Картинка кажется быстрой и похожа на новости либо телевизионный сериал. Но со временем привыкаешь и в некоторых сценах при просмотре фильма начинаешь улавливать преимущества HFR стандарта (High Frame Rate) по сравнению со стандартными 24p кадрами в сек. А если точнее то разница сильно ощущается в том что начинаешь замечать те самые “enhanced sense of detail” (улучшенное восприятие деталей) и “enhanced clarity” (обалденная четкость), о которых кстати говорил Джеймс Кэмерон на презентации преимуществ 60 FPS. Для справки, новую идею Джеймса (помимо Питера Джексона снявший "Хоббита" в 48 FPS) также поддержал Джордж Лукас и Джеффри Катценберг (генеральный директор DreamWorks и бывший председатель директоров Диснея который продюсировал Шреков и др. известнейшие проекты).

Плюсы плавности фильмов - это чёткость и детализация, отчего и полный контроль за происходящим в кадре. Мозг получает и обрабатывает вдвое больше информации за тот же промежуток времени, в результате эффект такой, словно на каждый момент вы смотрели бы дольше и вам удавалось бы все рассмотреть, при этом времени-то расходуется столько же! (немного мудрёно сказал но надеюсь мысль передать удалось) Проще говоря, даже в динамичных моментах, когда в обычном кино едва-едва улавливаешь "кто куды чаво и как" успеваешь рассмотреть все в мельчайших деталях. Поскольку рассмотреть удается все в мельчайших деталях, во время просмотра полностью исчезает традиционная неразбериха во время экшен-сцен, например, сражений. Зритель следит за каждым движением, поэтому происходит полное понимание того как и что происходит.

Минусы: в некоторых фильмах (особенно старых где компьютерная графика очень заметна) фильм теряет свою кинематографичность. Фильм с непривычки выглядит очень живым и "реалистичным". Впрочем, как мне кажется, это проблема восприятия, завязанная именно на привычке к 24-25fps. Если такие фильмы будут продвигаться в массы то и дискомфорт от просмотра пройдет так как люди просто привыкнут.

Вопрос №3: Есть ли фильмы снятые с оригинальной частотой 48-60 FPS на Blu-Ray и стоит ли ждать их?

Ответ: На данный момент нет. Спецификация BD пока не поддерживает такой формат видео. В будущем скорее всего такие фильмы появятся на лицензионных носителях но на данный момент все рипы (60 FPS) в сети делаются только программным способом. Тот же "Хоббит: Нежданное путешествие", который был снят со скоростью 48 FPS был показан в рамках теста только в кинотеатрах. В планах выхода фильма на лицензии в 48 FPS авторами фильма не обсуждалось. Поэтому ждать фильма в 48 FPS пустая трата надежд. Других альтернатив нет, поэтому смотрите то что можно максимально приблизить к оригинально снятым 48-50 с помощью программных 60 FPS.

Вопрос №4: Качество ужасное! Что делать?

Ответ: Качество должно быть отличным но если у вас картинка слишком "шумная" то попробуйте выключить видео постобработку в драйверах (например AMD Catalyst) и всевозможные настройки в вашем плеере (яркость, контрастность, резкость и т.д.)...

Вопрос №5: Наблюдается рассинхрон (звук торопится или наоборот).

Ответ: Попробуйте обновить кодеки или открыть другим плеером! Возможно у вас слабое железо для воспроизведения видео со скоростью 60 кадр/с. Для этого перед скачиванием рипа следует (для теста) скачать сэмпл.

Вопрос №6: Смотрю на телевизоре (не ЖК) по аналоговому подключению (Scart; S-Video). Все воспроизводит хорошо но на плавных моментах заметны подергивания картинки через определенный промежуток времени! Как исправить?

Ответ: Если смотрите плавное видео с частотой кадров 29.97/30 (59.94/60) на телевизоре через медиаплеер (либо компьютер по аналоговому подключению) то в настройках медиаплеера (либо в настройках драйвера видеокарты компьютера) убедитесь что выбрана система выходного видео сигнала стандарта NTSC (не PAL).

main-rutor.org

rutor.org :: Хранители / Watchmen (2009) BDRip-HEVC 1080p от ХиМиК | D, P, A

main-rutor.org

Информация о фильмеНазвание: ХранителиОригинальное название: WatchmenГод выхода: 2009Жанр: фантастика, боевик, триллер, драма, детективРежиссер: Зак СнайдерВ ролях: Малин Акерман, Билли Крудап, Мэттью Гуд, Джеки Эрл Хейли, Джеффри Дин Морган, Патрик Уилсон, Карла Гуджино, Мэтт Фрюэр, Стивен МакХэтти, Лаура Меннелл, Роб ЛаБелль, Гэри Хьюстон, Джерард Батлер

О фильме: Действие картины разворачивается в параллельной реальности, в Америке 1985 года. В этом мире супергерои стали частью повседневной жизни общества, а Часы Судного Дня, застыв в пяти минутах от полуночи, отсчитывают время до столкновения ведущих мировых держав. После убийства одного из своих прежних коллег Роршах - супергерой, никогда не снимающий маски, - полон решимости свершить суд Линча. Он начинает расследование заговора, призванного уничтожить или дискредитировать всех супергероев прошлого и настоящего. Он собирает своих соратников - отставной легион борцов с преступностью, но лишь один из них обладает подлинной силой. Постепенно Роршах осознает пугающий масштаб заговора, связанного с общим прошлым героев и сулящего катастрофические последствия в будущем. Они хранят наш покой, но кто охранит нас от Хранителей?

Страна: СШАПродолжительность: 03:35:25Перевод: Дубляж (со вставками Киномании), многоголосый (Киномания), авторский (Сербин), авторский (Строев без цензуры)

ФайлКодек: HEVC x265Качество: BDRip-HEVC 1080pВидео: 1920x800 (2,40:1), 5549 Кбит/сек, 0.151 бит/(Пиксели*Кадры), 23,976 кадр/сек (24000/1001), HEVC ([email protected]@High)Звук: Аудио №1 :Russian,AAC 443 Kbit/s, 48 kHz,L C R, Side: L R, LFE (Дубляж со вставками Киномании)Аудио №2 :Russian,AAC 446 Kbit/s, 48 kHz,L C R, Side: L R, LFE (MVO Киномания)Аудио №3 :Russian,AAC 446 Kbit/s, 48 kHz,L C R, Side: L R, LFE (AVO Сербин)Аудио №4 :Russian,AAC 446 Kbit/s, 48 kHz,L C R, Side: L R, LFE (AVO Строев (без цензуры))Субтитры: Русские (форсированные) на непереведённые места Истории черной шхуныНавигация по главам : естьСемпл

MediaInfo

Общее Уникальный идентификатор : 224711555971130140676653063982943378752 (0xA90DDF174FE764B6A646EA25BC811D40) Полное имя : I:HEVC 2Watchmen_2009_Ultimate Cut_BDRip_1080p_[HEVC].mkv Формат : Matroska Версия формата : Version 4 / Version 2 Размер файла : 11,0 Гбайт Продолжительность : 3 ч. 35 м. Общий поток : 7293 Кбит/сек Дата кодирования : UTC 2017-07-02 11:59:24 Программа кодирования : mkvmerge v9.7.1 ('Pandemonium') 64bit Библиотека кодирования : libebml v1.3.4 + libmatroska v1.4.5 Обложка : Yes Attachments : cover.png

Видео Идентификатор : 1 Формат : HEVC Формат/Информация : High Efficiency Video Coding Профиль формата : [email protected]@High Идентификатор кодека : V_MPEGH/ISO/HEVC Продолжительность : 3 ч. 35 м. Битрейт : 5549 Кбит/сек Ширина : 1920 пикселей Высота : 800 пикселей Соотношение сторон : 2,40:1 Режим частоты кадров : Постоянный Частота кадров : 23,976 (24000/1001) кадра/сек Цветовое пространство : YUV Субдискретизация насыщенности : 4:2:0 Битовая глубина : 8 бит Бит/(Пиксели*Кадры) : 0.151 Размер потока : 8,35 Гбайт (76%) Библиотека кодирования : x265 2.4+6-fd01abfc7898:[Windows][GCC 6.3.0][64 bit] 8bit+10bit+12bit Настройки программы : cpuid=1173503 / frame-threads=3 / numa-pools=8 / wpp / no-pmode / no-pme / no-psnr / no-ssim / log-level=2 / input-csp=1 / input-res=1920x800 / interlace=0 / total-frames=0 / level-idc=41 / high-tier=1 / uhd-bd=0 / ref=4 / no-allow-non-conformance / no-repeat-headers / annexb / no-aud / no-hrd / info / hash=0 / no-temporal-layers / open-gop / min-keyint=23 / keyint=240 / bframes=12 / b-adapt=2 / b-pyramid / bframe-bias=0 / rc-lookahead=30 / lookahead-slices=4 / scenecut=40 / no-intra-refresh / ctu=64 / min-cu-size=8 / rect / amp / max-tu-size=32 / tu-inter-depth=3 / tu-intra-depth=3 / limit-tu=4 / rdoq-level=2 / dynamic-rd=0.00 / no-ssim-rd / signhide / no-tskip / nr-intra=0 / nr-inter=0 / no-constrained-intra / strong-intra-smoothing / max-merge=3 / limit-refs=2 / limit-modes / me=3 / subme=3 / merange=32 / temporal-mvp / weightp / weightb / no-analyze-src-pics / deblock=-3:-3 / no-sao / no-sao-non-deblock / rd=4 / no-early-skip / rskip / no-fast-intra / no-tskip-fast / no-cu-lossless / no-b-intra / rdpenalty=0 / psy-rd=2.00 / psy-rdoq=1.00 / no-rd-refine / analysis-mode=0 / no-lossless / cbqpoffs=0 / crqpoffs=0 / rc=crf / crf=18.0 / qcomp=0.60 / qpstep=4 / stats-write=0 / stats-read=0 / vbv-maxrate=50000 / vbv-bufsize=50000 / vbv-init=0.9 / crf-max=0.0 / crf-min=0.0 / ipratio=1.40 / pbratio=1.30 / aq-mode=1 / aq-strength=1.00 / cutree / zone-count=1 / zones: / start-frame=294433 / end-frame=309893 / qp=35 / no-strict-cbr / qg-size=32 / no-rc-grain / qpmax=69 / qpmin=0 / sar=0 / overscan=0 / videoformat=5 / range=0 / colorprim=2 / transfer=2 / colormatrix=1 / chromaloc=0 / display-window=0 / max-cll=0,0 / min-luma=0 / max-luma=255 / log2-max-poc-lsb=8 / vui-timing-info / vui-hrd-info / slices=1 / opt-qp-pps / opt-ref-list-length-pps / no-multi-pass-opt-rps / scenecut-bias=0.05 / no-opt-cu-delta-qp / aq-motion / no-hdr / no-hdr-opt / no-dhdr10-opt / refine-level=5 / no-limit-sao Default : Да Forced : Да Цветовой диапазон : Limited Коэффициенты матрицы : BT.709

Аудио #1 Идентификатор : 3 Формат : AAC Формат/Информация : Advanced Audio Codec Профиль формата : LC Идентификатор кодека : A_AAC Продолжительность : 3 ч. 35 м. Битрейт : 443 Кбит/сек Каналы : 6 каналов Расположение каналов : Front: L C R, Side: L R, LFE Частота : 48,0 КГц Частота кадров : 46,875 кадров/сек (1024 spf) Метод сжатия : С потерями Задержка видео : 20 мс. Размер потока : 682 Мбайт (6%) Заголовок : Дубляж со вставками Киномании Язык : Russian Default : Да Forced : Нет

Аудио #2 Идентификатор : 4 Формат : AAC Формат/Информация : Advanced Audio Codec Профиль формата : LC Идентификатор кодека : A_AAC Продолжительность : 3 ч. 35 м. Битрейт : 446 Кбит/сек Каналы : 6 каналов Расположение каналов : Front: L C R, Side: L R, LFE Частота : 48,0 КГц Частота кадров : 46,875 кадров/сек (1024 spf) Метод сжатия : С потерями Задержка видео : 20 мс. Размер потока : 688 Мбайт (6%) Заголовок : MVO Киномания Язык : Russian Default : Нет Forced : Нет

Аудио #3 Идентификатор : 5 Формат : AAC Формат/Информация : Advanced Audio Codec Профиль формата : LC Идентификатор кодека : A_AAC Продолжительность : 3 ч. 35 м. Битрейт : 446 Кбит/сек Каналы : 6 каналов Расположение каналов : Front: L C R, Side: L R, LFE Частота : 48,0 КГц Частота кадров : 46,875 кадров/сек (1024 spf) Метод сжатия : С потерями Задержка видео : 20 мс. Размер потока : 688 Мбайт (6%) Заголовок : AVO Сербин Язык : Russian Default : Нет Forced : Нет

Аудио #4 Идентификатор : 6 Формат : AAC Формат/Информация : Advanced Audio Codec Профиль формата : HE-AAC / LC Идентификатор кодека : A_AAC Продолжительность : 3 ч. 35 м. Битрейт : 405 Кбит/сек Каналы : 6 каналов Расположение каналов : Front: L C R, Side: L R, LFE Частота : 48,0 КГц / 24,0 КГц Частота кадров : 23,438 кадра/сек (1024 spf) Метод сжатия : С потерями Задержка видео : 19 мс. Размер потока : 623 Мбайт (6%) Заголовок : AVO Строев (без цензуры) Язык : Russian Default : Нет Forced : Нет

Текст Идентификатор : 2 Формат : UTF-8 Идентификатор кодека : S_TEXT/UTF8 Идентификатор кодека/Информация : UTF-8 Plain Text Продолжительность : 2 ч. 42 м. Битрейт : 2 бит/сек ElementCount : 60 Размер потока : 3,28 Кбайт (0%) Заголовок : Forced Язык : Russian Default : Да Forced : Нет

Меню 00:00:00.000 : :Chapter 01 00:05:42.008 : :Chapter 02 00:11:16.509 : :Chapter 03 00:16:05.339 : :Chapter 04 00:19:05.561 : :Chapter 05 00:23:48.718 : :Chapter 06 00:26:53.403 : :Chapter 07 00:29:44.115 : :Chapter 08 00:34:42.580 : :Chapter 09 00:39:31.494 : :Chapter 10 00:44:06.018 : :Chapter 11 00:48:03.255 : :Chapter 12 00:50:31.945 : :Chapter 13 00:54:45.198 : :Chapter 14 00:59:14.842 : :Chapter 15 01:01:19.634 : :Chapter 16 01:03:36.813 : :Chapter 17 01:06:15.262 : :Chapter 18 01:09:29.582 : :Chapter 19 01:16:10.732 : :Chapter 20 01:20:53.139 : :Chapter 21 01:23:12.987 : :Chapter 22 01:26:44.616 : :Chapter 23 01:28:45.987 : :Chapter 24 01:31:46.250 : :Chapter 25 01:36:50.805 : :Chapter 26 01:41:16.695 : :Chapter 27 01:47:08.213 : :Chapter 28 01:50:40.550 : :Chapter 29 01:54:04.879 : :Chapter 30 01:59:51.934 : :Chapter 31 02:09:07.072 : :Chapter 32 02:13:44.057 : :Chapter 33 02:15:31.123 : :Chapter 34 02:20:35.009 : :Chapter 35 02:23:39.152 : :Chapter 36 02:27:55.616 : :Chapter 37 02:32:50.619 : :Chapter 38 02:37:03.831 : :Chapter 39 02:39:45.993 : :Chapter 40 02:44:40.704 : :Chapter 41 02:49:32.495 : :Chapter 42 02:56:16.399 : :Chapter 43 02:58:59.145 : :Chapter 44 03:04:13.959 : :Chapter 45 03:06:16.081 : :Chapter 46 03:10:27.916 : :Chapter 47 03:14:07.427 : :Chapter 48 03:17:31.130 : :Chapter 49 03:20:01.656 : :Chapter 50 03:24:40.351 : :Chapter 51

Скачать фильм Хранители через торрент в хорошем качестве бесплатно HDRip

piratbit.ru

Раздают: 1 [ 0 KB/s ]
Размер: 1.47 GB | Добавлен: 6 лет 10 мес. назад | Торрент скачан:1150 раз
Реклама Дарим 3000 рублей за регистрацию, не упусти свой шанс получить шикарный бонус!!!

08-12-2010 10:01 Хранители Скачать торрент  

Хранители | WatchmenМаксимальная версия«Правосудие настигнет каждого из нас. Не важно за что.» Год выпуска: 2009Страна: СШАЖанр: фантастика, боевик, триллер, фэнтези, криминал, детектив, драмаПродолжительность: 03:35:25Перевод: Профессиональный (полное дублирование)(имеются вставки многоголосого перевода с режиссерской версии фильм)Субтитры: есть (на эпизоды без русской озвучки) Режиссер: Зак СнайдерВ ролях: Малин Акерман, Билли Крудап, Мэттью Гуд, Джеки Эрл Хейли, Джеффри Дин Морган, Патрик Уилсон, Карла Гуджино, Мэтт Фрюэр, Стивен МакХэтти, Лаура МеннеллОписание:Действие картины разворачивается в параллельной реальности, в Америке 1985 года. В этом мире супергерои стали частью повседневной жизни общества, а Часы Судного Дня, застыв в пяти минутах от полуночи, отсчитывают время до столкновения ведущих мировых держав. После убийства одного из своих прежних коллег Роршах - супергерой, никогда не снимающий маски, - полон решимости свершить суд Линча.Он начинает расследование заговора, призванного уничтожить или дискредитировать всех супергероев прошлого и настоящего. Он собирает своих соратников - отставной легион борцов с преступностью, но лишь один из них обладает подлинной силой. Постепенно Роршах осознает пугающий масштаб заговора, связанного с общим прошлым героев и сулящего катастрофические последствия в будущем. Они хранят наш покой, но кто охранит нас от Хранителей?О переводе максимальной версии фильма:Дубляж со вставками закадрового многоголосого перевода взят с BD супербита, где в свою очередь он был получен с CEE издания театральной версии и сведен с многоголосым переводом киномании, наложенным на оригинальную HD дорожку. Перевод "Истории Чёрной Шхуны" двухголосый от Новафильма. В максимальной версии несколько минут без перевода переведены субтитрами. Сохранены плавные переходы между эпизодами максимальной и режиссерской версий. Качество: HDRipФормат: AVIВидео кодек: XviDАудио кодек: MP3 Видео: 688x288 (2.39:1), 23.976 fps, XviD build 50, ~838 kbps avg, 0.176 bit/pixelАудио: MPEG Layer 3, 2 ch, 48 kHz, ~128.00 kbps avg Скачать Хранители через торрент http://linkme.ufanet.ru/images/9871445d6a73fe6aac3c46226e99e7e6.png Скачать фильм Хранители через торрент бесплантно в хорошем качестве Описание:Действие картины разворачивается в параллельной реальности, в Америке 1985 года. В этом мире супергерои стали частью повседневной ... 2010-12-08 10:01 9.8 10 24

Loading...

Loading...

% Раздел Тема Автор DL S | L
Фильмы [HD 720p, 1080p] (Хороший звук DUB, MVO) [ 10.97 GB ] Хранители / Watchmen [2009 BDRip-HEVC 1080p от ХиМиК] | DUB MVO AVO| Максимальная версия DEVI Скачать
Фантастика, фентези, мистика, ужасы [ 1 MB ] Ольга Швецова / Метро 2033. Демон-хранитель [FB2] Haswell Скачать
Фантастика, фентези, мистика, ужасы [ 1 MB ] Андрей Архипов / S-T-I-K-S. Второй Хранитель [FB2] Haswell Скачать
Мультфильмы (48-60 fps) [ 6.64 GB ] Хранители снов / Rise of the Guardians [2012 мультфильм BDRip 720p ] 60 fps -=DANTE=- Скачать
Мультфильмы (48-60 fps) [ 3.56 GB ] Хранитель луны / Mune le gardien de la lune [2014 Мультфильм BDRip 720p ] 60fps от mimok mimok Скачать
T Релизы по Парсеру [Фильмы, Игры, Сериалы и другое...] [ 1.37 GB ] Мой Ангел-Хранитель / My Guardian Angel WEB-DLRip Ворон Скачать
Азиатские фильмы [ 1.46 GB ] Хранитель тьмы / Keeper of Darkness [2015 HDRip Любительский двухголосый [den904 DeadSno] без рекламы hkets1980 Скачать

Рекламный пират

08-12-2010 10:06 Хранители Скачать торрент  

Тыкаем на пятерку, говорим спасибо :ad:

08-12-2010 11:45 Хранители Скачать торрент  

Ах подлец) Только по тнт будут показывать и тут он выложил! Ладно лови свое спасибо :)

08-12-2010 11:48 Хранители Скачать торрент  

PO_GRIBВообще, фильм у меня давно на харде лежал, а тут вот из за рекламы вспомнил :D

08-12-2010 11:50 Хранители Скачать торрент  

Фильм полнейшее

08-12-2010 12:26 Хранители Скачать торрент  

13-12-2010 03:30 Хранители Скачать торрент  

777AssAssIn777 писал(а):

Фильм полнейшееНе нравится, вали нахрен.Давно искал максимальную.

13-05-2012 12:22 Хранители Скачать торрент  

777AssAssIn777 писал(а):

Фильм <ЦЕНЗУРА> полнейшее

Ты просто ребенок и не понял всего смысла, если не нравится вали отсюда... Автору 5+

11-06-2012 06:56 Хранители Скачать торрент  

Великолепный фильм с глубоким смыслом!!! + поставил!

Pекламный агент PB

30-10-2012 21:22 Хранители Скачать торрент  

Ага, и три с половиной часа из жизни... Продолжительность: 03:35:25

Дорогой пользователь! Огромная просьба, поблагодарите релизера, оцените раздачу и оставьте свои комментарий, если Вы скачали Хранители через торрент бесплатно! Внесите свою лепту в развитие PiratBit!

Комментировать посты могут только пользователи прошедшие не сложную регистрацию

Хранители через торрент Скачать бесплатно Хранители Хранители скачать торрент Хранители смотреть онлайн Cкачать фильм Хранители бесплатно Хранители скачать торрент в хорошем качестве Хранители смотреть онлайн бесплатно в хорошем качестве

Вы не можете начинать темыВы не можете отвечать на сообщенияВы не можете редактировать свои сообщенияВы не можете удалять свои сообщенияВы не можете голосовать в опросахВы не можете прикреплять файлы к сообщениямВы можете скачивать файлы


Смотрите также