Люди икс дни минующего будущего скачать торрент режиссерская версия


Скачать торрент Люди Икс: Дни минувшего будущего / X-Men: Days of Future Past. The Rogue Cut (2014) BDRemux 1080p | iTunes

krutor.org

Информация о фильмеНазвание: Люди Икс: Дни минувшего будущего (Расширенная версия: "Роуг")Оригинальное название: X-Men: Days of Future Past. The Rogue CutГод выпуска: 2014Жанр: Фантастика, фэнтези, боевик, приключенияВыпущено: США, 20th Century Fox Film Corporation, Bad Hat Harry Productions, Marvel Entertainment, Marv Films, Dune EntertainmentРежиссер: Брайан СингерВ ролях: Хью Джекман, Иэн МакКеллен, Патрик Стюарт, Холли Берри, Майкл Фассбендер, Джеймс МакЭвой, Анна Пакуин, Эллен Пейдж, Шон Эшмор, Дженнифер Лоуренс, Николас Холт, Питер Динклэйдж, Омар Си, Лукас Тилл, Бинбин Фань

О фильме: Абсолютно новая, не показанная в кинотеатрах версия фильма «Люди Икс: Дни минувшего будущего» еще глубже погрузит вас во вселенную Людей Икс. Когда армия безжалостных роботов Стражей начинает охоту на мутантов и людей, непобедимые персонажи предыдущих фильмов «Люди Икс» переселяются в юных себя, пытаясь изменить прошлое – и спасти будущее.

ФайлКачество: Blu-Ray Remux (1080p)Видео: MPEG-4 AVC, 24435 Кбит/с, 1920x1080Аудио: Русский (AC3, 6 ch, 384 Кбит/с), английский (DTS-HD MA, 8 ch, 5389 Кбит/c), (AC3, 2 ch, 224 Кбит/с)Продолжительность: 02:28:45Перевод: Дублированный [iTunes]Субтитры: Русские, английские

MI

Общее Уникальный идентификатор : 174276127024426834224273424238236973902 (0x831C5C752A9AA624A6FEB5B887D8BB4E) Полное имя : C:X-Men Days of Future Past 2014 The Rogue Cut BDRemux.1080p_by_bog3417.mkv Формат : Matroska Версия формата : Version 2 Размер файла : 31,6 Гбайт Продолжительность : 2 ч. 28 м. Режим общего битрейта : Переменный Общий поток : 30,4 Мбит/сек Дата кодирования : UTC 2015-07-13 22:23:04 Программа кодирования : mkvmerge v7.9.0 ('Birds') 64bit Библиотека кодирования : libebml v1.3.1 + libmatroska v1.4.2

Видео Идентификатор : 1 Формат : AVC Формат/Информация : Advanced Video Codec Профиль формата : [email protected] Параметр CABAC формата : Да Параметр ReFrames формата : 4 кадра Идентификатор кодека : V_MPEG4/ISO/AVC Продолжительность : 2 ч. 28 м. Вид битрейта : Переменный Максимальный битрейт : 35,5 Мбит/сек Ширина : 1920 пикселей Высота : 1080 пикселей Соотношение сторон : 16:9 Режим частоты кадров : Постоянный Частота кадров : 23,976 кадра/сек Цветовое пространство : YUV Субдискретизация насыщенности : 4:2:0 Битовая глубина : 8 бит Тип развёртки : Прогрессивная Default : Да Forced : Нет

Аудио #1 Идентификатор : 2 Формат : AC-3 Формат/Информация : Audio Coding 3 Расширение режима : CM (complete main) Параметр Endianness формата : Big Идентификатор кодека : A_AC3 Продолжительность : 2 ч. 28 м. Вид битрейта : Постоянный Битрейт : 384 Кбит/сек Каналы : 6 каналов Расположение каналов : Front: L C R, Side: L R, LFE Частота : 48,0 КГц Метод сжатия : С потерями Размер потока : 409 Мбайт (1%) Заголовок : iTunes Язык : Russian Default : Да Forced : Нет

Аудио #2 Идентификатор : 3 Формат : DTS Формат/Информация : Digital Theater Systems Профиль формата : MA / Core Режим : 16 Параметр Endianness формата : Big Идентификатор кодека : A_DTS Продолжительность : 2 ч. 28 м. Вид битрейта : Переменный Битрейт : Неизвестно / 1509 Кбит/сек Каналы : 8 каналов / 6 каналов Расположение каналов : Front: L C R, Side: L R, Back: L R, LFE / Front: L C R, Side: L R, LFE Частота : 48,0 КГц Битовая глубина : 24 бит Метод сжатия : Без потерь / Lossy Язык : English Default : Нет Forced : Нет

Аудио #3 Идентификатор : 4 Формат : AC-3 Формат/Информация : Audio Coding 3 Расширение режима : CM (complete main) Параметр Endianness формата : Big Идентификатор кодека : A_AC3 Продолжительность : 2 ч. 28 м. Вид битрейта : Постоянный Битрейт : 224 Кбит/сек Каналы : 2 канала Расположение каналов : Front: L R Частота : 48,0 КГц Метод сжатия : С потерями Размер потока : 238 Мбайт (1%) Язык : English Default : Нет Forced : Нет

Аудио #4 Идентификатор : 5 Формат : AC-3 Формат/Информация : Audio Coding 3 Расширение режима : CM (complete main) Параметр Endianness формата : Big Идентификатор кодека : A_AC3 Продолжительность : 2 ч. 28 м. Вид битрейта : Постоянный Битрейт : 224 Кбит/сек Каналы : 2 канала Расположение каналов : Front: L R Частота : 48,0 КГц Метод сжатия : С потерями Размер потока : 238 Мбайт (1%) Язык : English Default : Нет Forced : Нет

Текст #1 Идентификатор : 6 Формат : UTF-8 Идентификатор кодека : S_TEXT/UTF8 Идентификатор кодека/Информация : UTF-8 Plain Text Заголовок : Full Язык : Russian Default : Нет Forced : Нет

Текст #2 Идентификатор : 7 Формат : UTF-8 Идентификатор кодека : S_TEXT/UTF8 Идентификатор кодека/Информация : UTF-8 Plain Text Заголовок : Forced Язык : English Default : Да Forced : Нет

Текст #3 Идентификатор : 8 Формат : UTF-8 Идентификатор кодека : S_TEXT/UTF8 Идентификатор кодека/Информация : UTF-8 Plain Text Заголовок : Full Язык : English Default : Нет Forced : Нет

Текст #4 Идентификатор : 9 Формат : UTF-8 Идентификатор кодека : S_TEXT/UTF8 Идентификатор кодека/Информация : UTF-8 Plain Text Язык : English Default : Нет Forced : Нет

Текст #5 Идентификатор : 10 Формат : UTF-8 Идентификатор кодека : S_TEXT/UTF8 Идентификатор кодека/Информация : UTF-8 Plain Text Язык : English Default : Нет Forced : Нет

Меню 00:00:00.000 : en:00:00:00.000 00:03:33.338 : en:00:03:33.338 00:08:04.734 : en:00:08:04.734 00:10:34.217 : en:00:10:34.217 00:15:11.410 : en:00:15:11.410 00:18:44.248 : en:00:18:44.248 00:22:43.529 : en:00:22:43.529 00:24:38.769 : en:00:24:38.769 00:29:05.619 : en:00:29:05.619 00:33:03.440 : en:00:33:03.440 00:37:11.896 : en:00:37:11.896 00:38:49.827 : en:00:38:49.827 00:41:06.923 : en:00:41:06.923 00:43:50.336 : en:00:43:50.336 00:50:05.377 : en:00:50:05.377 00:52:07.082 : en:00:52:07.082 00:55:11.391 : en:00:55:11.391 00:57:56.348 : en:00:57:56.348 01:01:04.661 : en:01:01:04.661 01:04:01.421 : en:01:04:01.421 01:06:39.829 : en:01:06:39.829 01:10:22.802 : en:01:10:22.802 01:13:00.459 : en:01:13:00.459 01:16:28.334 : en:01:16:28.334 01:18:48.724 : en:01:18:48.724 01:20:44.590 : en:01:20:44.590 01:22:46.962 : en:01:22:46.962 01:28:07.574 : en:01:28:07.574 01:31:19.057 : en:01:31:19.057 01:33:50.958 : en:01:33:50.958 01:39:22.373 : en:01:39:22.373 01:42:10.291 : en:01:42:10.291 01:44:32.016 : en:01:44:32.016 01:49:13.547 : en:01:49:13.547 01:51:00.862 : en:01:51:00.862 01:54:54.304 : en:01:54:54.304 01:59:15.940 : en:01:59:15.940 02:02:13.743 : en:02:02:13.743 02:04:30.504 : en:02:04:30.504 02:08:16.230 : en:02:08:16.230 02:13:27.583 : en:02:13:27.583 02:16:57.250 : en:02:16:57.250 02:19:19.809 : en:02:19:19.809 02:27:34.011 : en:02:27:34.011

Релиз от:

Скачать торрент Люди Икс: Дни минувшего будущего / X-Men: Days of Future Past. The Rogue Cut (2014) BDRip 720p | iTunes

krutor.org

Информация о фильмеНазвание: Люди Икс: Дни минувшего будущего (Расширенная версия: "Роуг")Оригинальное название: X-Men: Days of Future Past. The Rogue CutГод выпуска: 2014Жанр: Фантастика, фэнтези, боевик, приключенияВыпущено: США, 20th Century Fox Film Corporation, Bad Hat Harry Productions, Marvel Entertainment, Marv Films, Dune EntertainmentРежиссер: Брайан СингерВ ролях: Хью Джекман, Иэн МакКеллен, Патрик Стюарт, Холли Берри, Майкл Фассбендер, Джеймс МакЭвой, Анна Пакуин, Эллен Пейдж, Шон Эшмор, Дженнифер Лоуренс, Николас Холт, Питер Динклэйдж, Омар Си, Лукас Тилл, Бинбин Фань

О фильме: Абсолютно новая, не показанная в кинотеатрах версия фильма «Люди Икс: Дни минувшего будущего» еще глубже погрузит вас во вселенную Людей Икс. Когда армия безжалостных роботов Стражей начинает охоту на мутантов и людей, непобедимые персонажи предыдущих фильмов «Люди Икс» переселяются в юных себя, пытаясь изменить прошлое – и спасти будущее.

ФайлКачество: BDRip (720p)Видео: MPEG-4 AVC, 5600 Кбит/с, 1280x534Аудио: Русский (AC3, 6 ch, 384 Кбит/с), английский (DTS-ES, 6 ch, 1510 Кбит/c), (AC3, 2 ch, 224 Кбит/с)Размер: 8.25 ГБПродолжительность: 02:28:45Перевод: Дублированный [iTunes]Субтитры: Английские, Русские (отдельно)

MI

x264 [info]: frame I:2245 Avg QP:13.18 size:157865 x264 [info]: frame P:57489 Avg QP:16.01 size: 49342 x264 [info]: frame B:154269 Avg QP:17.27 size: 19814 x264 [info]: consecutive B-frames: 7.8% 4.7% 10.5% 16.3% 16.1% 33.8% 6.1% 1.6% 1.6% 1.6%

Общее Уникальный идентификатор : 194394841762736686720386753082172826446 (0x923F15AD7DF16B2D8400A5EC18B2E34E) Полное имя : C:X-Men Days of Future Past 2014 The Rogue Cut BDRip.720p_by_bog3417.mkv Формат : Matroska Версия формата : Version 2 Размер файла : 8,25 Гбайт Продолжительность : 2 ч. 28 м. Общий поток : 7944 Кбит/сек Дата кодирования : UTC 2015-07-13 19:59:37 Программа кодирования : mkvmerge v7.9.0 ('Birds') 64bit Библиотека кодирования : libebml v1.3.1 + libmatroska v1.4.2

Видео Идентификатор : 1 Формат : AVC Формат/Информация : Advanced Video Codec Профиль формата : [email protected] Параметр CABAC формата : Да Параметр ReFrames формата : 9 кадров Идентификатор кодека : V_MPEG4/ISO/AVC Продолжительность : 2 ч. 28 м. Битрейт : 5600 Кбит/сек Ширина : 1280 пикселей Высота : 534 пикселя Соотношение сторон : 2,40:1 Режим частоты кадров : Постоянный Частота кадров : 23,976 кадра/сек Цветовое пространство : YUV Субдискретизация насыщенности : 4:2:0 Битовая глубина : 8 бит Тип развёртки : Прогрессивная Бит/(Пиксели*Кадры) : 0.342 Размер потока : 5,66 Гбайт (69%) Библиотека кодирования : x264 core 146 r2538 121396c Настройки программы : cabac=1 / ref=9 / deblock=1:-3:-3 / analyse=0x3:0x33 / me=umh / subme=11 / psy=1 / psy_rd=1.00:0.00 / mixed_ref=1 / me_range=48 / chroma_me=1 / trellis=2 / 8x8dct=1 / cqm=0 / deadzone=21,11 / fast_pskip=0 / chroma_qp_offset=-2 / threads=12 / lookahead_threads=2 / sliced_threads=0 / nr=0 / decimate=0 / interlaced=0 / bluray_compat=0 / constrained_intra=0 / bframes=9 / b_pyramid=2 / b_adapt=2 / b_bias=0 / direct=3 / weightb=1 / open_gop=0 / weightp=2 / keyint=240 / keyint_min=23 / scenecut=40 / intra_refresh=0 / rc=2pass / mbtree=0 / bitrate=5600 / ratetol=1.0 / qcomp=0.60 / qpmin=0 / qpmax=69 / qpstep=4 / cplxblur=20.0 / qblur=0.5 / ip_ratio=1.40 / pb_ratio=1.30 / aq=3:0.90 Язык : English Default : Да Forced : Нет

Аудио #1 Идентификатор : 2 Формат : AC-3 Формат/Информация : Audio Coding 3 Расширение режима : CM (complete main) Параметр Endianness формата : Big Идентификатор кодека : A_AC3 Продолжительность : 2 ч. 28 м. Вид битрейта : Постоянный Битрейт : 384 Кбит/сек Каналы : 6 каналов Расположение каналов : Front: L C R, Side: L R, LFE Частота : 48,0 КГц Метод сжатия : С потерями Размер потока : 409 Мбайт (5%) Заголовок : iTunes Язык : Russian Default : Да Forced : Нет

Аудио #2 Идентификатор : 3 Формат : DTS Формат/Информация : Digital Theater Systems Профиль формата : ES Режим : 16 Параметр Endianness формата : Big Идентификатор кодека : A_DTS Продолжительность : 2 ч. 28 м. Вид битрейта : Постоянный Битрейт : 1509 Кбит/сек Каналы : 6 каналов Расположение каналов : Front: L C R, Side: L R, LFE Частота : 48,0 КГц Битовая глубина : 24 бит Метод сжатия : С потерями Размер потока : 1,57 Гбайт (19%) Язык : English Default : Нет Forced : Нет

Аудио #3 Идентификатор : 4 Формат : AC-3 Формат/Информация : Audio Coding 3 Расширение режима : CM (complete main) Параметр Endianness формата : Big Идентификатор кодека : A_AC3 Продолжительность : 2 ч. 28 м. Вид битрейта : Постоянный Битрейт : 224 Кбит/сек Каналы : 2 канала Расположение каналов : Front: L R Частота : 48,0 КГц Метод сжатия : С потерями Размер потока : 238 Мбайт (3%) Язык : English Default : Нет Forced : Нет

Аудио #4 Идентификатор : 5 Формат : AC-3 Формат/Информация : Audio Coding 3 Расширение режима : CM (complete main) Параметр Endianness формата : Big Идентификатор кодека : A_AC3 Продолжительность : 2 ч. 28 м. Вид битрейта : Постоянный Битрейт : 224 Кбит/сек Каналы : 2 канала Расположение каналов : Front: L R Частота : 48,0 КГц Метод сжатия : С потерями Размер потока : 238 Мбайт (3%) Язык : English Default : Нет Forced : Нет

Текст #1 Идентификатор : 6 Формат : UTF-8 Идентификатор кодека : S_TEXT/UTF8 Идентификатор кодека/Информация : UTF-8 Plain Text Заголовок : Forced Язык : English Default : Да Forced : Нет

Текст #2 Идентификатор : 7 Формат : UTF-8 Идентификатор кодека : S_TEXT/UTF8 Идентификатор кодека/Информация : UTF-8 Plain Text Заголовок : Full Язык : English Default : Нет Forced : Нет

Текст #3 Идентификатор : 8 Формат : UTF-8 Идентификатор кодека : S_TEXT/UTF8 Идентификатор кодека/Информация : UTF-8 Plain Text Язык : English Default : Нет Forced : Нет

Текст #4 Идентификатор : 9 Формат : UTF-8 Идентификатор кодека : S_TEXT/UTF8 Идентификатор кодека/Информация : UTF-8 Plain Text Язык : English Default : Нет Forced : Нет

Меню 00:00:00.000 : en:00:00:00.000 00:03:33.338 : en:00:03:33.338 00:08:04.734 : en:00:08:04.734 00:10:34.217 : en:00:10:34.217 00:15:11.410 : en:00:15:11.410 00:18:44.248 : en:00:18:44.248 00:22:43.529 : en:00:22:43.529 00:24:38.769 : en:00:24:38.769 00:29:05.619 : en:00:29:05.619 00:33:03.440 : en:00:33:03.440 00:37:11.896 : en:00:37:11.896 00:38:49.827 : en:00:38:49.827 00:41:06.923 : en:00:41:06.923 00:43:50.336 : en:00:43:50.336 00:50:05.377 : en:00:50:05.377 00:52:07.082 : en:00:52:07.082 00:55:11.391 : en:00:55:11.391 00:57:56.348 : en:00:57:56.348 01:01:04.661 : en:01:01:04.661 01:04:01.421 : en:01:04:01.421 01:06:39.829 : en:01:06:39.829 01:10:22.802 : en:01:10:22.802 01:13:00.459 : en:01:13:00.459 01:16:28.334 : en:01:16:28.334 01:18:48.724 : en:01:18:48.724 01:20:44.590 : en:01:20:44.590 01:22:46.962 : en:01:22:46.962 01:28:07.574 : en:01:28:07.574 01:31:19.057 : en:01:31:19.057 01:33:50.958 : en:01:33:50.958 01:39:22.373 : en:01:39:22.373 01:42:10.291 : en:01:42:10.291 01:44:32.016 : en:01:44:32.016 01:49:13.547 : en:01:49:13.547 01:51:00.862 : en:01:51:00.862 01:54:54.304 : en:01:54:54.304 01:59:15.940 : en:01:59:15.940 02:02:13.743 : en:02:02:13.743 02:04:30.504 : en:02:04:30.504 02:08:16.230 : en:02:08:16.230 02:13:27.583 : en:02:13:27.583 02:16:57.250 : en:02:16:57.250 02:19:19.809 : en:02:19:19.809 02:27:34.011 : en:02:27:34.011

Релиз от:

Скачать торрент Люди Икс: Дни минувшего будущего / X-Men: Days of Future Past. The Rogue Cut (2014) BDRip 1080p | iTunes

krutor.org

Информация о фильмеНазвание: Люди Икс: Дни минувшего будущего (Расширенная версия: "Роуг")Оригинальное название: X-Men: Days of Future Past. The Rogue CutГод выпуска: 2014Жанр: Фантастика, фэнтези, боевик, приключенияВыпущено: США, 20th Century Fox Film Corporation, Bad Hat Harry Productions, Marvel Entertainment, Marv Films, Dune EntertainmentРежиссер: Брайан СингерВ ролях: Хью Джекман, Иэн МакКеллен, Патрик Стюарт, Холли Берри, Майкл Фассбендер, Джеймс МакЭвой, Анна Пакуин, Эллен Пейдж, Шон Эшмор, Дженнифер Лоуренс, Николас Холт, Питер Динклэйдж, Омар Си, Лукас Тилл, Бинбин Фань

О фильме: Абсолютно новая, не показанная в кинотеатрах версия фильма «Люди Икс: Дни минувшего будущего» еще глубже погрузит вас во вселенную Людей Икс. Когда армия безжалостных роботов Стражей начинает охоту на мутантов и людей, непобедимые персонажи предыдущих фильмов «Люди Икс» переселяются в юных себя, пытаясь изменить прошлое – и спасти будущее.

ФайлКачество: BDRip (1080p)Видео: MPEG-4 AVC, 11000 Кбит/с, 1920x800Аудио: Русский (AC3, 6 ch, 384 Кбит/с), английский (DTS-ES, 6 ch, 1510 Кбит/c), (AC3, 2 ch, 224 Кбит/с)Размер: 13.86 ГБПродолжительность: 02:28:45Перевод: Дублированный [iTunes]Субтитры: Английские, Русские (отдельно)

MI

x264 [info]: frame I:1955 Avg QP:14.44 size:303137 x264 [info]: frame P:54725 Avg QP:16.93 size: 94640 x264 [info]: frame B:157323 Avg QP:18.39 size: 41304 x264 [info]: consecutive B-frames: 5.2% 6.1% 13.2% 12.7% 14.9% 39.9% 5.3% 1.0% 0.7% 1.1%

Общее Уникальный идентификатор : 242611721987509403906033974423102297697 (0xB6855169FD1CE1AF9F926FE27F3E1661) Полное имя : C:X-Men Days of Future Past 2014 The Rogue Cut BDRip.1080p_by_bog3417.mkv Формат : Matroska Версия формата : Version 2 Размер файла : 13,9 Гбайт Продолжительность : 2 ч. 28 м. Общий поток : 13,3 Мбит/сек Дата кодирования : UTC 2015-07-13 20:01:25 Программа кодирования : mkvmerge v7.9.0 ('Birds') 64bit Библиотека кодирования : libebml v1.3.1 + libmatroska v1.4.2

Видео Идентификатор : 1 Формат : AVC Формат/Информация : Advanced Video Codec Профиль формата : [email protected] Параметр CABAC формата : Да Параметр ReFrames формата : 4 кадра Идентификатор кодека : V_MPEG4/ISO/AVC Продолжительность : 2 ч. 28 м. Битрейт : 11,0 Мбит/сек Ширина : 1920 пикселей Высота : 800 пикселей Соотношение сторон : 2,40:1 Режим частоты кадров : Постоянный Частота кадров : 23,976 кадра/сек Цветовое пространство : YUV Субдискретизация насыщенности : 4:2:0 Битовая глубина : 8 бит Тип развёртки : Прогрессивная Бит/(Пиксели*Кадры) : 0.299 Размер потока : 11,2 Гбайт (80%) Библиотека кодирования : x264 core 146 r2538 121396c Настройки программы : cabac=1 / ref=4 / deblock=1:-3:-3 / analyse=0x3:0x33 / me=umh / subme=11 / psy=1 / psy_rd=1.00:0.00 / mixed_ref=1 / me_range=32 / chroma_me=1 / trellis=2 / 8x8dct=1 / cqm=0 / deadzone=21,11 / fast_pskip=0 / chroma_qp_offset=-2 / threads=12 / lookahead_threads=2 / sliced_threads=0 / nr=0 / decimate=0 / interlaced=0 / bluray_compat=0 / constrained_intra=0 / bframes=9 / b_pyramid=2 / b_adapt=2 / b_bias=0 / direct=3 / weightb=1 / open_gop=0 / weightp=2 / keyint=240 / keyint_min=23 / scenecut=40 / intra_refresh=0 / rc=2pass / mbtree=0 / bitrate=11000 / ratetol=1.0 / qcomp=0.60 / qpmin=0 / qpmax=69 / qpstep=4 / cplxblur=20.0 / qblur=0.5 / ip_ratio=1.40 / pb_ratio=1.30 / aq=3:0.90 Язык : English Default : Да Forced : Нет

Аудио #1 Идентификатор : 2 Формат : AC-3 Формат/Информация : Audio Coding 3 Расширение режима : CM (complete main) Параметр Endianness формата : Big Идентификатор кодека : A_AC3 Продолжительность : 2 ч. 28 м. Вид битрейта : Постоянный Битрейт : 384 Кбит/сек Каналы : 6 каналов Расположение каналов : Front: L C R, Side: L R, LFE Частота : 48,0 КГц Метод сжатия : С потерями Размер потока : 409 Мбайт (3%) Заголовок : iTunes Язык : Russian Default : Да Forced : Нет

Аудио #2 Идентификатор : 3 Формат : DTS Формат/Информация : Digital Theater Systems Профиль формата : ES Режим : 16 Параметр Endianness формата : Big Идентификатор кодека : A_DTS Продолжительность : 2 ч. 28 м. Вид битрейта : Постоянный Битрейт : 1509 Кбит/сек Каналы : 6 каналов Расположение каналов : Front: L C R, Side: L R, LFE Частота : 48,0 КГц Битовая глубина : 24 бит Метод сжатия : С потерями Размер потока : 1,57 Гбайт (11%) Язык : English Default : Нет Forced : Нет

Аудио #3 Идентификатор : 4 Формат : AC-3 Формат/Информация : Audio Coding 3 Расширение режима : CM (complete main) Параметр Endianness формата : Big Идентификатор кодека : A_AC3 Продолжительность : 2 ч. 28 м. Вид битрейта : Постоянный Битрейт : 224 Кбит/сек Каналы : 2 канала Расположение каналов : Front: L R Частота : 48,0 КГц Метод сжатия : С потерями Размер потока : 238 Мбайт (2%) Язык : English Default : Нет Forced : Нет

Аудио #4 Идентификатор : 5 Формат : AC-3 Формат/Информация : Audio Coding 3 Расширение режима : CM (complete main) Параметр Endianness формата : Big Идентификатор кодека : A_AC3 Продолжительность : 2 ч. 28 м. Вид битрейта : Постоянный Битрейт : 224 Кбит/сек Каналы : 2 канала Расположение каналов : Front: L R Частота : 48,0 КГц Метод сжатия : С потерями Размер потока : 238 Мбайт (2%) Язык : English Default : Нет Forced : Нет

Текст #1 Идентификатор : 6 Формат : UTF-8 Идентификатор кодека : S_TEXT/UTF8 Идентификатор кодека/Информация : UTF-8 Plain Text Заголовок : Forced Язык : English Default : Да Forced : Нет

Текст #2 Идентификатор : 7 Формат : UTF-8 Идентификатор кодека : S_TEXT/UTF8 Идентификатор кодека/Информация : UTF-8 Plain Text Заголовок : Full Язык : English Default : Нет Forced : Нет

Текст #3 Идентификатор : 8 Формат : UTF-8 Идентификатор кодека : S_TEXT/UTF8 Идентификатор кодека/Информация : UTF-8 Plain Text Язык : English Default : Нет Forced : Нет

Текст #4 Идентификатор : 9 Формат : UTF-8 Идентификатор кодека : S_TEXT/UTF8 Идентификатор кодека/Информация : UTF-8 Plain Text Язык : English Default : Нет Forced : Нет

Меню 00:00:00.000 : en:00:00:00.000 00:03:33.338 : en:00:03:33.338 00:08:04.734 : en:00:08:04.734 00:10:34.217 : en:00:10:34.217 00:15:11.410 : en:00:15:11.410 00:18:44.248 : en:00:18:44.248 00:22:43.529 : en:00:22:43.529 00:24:38.769 : en:00:24:38.769 00:29:05.619 : en:00:29:05.619 00:33:03.440 : en:00:33:03.440 00:37:11.896 : en:00:37:11.896 00:38:49.827 : en:00:38:49.827 00:41:06.923 : en:00:41:06.923 00:43:50.336 : en:00:43:50.336 00:50:05.377 : en:00:50:05.377 00:52:07.082 : en:00:52:07.082 00:55:11.391 : en:00:55:11.391 00:57:56.348 : en:00:57:56.348 01:01:04.661 : en:01:01:04.661 01:04:01.421 : en:01:04:01.421 01:06:39.829 : en:01:06:39.829 01:10:22.802 : en:01:10:22.802 01:13:00.459 : en:01:13:00.459 01:16:28.334 : en:01:16:28.334 01:18:48.724 : en:01:18:48.724 01:20:44.590 : en:01:20:44.590 01:22:46.962 : en:01:22:46.962 01:28:07.574 : en:01:28:07.574 01:31:19.057 : en:01:31:19.057 01:33:50.958 : en:01:33:50.958 01:39:22.373 : en:01:39:22.373 01:42:10.291 : en:01:42:10.291 01:44:32.016 : en:01:44:32.016 01:49:13.547 : en:01:49:13.547 01:51:00.862 : en:01:51:00.862 01:54:54.304 : en:01:54:54.304 01:59:15.940 : en:01:59:15.940 02:02:13.743 : en:02:02:13.743 02:04:30.504 : en:02:04:30.504 02:08:16.230 : en:02:08:16.230 02:13:27.583 : en:02:13:27.583 02:16:57.250 : en:02:16:57.250 02:19:19.809 : en:02:19:19.809 02:27:34.011 : en:02:27:34.011

Релиз от:

Дни минувшего будущего. Версия "Роуг" через торрент в хорошем качестве бесплатно HDRip

piratbit.ru

Размер: 2.74 GB | Добавлен: 2 года 3 мес. назад | Торрент скачан:677 раз
Реклама Дарим 3000 рублей за регистрацию, не упусти свой шанс получить шикарный бонус!!!

14-07-2015 03:53 Люди Икс: Дни минувшего будущего. Версия "Роуг" Скачать торрент  

Люди Икс: Дни минувшего будущего. Версия "Роуг"

Год выпуска: 2014Страна: Великобритания, СШАЖанр: фантастика, боевик, триллер, приключенияПродолжительность: 02:28:02Перевод: Дубляж [iTunes]Тип релиза: Лицензия

Режиссер: Брайан СингерПродюссер: Саймон Кинберг, Хатч Паркер, Лорен Шулер ДоннерСценарий: Саймон Кинберг, Джейн Голдман, Мэттью Вон

Бюджет: $200 000 000Премьера в мире: 10 мая 2014

IMDB 8.10 (414 470)

В ролях: Джеймс МакЭвой, Майкл Фассбендер, Хью Джекман, Дженнифер Лоуренс, Николас Холт, Питер Динклэйдж, Иэн МакКеллен, Патрик Стюарт, Эллен Пейдж, Холли Берри, Евгений Вальц, Илья Исаев, Александр Рахленко, Сергей Чихачев, Татьяна Шитова

Описание: Абсолютно новая, не показанная в кинотеатрах версия фильма «Люди Икс: Дни минувшего будущего» еще глубже погрузит вас во вселенную Людей Икс. Когда армия безжалостных роботов Стражей начинает охоту на мутантов и людей, непобедимые персонажи предыдущих фильмов «Люди Икс» переселяются в юных себя, пытаясь изменить прошлое – и спасти будущее.

Доп. информация: UNRATE Версия, длиннее обычной на 17 минут!

Качество: HDRipФормат: AVIВидео кодек: XvidАудио кодек: AC3Видео: XviD, 1850 Кбит/сек, 720x304, 23.976 кадр/секАудио#1: AC3, 384 Кбит/сек, 6 каналов, 48 КГц - RusАудио#2: AC3, 384 Кбит/сек, 6 каналов, 48 КГц - Eng

GeneralComplete name : D:\Proba\Дни минувшего будущего. Версия Роуг(UNRATED).aviFormat : AVIFormat/Info : Audio Video InterleaveFormat profile : OpenDMLFile size : 2.74 GiBDuration : 2h 28mnOverall bit rate : 2 634 KbpsWriting application : VirtualDubMod 1.5.10.3 | www.virtualdub-fr.org || (build 2550/release)Writing library : VirtualDubMod build 2550/release

VideoID : 0Format : MPEG-4 VisualFormat profile : Advanced [email protected] settings, BVOP : 2Format settings, QPel : NoFormat settings, GMC : No warppointsFormat settings, Matrix : Default (MPEG)Codec ID : XVIDCodec ID/Hint : XviDDuration : 2h 28mnBit rate : 1 850 KbpsWidth : 720 pixelsHeight : 304 pixelsDisplay aspect ratio : 2.35:1Frame rate : 23.976 fpsColor space : YUVChroma subsampling : 4:2:0Bit depth : 8 bitsScan type : ProgressiveCompression mode : LossyBits/(Pixel*Frame) : 0.352Stream size : 1.92 GiB (70%)Writing library : XviD 1.2.1 (UTC 2008-12-04)

Audio #1ID : 1Format : AC-3Format/Info : Audio Coding 3Mode extension : CM (complete main)Format settings, Endianness : BigCodec ID : 2000Duration : 2h 28mnBit rate mode : ConstantBit rate : 384 KbpsChannel(s) : 6 channelsChannel positions : Front: L C R, Side: L R, LFESampling rate : 48.0 KHzCompression mode : LossyStream size : 409 MiB (15%)Alignment : Split accross interleavesInterleave, duration : 42 ms (1.00 video frame)Interleave, preload duratio : 500 ms

Audio #2ID : 2Format : AC-3Format/Info : Audio Coding 3Mode extension : CM (complete main)Format settings, Endianness : BigCodec ID : 2000Duration : 2h 28mnBit rate mode : ConstantBit rate : 384 KbpsChannel(s) : 6 channelsChannel positions : Front: L C R, Side: L R, LFESampling rate : 48.0 KHzCompression mode : LossyStream size : 409 MiB (15%)Alignment : Split accross interleavesInterleave, duration : 42 ms (1.00 video frame)Interleave, preload duratio : 500 ms

Люди Икс: Дни минувшего будущего скачать торрент

Скачать Люди Икс: Дни минувшего будущего. Версия "Роуг" через торрент http://pic.pb.wtf/images/11/p14lt.jpg Скачать фильм Люди Икс: Дни минувшего будущего. Версия "Роуг" через торрент бесплантно в хорошем качестве Описание: Абсолютно новая, не показанная в кинотеатрах фильма «Люди Икс: Дни минувшего будущего» еще глубже погрузит вас во ... 2015-07-14 03:53 9.5 10 35

Loading...

Loading...

Рекламный пират

Дорогой пользователь! Огромная просьба, поблагодарите релизера, оцените раздачу и оставьте свои комментарий, если Вы скачали Люди Икс: Дни минувшего будущего. Версия "Роуг" через торрент бесплатно! Внесите свою лепту в развитие PiratBit!

Комментировать посты могут только пользователи прошедшие не сложную регистрацию

Люди Икс: Дни минувшего будущего. Версия "Роуг" через торрент Скачать бесплатно Люди Икс: Дни минувшего будущего. Версия "Роуг" Люди Икс: Дни минувшего будущего. Версия "Роуг" скачать торрент Люди Икс: Дни минувшего будущего. Версия "Роуг" смотреть онлайн Cкачать фильм Люди Икс: Дни минувшего будущего. Версия "Роуг" бесплатно Люди Икс: Дни минувшего будущего. Версия "Роуг" скачать торрент в хорошем качестве Люди Икс: Дни минувшего будущего. Версия "Роуг" смотреть онлайн бесплатно в хорошем качестве

Вы не можете начинать темыВы не можете отвечать на сообщенияВы не можете редактировать свои сообщенияВы не можете удалять свои сообщенияВы не можете голосовать в опросахВы не можете прикреплять файлы к сообщениямВы можете скачивать файлы

Скачать Люди Икс: Дни минувшего будущего (Версия Роуг) / X-Men: Days of Future Past (The Rogue Cut) (2014) BDRip 1080p

ОбщееУникальный идентификатор : 226782287780229295427494598301069542650 (0xAA9CAE0D38F312479BD66FA22CEF04FA)Полное имя : F:\[2014] Люди Икс. Дни минувшего будущего [BDRip] [1080p] [The Rogue Cut].mkvФормат : MatroskaВерсия формата : Version 4 / Version 2Размер файла : 13,4 ГбайтПродолжительность : 2 ч. 28 м.Общий поток : 12,9 Мбит/секНазвание фильма : Люди Икс: Дни минувшего будущего / X-Men: Days of Future Past (2014) BDRip [1080p] [The Rogue Cut]Дата кодирования : UTC 2015-07-16 17:48:18Программа кодирования : mkvmerge v7.8.0 ('River Man') 32bit built on Mar 27 2015 16:18:02Библиотека кодирования : libebml v1.3.1 + libmatroska v1.4.2DURATION : 02:26:58.893000000NUMBER_OF_FRAMES : 1916NUMBER_OF_BYTES : 52842_STATISTICS_WRITING_APP : mkvmerge v7.8.0 ('River Man') 32bit built on Mar 27 2015 16:18:02_STATISTICS_WRITING_DATE_UTC : 2015-07-16 17:48:18_STATISTICS_TAGS : BPS DURATION NUMBER_OF_FRAMES NUMBER_OF_BYTES

ВидеоИдентификатор : 1Формат : AVCФормат/Информация : Advanced Video CodecПрофиль формата : [email protected]Параметр CABAC формата : ДаПараметр ReFrames формата : 4 кадраИдентификатор кодека : V_MPEG4/ISO/AVCПродолжительность : 2 ч. 28 м.Битрейт : 11,0 Мбит/секШирина : 1920 пикселейВысота : 800 пикселейСоотношение сторон : 2,40:1Режим частоты кадров : ПостоянныйЧастота кадров : 23,976 кадра/секЦветовое пространство : YUVСубдискретизация насыщенности : 4:2:0Битовая глубина : 8 битТип развёртки : ПрогрессивнаяБит/(Пиксели*Кадры) : 0.299Размер потока : 11,2 Гбайт (83%)Заголовок : [2014] Люди Икс: Дни минувшего будущего / X-Men: Days of Future Past [BDRip] [1080p] [The Rogue Cut]Библиотека кодирования : x264 core 146 r2538 121396cНастройки программы : cabac=1 / ref=4 / deblock=1:-3:-3 / analyse=0x3:0x33 / me=umh / subme=11 / psy=1 / psy_rd=1.00:0.00 / mixed_ref=1 / me_range=32 / chroma_me=1 / trellis=2 / 8x8dct=1 / cqm=0 / deadzone=21,11 / fast_pskip=0 / chroma_qp_offset=-2 / threads=12 / lookahead_threads=2 / sliced_threads=0 / nr=0 / decimate=0 / interlaced=0 / bluray_compat=0 / constrained_intra=0 / bframes=9 / b_pyramid=2 / b_adapt=2 / b_bias=0 / direct=3 / weightb=1 / open_gop=0 / weightp=2 / keyint=240 / keyint_min=23 / scenecut=40 / intra_refresh=0 / rc=2pass / mbtree=0 / bitrate=11000 / ratetol=1.0 / qcomp=0.60 / qpmin=0 / qpmax=69 / qpstep=4 / cplxblur=20.0 / qblur=0.5 / ip_ratio=1.40 / pb_ratio=1.30 / aq=3:0.90Язык : EnglishDefault : ДаForced : НетDURATION : 02:28:45.709000000NUMBER_OF_FRAMES : 214003NUMBER_OF_BYTES : 12269903756_STATISTICS_WRITING_APP : mkvmerge v7.8.0 ('River Man') 32bit built on Mar 27 2015 16:18:02_STATISTICS_WRITING_DATE_UTC : 2015-07-16 17:48:18_STATISTICS_TAGS : BPS DURATION NUMBER_OF_FRAMES NUMBER_OF_BYTES

Аудио #1Идентификатор : 2Формат : AC-3Формат/Информация : Audio Coding 3Расширение режима : CM (complete main)Параметр Endianness формата : BigИдентификатор кодека : A_AC3Продолжительность : 2 ч. 28 м.Вид битрейта : ПостоянныйБитрейт : 384 Кбит/секКаналы : 6 каналовРасположение каналов : Front: L C R, Side: L R, LFEЧастота : 48,0 КГцМетод сжатия : С потерямиРазмер потока : 409 Мбайт (3%)Заголовок : DUB - iTunesЯзык : RussianDefault : ДаForced : Нет

Аудио #2Идентификатор : 3Формат : DTSФормат/Информация : Digital Theater SystemsПрофиль формата : ESРежим : 16Параметр Endianness формата : BigИдентификатор кодека : A_DTSПродолжительность : 2 ч. 28 м.Вид битрейта : ПостоянныйБитрейт : 1509 Кбит/секКаналы : 6 каналовРасположение каналов : Front: L C R, Side: L R, LFEЧастота : 48,0 КГцБитовая глубина : 24 битМетод сжатия : С потерямиРазмер потока : 1,57 Гбайт (12%)Заголовок : OriginalЯзык : EnglishDefault : НетForced : Нет

Текст #1Идентификатор : 4Формат : UTF-8Идентификатор кодека : S_TEXT/UTF8Идентификатор кодека/Информация : UTF-8 Plain TextЗаголовок : Russian - Full - VoronineЯзык : RussianDefault : НетForced : Нет

Текст #2Идентификатор : 5Формат : UTF-8Идентификатор кодека : S_TEXT/UTF8Идентификатор кодека/Информация : UTF-8 Plain TextЗаголовок : Russian - ForcedЯзык : RussianDefault : ДаForced : Нет

Текст #3Идентификатор : 6Формат : UTF-8Идентификатор кодека : S_TEXT/UTF8Идентификатор кодека/Информация : UTF-8 Plain TextЗаголовок : English - FullЯзык : EnglishDefault : НетForced : Нет

Текст #4Идентификатор : 7Формат : UTF-8Идентификатор кодека : S_TEXT/UTF8Идентификатор кодека/Информация : UTF-8 Plain TextЗаголовок : English - ForcedЯзык : EnglishDefault : НетForced : Нет

Меню00:00:00.000 : en:00:00:00.00000:03:33.338 : en:00:03:33.33800:08:04.734 : en:00:08:04.73400:10:34.217 : en:00:10:34.21700:15:11.410 : en:00:15:11.41000:18:44.248 : en:00:18:44.24800:22:43.529 : en:00:22:43.52900:24:38.769 : en:00:24:38.76900:29:05.619 : en:00:29:05.61900:33:03.440 : en:00:33:03.44000:37:11.896 : en:00:37:11.89600:38:49.827 : en:00:38:49.82700:41:06.923 : en:00:41:06.92300:43:50.336 : en:00:43:50.33600:50:05.377 : en:00:50:05.37700:52:07.082 : en:00:52:07.08200:55:11.391 : en:00:55:11.39100:57:56.348 : en:00:57:56.34801:01:04.661 : en:01:01:04.66101:04:01.421 : en:01:04:01.42101:06:39.829 : en:01:06:39.82901:10:22.802 : en:01:10:22.80201:13:00.459 : en:01:13:00.45901:16:28.334 : en:01:16:28.33401:18:48.724 : en:01:18:48.72401:20:44.590 : en:01:20:44.59001:22:46.962 : en:01:22:46.96201:28:07.574 : en:01:28:07.57401:31:19.057 : en:01:31:19.05701:33:50.958 : en:01:33:50.95801:39:22.373 : en:01:39:22.37301:42:10.291 : en:01:42:10.29101:44:32.016 : en:01:44:32.01601:49:13.547 : en:01:49:13.54701:51:00.862 : en:01:51:00.86201:54:54.304 : en:01:54:54.30401:59:15.940 : en:01:59:15.94002:02:13.743 : en:02:02:13.74302:04:30.504 : en:02:04:30.50402:08:16.230 : en:02:08:16.23002:13:27.583 : en:02:13:27.58302:16:57.250 : en:02:16:57.25002:19:19.809 : en:02:19:19.80902:27:34.011 : en:02:27:34.011

freerutor.org


Смотрите также