На 50 оттенков темнее режиссерская версия скачать торрент


Скачать торрент На пятьдесят оттенков темнее / Fifty Shades Darker (2017) BDRip 1080p от ExKinoRay | Расширенная версия

Информация о фильмеНазвание: На пятьдесят оттенков темнееОригинальное название: Fifty Shades DarkerГод выхода: 2017Жанр: Драма, мелодрамаРежиссер: Джеймс ФоулиВ ролях: Дакота Джонсон, Джейми Дорнан, Эрик Джонсон, Элоиза Мамфорд, Белла Хиткот, Рита Ора, Люк Граймс, Виктор Расук, Макс Мартини, Брюс Олтмен

О фильме:Продолжение известной своей весьма селективной эротической направленностью экранизации романа Э.Л.Джеймс «Пятьдесят оттенков серого». Действующие лица все те же - приятного вида молодой любитель затейливо получаемых острых ощущений, обремененный ношей миллиардного состояния и юная, некогда романтично настроенная барышня. Однако расстановка силовых позиций в сформировавшейся паре медленно, но верно движется в сторону триллера: отношения между Анастейшей и Кристианом обостряются, когда в поле зрения появляются бывшие любовницы миллиардера — опытная и самоуверенная Элена (Ким Бейсингер) и крайне эмоциональная Лейла (Белла Хиткот). Итак, многогранный своими оттенками четырехугольник, психологические демоны Кристиана и неукротимая ревность Анастейши во второй части киноромана

Страна: СШАСтудия: Universal PicturesПродолжительность: 02:11:28Перевод: Дублированный | Лицензия

ФайлКачество: BDRip 1080pВидео: MPEG-4 AVC, 1920x800, 11.0 Mbit/s, 23.976 fpsЗвук: Аудио #01: 48 kHz, AC3, 5.1, 448 Kbps | Дублированный | RUS |Аудио #02: 48 kHz, DTS, 5.1, 1510 Kbps | Оригинал | ENG |

MI

General Unique ID : 213500188193652047582196032312607071861 (0xA09EA3FB92A3C9B383F1311BE6295E75) Complete name : F:VideoFifty.Shades.Darker.2017.UNRATED.Lic.BDRip.1080p.ExKinoRay.mkv Format : Matroska Format version : Version 4 / Version 2 File size : 11.9 GiB Duration : 2 h 11 min Overall bit rate : 13.0 Mb/s Encoded date : UTC 2017-05-26 10:47:08 Writing application : mkvmerge v12.0.0 ('Trust / Lust') 64bit Writing library : libebml v1.3.4 + libmatroska v1.4.5

Video ID : 1 Format : AVC Format/Info : Advanced Video Codec Format profile : [email protected] Format settings, CABAC : Yes Format settings, ReFrames : 5 frames Codec ID : V_MPEG4/ISO/AVC Duration : 2 h 11 min Bit rate : 11.0 Mb/s Width : 1 920 pixels Height : 800 pixels Display aspect ratio : 2.40:1 Frame rate mode : Constant Frame rate : 23.976 (24000/1001) FPS Color space : YUV Chroma subsampling : 4:2:0 Bit depth : 8 bits Scan type : Progressive Bits/(Pixel*Frame) : 0.299 Stream size : 10.1 GiB (85%) Writing library : x264 core 148 r2665kMod a01e339 Encoding settings : cabac=1 / ref=5 / deblock=1:-3:-3 / analyse=0x3:0x133 / me=umh / subme=11 / psy=1 / fade_compensate=0.00 / psy_rd=0.85:0.00 / mixed_ref=1 / me_range=48 / chroma_me=1 / trellis=2 / 8x8dct=1 / cqm=0 / deadzone=21,11 / fast_pskip=0 / chroma_qp_offset=-2 / threads=24 / lookahead_threads=4 / sliced_threads=0 / nr=0 / decimate=0 / interlaced=0 / bluray_compat=0 / constrained_intra=0 / fgo=0 / bframes=8 / b_pyramid=2 / b_adapt=2 / b_bias=0 / direct=3 / weightb=1 / open_gop=0 / weightp=2 / keyint=240 / keyint_min=24 / scenecut=40 / intra_refresh=0 / rc=2pass / mbtree=0 / bitrate=11000 / ratetol=1.0 / qcomp=0.70 / qpmin=0 / qpmax=69 / qpstep=4 / cplxblur=20.0 / qblur=0.5 / ip_ratio=1.20 / pb_ratio=1.20 / aq=3:0.80 Language : English Default : Yes Forced : No

Audio #1 ID : 2 Format : AC-3 Format/Info : Audio Coding 3 Format settings, Endianness : Big Codec ID : A_AC3 Duration : 2 h 11 min Bit rate mode : Constant Bit rate : 448 kb/s Channel(s) : 6 channels Channel positions : Front: L C R, Side: L R, LFE Sampling rate : 48.0 kHz Frame rate : 31.250 FPS (1536 spf) Bit depth : 16 bits Compression mode : Lossy Stream size : 421 MiB (3%) Title : Dub [License] Language : Russian Service kind : Complete Main Default : Yes Forced : No

Audio #2 ID : 3 Format : DTS Format/Info : Digital Theater Systems Mode : 16 Format settings, Endianness : Big Codec ID : A_DTS Duration : 2 h 11 min Bit rate mode : Constant Bit rate : 1 509 kb/s Channel(s) : 6 channels Channel positions : Front: L C R, Side: L R, LFE Sampling rate : 48.0 kHz Frame rate : 93.750 FPS (512 spf) Bit depth : 24 bits Compression mode : Lossy Stream size : 1.39 GiB (12%) Title : Original Language : English Default : No Forced : No

Menu 00:00:00.000 : en:00:00:00.000 00:05:47.722 : en:00:05:47.722 00:13:14.460 : en:00:13:14.460 00:18:18.055 : en:00:18:18.055 00:24:45.359 : en:00:24:45.359 00:29:19.675 : en:00:29:19.675 00:37:25.201 : en:00:37:25.201 00:44:31.794 : en:00:44:31.794 00:50:22.394 : en:00:50:22.394 00:57:58.058 : en:00:57:58.058 01:06:01.958 : en:01:06:01.958 01:11:54.936 : en:01:11:54.936 01:24:49.876 : en:01:24:49.876 01:30:39.851 : en:01:30:39.851 01:35:40.651 : en:01:35:40.651 01:41:00.221 : en:01:41:00.221 01:48:53.735 : en:01:48:53.735 01:55:57.701 : en:01:55:57.701 02:01:38.374 : en:02:01:38.374 02:05:32.149 : en:02:05:32.149

Релиз от: Автор релиза: Подпишись на меня:

mrutor.org

Скачать торрент На пятьдесят оттенков темнее / Fifty Shades Darker (2017) BDRip 1080p от ExKinoRay | Расширенная версия

Информация о фильмеНазвание: На пятьдесят оттенков темнееОригинальное название: Fifty Shades DarkerГод выхода: 2017Жанр: Драма, мелодрамаРежиссер: Джеймс ФоулиВ ролях: Дакота Джонсон, Джейми Дорнан, Эрик Джонсон, Элоиза Мамфорд, Белла Хиткот, Рита Ора, Люк Граймс, Виктор Расук, Макс Мартини, Брюс Олтмен

О фильме:Продолжение известной своей весьма селективной эротической направленностью экранизации романа Э.Л.Джеймс «Пятьдесят оттенков серого». Действующие лица все те же - приятного вида молодой любитель затейливо получаемых острых ощущений, обремененный ношей миллиардного состояния и юная, некогда романтично настроенная барышня. Однако расстановка силовых позиций в сформировавшейся паре медленно, но верно движется в сторону триллера: отношения между Анастейшей и Кристианом обостряются, когда в поле зрения появляются бывшие любовницы миллиардера — опытная и самоуверенная Элена (Ким Бейсингер) и крайне эмоциональная Лейла (Белла Хиткот). Итак, многогранный своими оттенками четырехугольник, психологические демоны Кристиана и неукротимая ревность Анастейши во второй части киноромана

Страна: СШАСтудия: Universal PicturesПродолжительность: 02:11:28Перевод: Дублированный | Лицензия

ФайлКачество: BDRip 1080pВидео: MPEG-4 AVC, 1920x800, 11.0 Mbit/s, 23.976 fpsЗвук: Аудио #01: 48 kHz, AC3, 5.1, 448 Kbps | Дублированный | RUS |Аудио #02: 48 kHz, DTS, 5.1, 1510 Kbps | Оригинал | ENG |

MI

General Unique ID : 213500188193652047582196032312607071861 (0xA09EA3FB92A3C9B383F1311BE6295E75) Complete name : F:VideoFifty.Shades.Darker.2017.UNRATED.Lic.BDRip.1080p.ExKinoRay.mkv Format : Matroska Format version : Version 4 / Version 2 File size : 11.9 GiB Duration : 2 h 11 min Overall bit rate : 13.0 Mb/s Encoded date : UTC 2017-05-26 10:47:08 Writing application : mkvmerge v12.0.0 ('Trust / Lust') 64bit Writing library : libebml v1.3.4 + libmatroska v1.4.5

Video ID : 1 Format : AVC Format/Info : Advanced Video Codec Format profile : [email protected] Format settings, CABAC : Yes Format settings, ReFrames : 5 frames Codec ID : V_MPEG4/ISO/AVC Duration : 2 h 11 min Bit rate : 11.0 Mb/s Width : 1 920 pixels Height : 800 pixels Display aspect ratio : 2.40:1 Frame rate mode : Constant Frame rate : 23.976 (24000/1001) FPS Color space : YUV Chroma subsampling : 4:2:0 Bit depth : 8 bits Scan type : Progressive Bits/(Pixel*Frame) : 0.299 Stream size : 10.1 GiB (85%) Writing library : x264 core 148 r2665kMod a01e339 Encoding settings : cabac=1 / ref=5 / deblock=1:-3:-3 / analyse=0x3:0x133 / me=umh / subme=11 / psy=1 / fade_compensate=0.00 / psy_rd=0.85:0.00 / mixed_ref=1 / me_range=48 / chroma_me=1 / trellis=2 / 8x8dct=1 / cqm=0 / deadzone=21,11 / fast_pskip=0 / chroma_qp_offset=-2 / threads=24 / lookahead_threads=4 / sliced_threads=0 / nr=0 / decimate=0 / interlaced=0 / bluray_compat=0 / constrained_intra=0 / fgo=0 / bframes=8 / b_pyramid=2 / b_adapt=2 / b_bias=0 / direct=3 / weightb=1 / open_gop=0 / weightp=2 / keyint=240 / keyint_min=24 / scenecut=40 / intra_refresh=0 / rc=2pass / mbtree=0 / bitrate=11000 / ratetol=1.0 / qcomp=0.70 / qpmin=0 / qpmax=69 / qpstep=4 / cplxblur=20.0 / qblur=0.5 / ip_ratio=1.20 / pb_ratio=1.20 / aq=3:0.80 Language : English Default : Yes Forced : No

Audio #1 ID : 2 Format : AC-3 Format/Info : Audio Coding 3 Format settings, Endianness : Big Codec ID : A_AC3 Duration : 2 h 11 min Bit rate mode : Constant Bit rate : 448 kb/s Channel(s) : 6 channels Channel positions : Front: L C R, Side: L R, LFE Sampling rate : 48.0 kHz Frame rate : 31.250 FPS (1536 spf) Bit depth : 16 bits Compression mode : Lossy Stream size : 421 MiB (3%) Title : Dub [License] Language : Russian Service kind : Complete Main Default : Yes Forced : No

Audio #2 ID : 3 Format : DTS Format/Info : Digital Theater Systems Mode : 16 Format settings, Endianness : Big Codec ID : A_DTS Duration : 2 h 11 min Bit rate mode : Constant Bit rate : 1 509 kb/s Channel(s) : 6 channels Channel positions : Front: L C R, Side: L R, LFE Sampling rate : 48.0 kHz Frame rate : 93.750 FPS (512 spf) Bit depth : 24 bits Compression mode : Lossy Stream size : 1.39 GiB (12%) Title : Original Language : English Default : No Forced : No

Menu 00:00:00.000 : en:00:00:00.000 00:05:47.722 : en:00:05:47.722 00:13:14.460 : en:00:13:14.460 00:18:18.055 : en:00:18:18.055 00:24:45.359 : en:00:24:45.359 00:29:19.675 : en:00:29:19.675 00:37:25.201 : en:00:37:25.201 00:44:31.794 : en:00:44:31.794 00:50:22.394 : en:00:50:22.394 00:57:58.058 : en:00:57:58.058 01:06:01.958 : en:01:06:01.958 01:11:54.936 : en:01:11:54.936 01:24:49.876 : en:01:24:49.876 01:30:39.851 : en:01:30:39.851 01:35:40.651 : en:01:35:40.651 01:41:00.221 : en:01:41:00.221 01:48:53.735 : en:01:48:53.735 01:55:57.701 : en:01:55:57.701 02:01:38.374 : en:02:01:38.374 02:05:32.149 : en:02:05:32.149

Релиз от: Автор релиза: Подпишись на меня:

krutor.org

Скачать торрент На пятьдесят оттенков темнее / Fifty Shades Darker (2017) BDRip 1080p от NNNB | Расширенная версия

krutor.org

Информация о фильме
    Русское название: На пятьдесят оттенков темнееОригинальное название: Fifty Shades DarkerГод выхода: 2017Жанр: драма, мелодрамаРежиссер: Джеймс ФоулиВыпущено: СШАПродолжительность: 02:11:28Перевод: ДублированныйВ ролях: Дакота Джонсон, Джейми Дорнан, Эрик Джонсон, Элоиза Мамфорд, Белла Хиткот, Рита Ора, Люк Граймс, Виктор Расук, Макс Мартини, Брюс Олтмен
Сюжет фильма
    Пока Кристиан Грей борется со своими внутренними демонами, Анастейша Стил вынуждена противостоять гневу и зависти тех женщин, что были с Кристианом до нее.
Файл
    Качество: BDRip 1080p \(исходник Blu-Ray Disc 1080p\)Формат: MKVВидео: 1920x800, 7550 Кбит/сек, 23,976 кадр/сек, AVC, x264, [email protected], 2.40:1, 0.205 Бит/[Пиксели*Кадры]Аудио 1: AC-3, 448 Кбит/сек, 6 канала(ов), 48,0 КГц - Дублированный / РусскийАудио 4: AC-3, 448 Кбит/сек, 6 канала(ов), 48,0 КГц - Оригинал / АнглийскийСубтитры: Русские | Полные, Английские | Полные Форсированные субтитры: РусскиеЧаптеры (Главы): ЕстьДополнительная информация: Внимание фильм рекомендован зрителям достигших возраста 18 лет

Автор Рипа: Группа:

MediaInfo

Format : Matroska Format version : Version 2 File size : 7.75 GiB Duration : 2 h 11 min Overall bit rate : 8 435 kb/s Movie name : Fifty Shades Darker.Unrated.(2017).BDRip.1080p.[envy] Encoded date : UTC 2017-05-29 17:13:00 Writing application : mkvmerge v5.8.0 ('No Sleep / Pillow') built on Sep 2 2012 15:37:04 Writing library : libebml v1.2.3 + libmatroska v1.3.0

Video ID : 1 Format : AVC Format/Info : Advanced Video Codec Format profile : [email protected] Format settings, CABAC : Yes Format settings, ReFrames : 5 frames Codec ID : V_MPEG4/ISO/AVC Duration : 2 h 11 min Bit rate : 7 550 kb/s Width : 1 920 pixels Height : 800 pixels Display aspect ratio : 2.40:1 Frame rate mode : Constant Frame rate : 23.976 (24000/1001) FPS Color space : YUV Chroma subsampling : 4:2:0 Bit depth : 8 bits Scan type : Progressive Bits/(Pixel*Frame) : 0.205 Stream size : 6.77 GiB (87%) Title : Fifty Shades Darker.Unrated.(2017).BDRip.1080p.[envy] Writing library : x264 core 150 r2833 df79067 Encoding settings : cabac=1 / ref=5 / deblock=1:-3:-3 / analyse=0x3:0x133 / me=umh / subme=11 / psy=1 / psy_rd=1.00:0.08 / mixed_ref=1 / me_range=32 / chroma_me=1 / trellis=2 / 8x8dct=1 / cqm=0 / deadzone=21,11 / fast_pskip=0 / chroma_qp_offset=-3 / threads=12 / lookahead_threads=1 / sliced_threads=0 / nr=0 / decimate=1 / interlaced=0 / bluray_compat=0 / constrained_intra=0 / bframes=5 / b_pyramid=2 / b_adapt=2 / b_bias=0 / direct=3 / weightb=1 / open_gop=0 / weightp=2 / keyint=240 / keyint_min=23 / scenecut=40 / intra_refresh=0 / rc=2pass / mbtree=0 / bitrate=7550 / ratetol=2.0 / qcomp=0.60 / qpmin=0 / qpmax=69 / qpstep=4 / cplxblur=20.0 / qblur=0.5 / ip_ratio=1.40 / pb_ratio=1.30 / aq=1:0.65 Language : English Default : Yes Forced : No

Audio #1 ID : 2 Format : AC-3 Format/Info : Audio Coding 3 Format settings, Endianness : Big Codec ID : A_AC3 Duration : 2 h 11 min Bit rate mode : Constant Bit rate : 448 kb/s Channel(s) : 6 channels Channel positions : Front: L C R, Side: L R, LFE Sampling rate : 48.0 kHz Frame rate : 31.250 FPS (1536 spf) Bit depth : 16 bits Compression mode : Lossy Stream size : 421 MiB (5%) Title : Dub Language : Russian Service kind : Complete Main Default : Yes Forced : No

Audio #2 ID : 3 Format : AC-3 Format/Info : Audio Coding 3 Format settings, Endianness : Big Codec ID : A_AC3 Duration : 2 h 11 min Bit rate mode : Constant Bit rate : 448 kb/s Channel(s) : 6 channels Channel positions : Front: L C R, Side: L R, LFE Sampling rate : 48.0 kHz Frame rate : 31.250 FPS (1536 spf) Bit depth : 16 bits Compression mode : Lossy Stream size : 421 MiB (5%) Title : Eng Language : English Service kind : Complete Main Default : No Forced : No

Text #1 ID : 4 Format : UTF-8 Codec ID : S_TEXT/UTF8 Codec ID/Info : UTF-8 Plain Text Title : Rus forced Language : Russian Default : Yes Forced : Yes

Text #2 ID : 5 Format : UTF-8 Codec ID : S_TEXT/UTF8 Codec ID/Info : UTF-8 Plain Text Title : Rus full Language : Russian Default : No Forced : No

Text #3 ID : 6 Format : UTF-8 Codec ID : S_TEXT/UTF8 Codec ID/Info : UTF-8 Plain Text Title : Eng full Language : English Default : No Forced : No

Menu 00:00:00.000 : :Chapter 01 00:05:47.722 : :Chapter 02 00:13:14.460 : :Chapter 03 00:18:18.055 : :Chapter 04 00:24:45.358 : :Chapter 05 00:29:19.674 : :Chapter 06 00:37:25.201 : :Chapter 07 00:44:31.794 : :Chapter 08 00:50:22.394 : :Chapter 09 00:57:58.057 : :Chapter 10 01:06:01.957 : :Chapter 11 01:11:54.935 : :Chapter 12 01:24:49.876 : :Chapter 13 01:30:39.850 : :Chapter 14 01:35:40.651 : :Chapter 15 01:41:00.220 : :Chapter 16 01:48:53.735 : :Chapter 17 01:55:57.700 : :Chapter 18 02:01:38.374 : :Chapter 19 02:05:32.149 : :Chapter 20

Скачать торрент На пятьдесят оттенков темнее / Fifty Shades Darker (2017) BDRip 1080p от NNNB | Расширенная версия

mrutor.org

Информация о фильме
    Русское название: На пятьдесят оттенков темнееОригинальное название: Fifty Shades DarkerГод выхода: 2017Жанр: драма, мелодрамаРежиссер: Джеймс ФоулиВыпущено: СШАПродолжительность: 02:11:28Перевод: ДублированныйВ ролях: Дакота Джонсон, Джейми Дорнан, Эрик Джонсон, Элоиза Мамфорд, Белла Хиткот, Рита Ора, Люк Граймс, Виктор Расук, Макс Мартини, Брюс Олтмен
Сюжет фильма
    Пока Кристиан Грей борется со своими внутренними демонами, Анастейша Стил вынуждена противостоять гневу и зависти тех женщин, что были с Кристианом до нее.
Файл
    Качество: BDRip 1080p \(исходник Blu-Ray Disc 1080p\)Формат: MKVВидео: 1920x800, 7550 Кбит/сек, 23,976 кадр/сек, AVC, x264, [email protected], 2.40:1, 0.205 Бит/[Пиксели*Кадры]Аудио 1: AC-3, 448 Кбит/сек, 6 канала(ов), 48,0 КГц - Дублированный / РусскийАудио 4: AC-3, 448 Кбит/сек, 6 канала(ов), 48,0 КГц - Оригинал / АнглийскийСубтитры: Русские | Полные, Английские | Полные Форсированные субтитры: РусскиеЧаптеры (Главы): ЕстьДополнительная информация: Внимание фильм рекомендован зрителям достигших возраста 18 лет

Автор Рипа: Группа:

MediaInfo

Format : Matroska Format version : Version 2 File size : 7.75 GiB Duration : 2 h 11 min Overall bit rate : 8 435 kb/s Movie name : Fifty Shades Darker.Unrated.(2017).BDRip.1080p.[envy] Encoded date : UTC 2017-05-29 17:13:00 Writing application : mkvmerge v5.8.0 ('No Sleep / Pillow') built on Sep 2 2012 15:37:04 Writing library : libebml v1.2.3 + libmatroska v1.3.0

Video ID : 1 Format : AVC Format/Info : Advanced Video Codec Format profile : [email protected] Format settings, CABAC : Yes Format settings, ReFrames : 5 frames Codec ID : V_MPEG4/ISO/AVC Duration : 2 h 11 min Bit rate : 7 550 kb/s Width : 1 920 pixels Height : 800 pixels Display aspect ratio : 2.40:1 Frame rate mode : Constant Frame rate : 23.976 (24000/1001) FPS Color space : YUV Chroma subsampling : 4:2:0 Bit depth : 8 bits Scan type : Progressive Bits/(Pixel*Frame) : 0.205 Stream size : 6.77 GiB (87%) Title : Fifty Shades Darker.Unrated.(2017).BDRip.1080p.[envy] Writing library : x264 core 150 r2833 df79067 Encoding settings : cabac=1 / ref=5 / deblock=1:-3:-3 / analyse=0x3:0x133 / me=umh / subme=11 / psy=1 / psy_rd=1.00:0.08 / mixed_ref=1 / me_range=32 / chroma_me=1 / trellis=2 / 8x8dct=1 / cqm=0 / deadzone=21,11 / fast_pskip=0 / chroma_qp_offset=-3 / threads=12 / lookahead_threads=1 / sliced_threads=0 / nr=0 / decimate=1 / interlaced=0 / bluray_compat=0 / constrained_intra=0 / bframes=5 / b_pyramid=2 / b_adapt=2 / b_bias=0 / direct=3 / weightb=1 / open_gop=0 / weightp=2 / keyint=240 / keyint_min=23 / scenecut=40 / intra_refresh=0 / rc=2pass / mbtree=0 / bitrate=7550 / ratetol=2.0 / qcomp=0.60 / qpmin=0 / qpmax=69 / qpstep=4 / cplxblur=20.0 / qblur=0.5 / ip_ratio=1.40 / pb_ratio=1.30 / aq=1:0.65 Language : English Default : Yes Forced : No

Audio #1 ID : 2 Format : AC-3 Format/Info : Audio Coding 3 Format settings, Endianness : Big Codec ID : A_AC3 Duration : 2 h 11 min Bit rate mode : Constant Bit rate : 448 kb/s Channel(s) : 6 channels Channel positions : Front: L C R, Side: L R, LFE Sampling rate : 48.0 kHz Frame rate : 31.250 FPS (1536 spf) Bit depth : 16 bits Compression mode : Lossy Stream size : 421 MiB (5%) Title : Dub Language : Russian Service kind : Complete Main Default : Yes Forced : No

Audio #2 ID : 3 Format : AC-3 Format/Info : Audio Coding 3 Format settings, Endianness : Big Codec ID : A_AC3 Duration : 2 h 11 min Bit rate mode : Constant Bit rate : 448 kb/s Channel(s) : 6 channels Channel positions : Front: L C R, Side: L R, LFE Sampling rate : 48.0 kHz Frame rate : 31.250 FPS (1536 spf) Bit depth : 16 bits Compression mode : Lossy Stream size : 421 MiB (5%) Title : Eng Language : English Service kind : Complete Main Default : No Forced : No

Text #1 ID : 4 Format : UTF-8 Codec ID : S_TEXT/UTF8 Codec ID/Info : UTF-8 Plain Text Title : Rus forced Language : Russian Default : Yes Forced : Yes

Text #2 ID : 5 Format : UTF-8 Codec ID : S_TEXT/UTF8 Codec ID/Info : UTF-8 Plain Text Title : Rus full Language : Russian Default : No Forced : No

Text #3 ID : 6 Format : UTF-8 Codec ID : S_TEXT/UTF8 Codec ID/Info : UTF-8 Plain Text Title : Eng full Language : English Default : No Forced : No

Menu 00:00:00.000 : :Chapter 01 00:05:47.722 : :Chapter 02 00:13:14.460 : :Chapter 03 00:18:18.055 : :Chapter 04 00:24:45.358 : :Chapter 05 00:29:19.674 : :Chapter 06 00:37:25.201 : :Chapter 07 00:44:31.794 : :Chapter 08 00:50:22.394 : :Chapter 09 00:57:58.057 : :Chapter 10 01:06:01.957 : :Chapter 11 01:11:54.935 : :Chapter 12 01:24:49.876 : :Chapter 13 01:30:39.850 : :Chapter 14 01:35:40.651 : :Chapter 15 01:41:00.220 : :Chapter 16 01:48:53.735 : :Chapter 17 01:55:57.700 : :Chapter 18 02:01:38.374 : :Chapter 19 02:05:32.149 : :Chapter 20

Скачать торрент На пятьдесят оттенков темнее / Fifty Shades Darker (2017) BDRip-AVC от ExKinoRay | Расширенная версия

Информация о фильмеНазвание: На пятьдесят оттенков темнееОригинальное название: Fifty Shades DarkerГод выпуска: 2017Жанр: Драма, мелодрамаРежиссер: Джеймс ФоулиВ ролях: Дакота Джонсон, Джейми Дорнан, Эрик Джонсон, Элоиза Мамфорд, Белла Хиткот, Рита Ора, Люк Граймс, Виктор Расук, Макс Мартини, Брюс Олтмен

О фильме: Продолжение известной своей весьма селективной эротической направленностью экранизации романа Э.Л.Джеймс «Пятьдесят оттенков серого». Напуганная тёмными секретами и внутренними демонами Кристиана Грея Анастейша Стил решает порвать с ним и вскоре устраивается на работу в небольшое издательство в Сиэтле. Но желания Кристиана по-прежнему доминируют над ним. Предложив Анастейше встретиться, он готов пересмотреть условия соглашения и даже раскрыть все свои тёмные тайны. Когда, наконец, кажется, что всё идёт идеально, Анастейша сталкивается с гневом и завистью тех женщин, которые были с Кристианом до встречи с ней.

Страна: СШАСтудия: Universal PicturesПродолжительность: 02:11:28Перевод: Дублированный | Лицензия

ФайлКачество: BDRip \(AVC\)Видео: MPEG-4 AVC, 1024x426 (2.40:1), 23.976 fps, ~1562 kbps avg, 0.149 bit/pixelАудио #1: AC-3, 48.0 KHz, 6 ch, 448 Kbps, CBR (Russian)Аудио #2: AC-3, 48.0 KHz, 6 ch, 448 Kbps, CBR (English)Субтитры: Aнглийские (Full, SDH, Colored)

Примечание

UNRATED - расширенная версия длиннее театральной на ~14 минут. Более развернутые эротические сцены

MI

General Unique ID : 188633024115593675072011066178808606086 (0x8DE9662288D2D14F8B6B6B20C5E86D86) Complete name : D:Fifty.Shades.Darker.2017.UNRATED.BDRip.AVC.ExKinoRay.mkv Format : Matroska Format version : Version 2 File size : 2.26 GiB Duration : 2 h 11 min Overall bit rate : 2 459 kb/s Movie name : Fifty Shades Darker (2017) from ExKinoRay Encoded date : UTC 2017-05-26 11:42:06 Writing application : mkvmerge v5.8.0 ('No Sleep / Pillow') built on Sep 2 2012 15:37:04 Writing library : libebml v1.2.3 + libmatroska v1.3.0

Video ID : 1 Format : AVC Format/Info : Advanced Video Codec Format profile : [email protected] Format settings, CABAC : Yes Format settings, ReFrames : 12 frames Codec ID : V_MPEG4/ISO/AVC Duration : 2 h 11 min Bit rate : 1 562 kb/s Width : 1 024 pixels Height : 426 pixels Display aspect ratio : 2.40:1 Frame rate mode : Constant Frame rate : 23.976 (24000/1001) FPS Color space : YUV Chroma subsampling : 4:2:0 Bit depth : 8 bits Scan type : Progressive Bits/(Pixel*Frame) : 0.149 Stream size : 1.39 GiB (62%) Title : Enigma Writing library : x264 core 144 r2525 40bb568 Encoding settings : cabac=1 / ref=12 / deblock=1:-2:-2 / analyse=0x3:0x113 / me=umh / subme=10 / psy=1 / psy_rd=1.00:0.03 / mixed_ref=1 / me_range=32 / chroma_me=1 / trellis=2 / 8x8dct=1 / cqm=0 / deadzone=21,11 / fast_pskip=1 / chroma_qp_offset=-3 / threads=12 / lookahead_threads=3 / sliced_threads=0 / nr=0 / decimate=0 / interlaced=0 / bluray_compat=0 / constrained_intra=0 / bframes=12 / b_pyramid=2 / b_adapt=2 / b_bias=0 / direct=3 / weightb=1 / open_gop=0 / weightp=2 / keyint=240 / keyint_min=23 / scenecut=40 / intra_refresh=0 / rc_lookahead=40 / rc=2pass / mbtree=0 / bitrate=1562 / ratetol=1.0 / qcomp=0.60 / qpmin=0 / qpmax=51 / qpstep=4 / cplxblur=20.0 / qblur=0.5 / vbv_maxrate=50000 / vbv_bufsize=62500 / nal_hrd=none / filler=0 / ip_ratio=1.40 / pb_ratio=1.30 / aq=1:0.90 Language : English Default : Yes Forced : No Color range : Limited Color primaries : BT.709 Transfer characteristics : BT.709 Matrix coefficients : BT.709

Audio #1 ID : 2 Format : AC-3 Format/Info : Audio Coding 3 Mode extension : CM (complete main) Format settings, Endianness : Big Codec ID : A_AC3 Duration : 2 h 11 min Bit rate mode : Constant Bit rate : 448 kb/s Channel(s) : 6 channels Channel positions : Front: L C R, Side: L R, LFE Sampling rate : 48.0 kHz Frame rate : 31.250 FPS (1536 spf) Compression mode : Lossy Stream size : 421 MiB (18%) Title : Dub (Лицензия) Language : Russian Default : Yes Forced : No

Audio #2 ID : 3 Format : AC-3 Format/Info : Audio Coding 3 Mode extension : CM (complete main) Format settings, Endianness : Big Codec ID : A_AC3 Duration : 2 h 11 min Bit rate mode : Constant Bit rate : 448 kb/s Channel(s) : 6 channels Channel positions : Front: L C R, Side: L R, LFE Sampling rate : 48.0 kHz Frame rate : 31.250 FPS (1536 spf) Compression mode : Lossy Stream size : 421 MiB (18%) Language : English Default : No Forced : No

Text #1 ID : 4 Format : UTF-8 Codec ID : S_TEXT/UTF8 Codec ID/Info : UTF-8 Plain Text Title : Full Language : English Default : No Forced : No

Text #2 ID : 5 Format : UTF-8 Codec ID : S_TEXT/UTF8 Codec ID/Info : UTF-8 Plain Text Title : SDH Language : English Default : No Forced : No

Text #3 ID : 6 Format : UTF-8 Codec ID : S_TEXT/UTF8 Codec ID/Info : UTF-8 Plain Text Title : Colored Language : English Default : No Forced : No

Menu 00:00:00.000 : en:00:00:00.000 00:05:47.722 : en:00:05:47.722 00:13:14.460 : en:00:13:14.460 00:18:18.055 : en:00:18:18.055 00:24:45.359 : en:00:24:45.359 00:29:19.675 : en:00:29:19.675 00:37:25.201 : en:00:37:25.201 00:44:31.794 : en:00:44:31.794 00:50:22.394 : en:00:50:22.394 00:57:58.058 : en:00:57:58.058 01:06:01.958 : en:01:06:01.958 01:11:54.936 : en:01:11:54.936 01:24:49.876 : en:01:24:49.876 01:30:39.851 : en:01:30:39.851 01:35:40.651 : en:01:35:40.651 01:41:00.221 : en:01:41:00.221 01:48:53.735 : en:01:48:53.735 01:55:57.701 : en:01:55:57.701 02:01:38.374 : en:02:01:38.374 02:05:32.149 : en:02:05:32.149

Релиз от:

Автор релиза:

mrutor.org

2017 hd 720, 1080

vtorrents.net

!

: : Fifty Shades Darker : 2017: , : : , , , , , , , , ,

IMDB: 4.6/10 (45 168 ) : 5.1/10 (28 815 )

:, , .

: : 1 58 : [iTunes]

: AVI (XviD): WEB-DLRip

644

579

udp://shubt.net:2710

31 13 67

http://tracker.filetracker.pl:8089/announce

15 27 53

http://tracker2.wasabii.com.tw:6969/announce

51 66 12

http://tracker.grepler.com:6969/announce

12 32 36

http://80.246.243.18:6969/announce

26 55 86

http://125.227.35.196:6969/announce

54 97 70

http://tracker.tiny-vps.com:6969/announce

56 37 66

http://87.248.186.252:8080/announce

1 59 36

http://www.torrentheaven.de/announce.php

42 86 44

http://tracker.mp3-es.com/announce.php

91 19 96

http://tracker.calculate.ru:6969/announce

98 42 54

http://210.244.71.25:6969/announce

76 5 500

http://46.4.109.148:6969/announce

72 10 44

http://tracker.dler.org:6969/announce

19 31 53

2,05 Gb

8351

Fifty.Shades.Darker.2o17.D.WEB-DLRip.21OOMB.avi (2,05 Gb)

726

683

udp://shubt.net:2710

54 75 32

udp://tracker.openbittorrent.com:80/announce

49 46 97

udp://tracker.publicbt.com:80/announce

48 34 13

http://tracker.filetracker.pl:8089/announce

98 23 48

http://tracker2.wasabii.com.tw:6969/announce

57 66 49

http://tracker.grepler.com:6969/announce

33 10 21

http://80.246.243.18:6969/announce

49 99 32

http://125.227.35.196:6969/announce

83 36 91

http://tracker.tiny-vps.com:6969/announce

14 39 36

http://87.248.186.252:8080/announce

1 1 45

http://www.torrentheaven.de/announce.php

35 88 98

http://tracker.mp3-es.com/announce.php

12 80 36

http://tracker.calculate.ru:6969/announce

12 10 66

http://210.244.71.25:6969/announce

40 7 33

http://46.4.109.148:6969/announce

81 11 47

http://tracker.dler.org:6969/announce

60 58 42

3,83 Gb

625

Fifty.Shades.Darker.2017.WEB-DL.720p.ExKinoRay.mkv (3,83 Gb)

937

735

udp://shubt.net:2710

74 57 46

http://tracker.filetracker.pl:8089/announce

89 90 31

http://tracker2.wasabii.com.tw:6969/announce

21 57 42

http://tracker.grepler.com:6969/announce

97 56 90

http://80.246.243.18:6969/announce

73 25 70

http://125.227.35.196:6969/announce

100 96 26

http://tracker.tiny-vps.com:6969/announce

92 16 78

http://87.248.186.252:8080/announce

26 69 75

http://www.torrentheaven.de/announce.php

60 54 34

http://tracker.mp3-es.com/announce.php

32 69 58

http://tracker.calculate.ru:6969/announce

24 33 15

http://210.244.71.25:6969/announce

157 4 806

http://46.4.109.148:6969/announce

36 83 71

http://tracker.dler.org:6969/announce

56 26 81

4,06 Gb

572

Fifty.Shades.Darker.2o17.D.WEB-DL.1O8OP.mkv (4,06 Gb)

Смотрите также