Отряд самоубийц режиссерская версия скачать торрент


Скачать торрент Отряд самоубийц / Suicide Squad (2016) BDRip 1080p от New-Team & qqss44 | Театральная версия

x264 [info]: frame I:1201 Avg QP:16.19 size:223245 x264 [info]: frame P:42292 Avg QP:18.66 size: 74338 x264 [info]: frame B:133293 Avg QP:20.36 size: 33660

Общее Уникальный идентификатор : 208521058587783174690757096830308457364 (0x9CDFB1F090304223A74E8E28B2641B94) Полное имя : X:ATorrentSuicide.Squad.(2016).BDRip.1080p.(qqss44).mkv Формат : Matroska Версия формата : Version 2 Размер файла : 7,74 Гбайт Продолжительность : 2 ч. 2 м. Общий поток : 9020 Кбит/сек Название фильма : Suicide.Squad.(2016).BDRip.1080p.(qqss44) Дата кодирования : UTC 2016-12-03 10:47:47 Программа кодирования : mkvmerge v7.9.0 ('Birds') 64bit Библиотека кодирования : libebml v1.3.1 + libmatroska v1.4.2

Видео Идентификатор : 1 Формат : AVC Формат/Информация : Advanced Video Codec Профиль формата : [email protected] Параметр CABAC формата : Да Параметр ReFrames формата : 5 кадров Идентификатор кодека : V_MPEG4/ISO/AVC Продолжительность : 2 ч. 2 м. Битрейт : 8575 Кбит/сек Ширина : 1920 пикселей Высота : 800 пикселей Соотношение сторон : 2,40:1 Режим частоты кадров : Постоянный Частота кадров : 23,976 (24000/1001) кадра/сек Цветовое пространство : YUV Субдискретизация насыщенности : 4:2:0 Битовая глубина : 8 бит Тип развёртки : Прогрессивная Бит/(Пиксели*Кадры) : 0.233 Размер потока : 7,36 Гбайт (95%) Заголовок : Suicide.Squad.(2016).BDRip.1080p.(qqss44) Библиотека кодирования : x264 core 148 r2721kMod 72d53ab Настройки программы : cabac=1 / ref=5 / deblock=1:-3:-3 / analyse=0x3:0x133 / me=umh / subme=11 / psy=1 / fade_compensate=0.00 / psy_rd=1.00:0.00 / mixed_ref=1 / me_range=32 / chroma_me=1 / trellis=2 / 8x8dct=1 / cqm=0 / deadzone=21,11 / fast_pskip=0 / chroma_qp_offset=-2 / threads=12 / lookahead_threads=2 / sliced_threads=0 / nr=0 / decimate=0 / interlaced=0 / bluray_compat=0 / constrained_intra=0 / fgo=0 / bframes=9 / b_pyramid=2 / b_adapt=2 / b_bias=0 / direct=3 / weightb=1 / open_gop=0 / weightp=2 / keyint=240 / keyint_min=23 / scenecut=40 / intra_refresh=0 / rc=2pass / mbtree=0 / bitrate=8575 / ratetol=1.0 / qcomp=0.60 / qpmin=0 / qpmax=69 / qpstep=4 / cplxblur=20.0 / qblur=0.5 / ip_ratio=1.40 / pb_ratio=1.30 / aq=3:0.80 Язык : English Default : Да Forced : Нет

Аудио Идентификатор : 2 Формат : AC-3 Формат/Информация : Audio Coding 3 Расширение режима : CM (complete main) Параметр Endianness формата : Big Идентификатор кодека : A_AC3 Продолжительность : 2 ч. 2 м. Вид битрейта : Постоянный Битрейт : 448 Кбит/сек Каналы : 6 каналов Расположение каналов : Front: L C R, Side: L R, LFE Частота : 48,0 КГц Частота кадров : 31,250 кадров/сек (1536 spf) Метод сжатия : С потерями Размер потока : 394 Мбайт (5%) Заголовок : DUB | DD5.1 @ 448 kbps Язык : Russian Default : Да Forced : Нет

Текст #1 Идентификатор : 3 Формат : UTF-8 Идентификатор кодека : S_TEXT/UTF8 Идентификатор кодека/Информация : UTF-8 Plain Text Продолжительность : 1 ч. 52 м. Битрейт : 5 бит/сек Count of elements : 106 Размер потока : 4,63 Кбайт (0%) Заголовок : Forced Язык : Russian Default : Да Forced : Нет

Текст #2 Идентификатор : 4 Формат : UTF-8 Идентификатор кодека : S_TEXT/UTF8 Идентификатор кодека/Информация : UTF-8 Plain Text Продолжительность : 2 ч. 2 м. Битрейт : 70 бит/сек Count of elements : 1388 Размер потока : 63,1 Кбайт (0%) Заголовок : Full Язык : Russian Default : Нет Forced : Нет

Меню 00:00:00.000 : en:00:00:00.000 00:09:07.505 : en:00:09:07.505 00:19:03.726 : en:00:19:03.726 00:29:27.140 : en:00:29:27.140 00:39:17.313 : en:00:39:17.313 00:50:21.227 : en:00:50:21.227 01:00:10.106 : en:01:00:10.106 01:11:46.928 : en:01:11:46.928 01:22:46.128 : en:01:22:46.128 01:32:01.099 : en:01:32:01.099 01:39:21.831 : en:01:39:21.831 01:52:27.991 : en:01:52:27.991

krutor.org

Скачать торрент Отряд самоубийц / Suicide Squad (2016) BDRip-AVC | Театральная версия

Отряд самоубийц / Suicide Squad

Страна: США Производство: Warner Bros. Pictures, DC Entertainment, DC Comics, Dune Entertainment, Atlas EntertainmentГод выпуска: 2016Жанр: фантастика, фэнтези, боевик, триллер, криминалПродолжительность: 02:02:53

Режиссер: Дэвид ЭйрАвторы сценария: Дэвид Эйр, Джон Острандер

В ролях: Марго Робби, Уилл Смит, Джаред Лето, Джай Кортни, Кара Делевинь, Джей Эрнандес, Юэль Киннаман, Виола Дэвис, Скотт Иствуд

Описание: Правительство решает дать команде суперзлодеев шанс на искупление. Подвох в том, что их отправляют на миссию, где они, вероятнее всего, погибнут...

Перевод: Профессиональный (полное дублирование) | лицензияСубтитры: русские (forced + full), английские (full)

Качество: BDRip-AVC | исходник SUICIDE_SQUAD_3D_TC_HDCLUBФормат: МКVВидео кодек: AVCАудио кодек: АС3Видео: 1152x480 (2.40:1), 23.976 fps, MPEG-4 AVC ~2 386 kbps avgАудио №1: 48.0 kHz, AC3 Dolby Digital, 3/2 (L,C,R,l,r) + LFE ch, ~448 kbps | RUSАудио №2: 48.0 kHz, AC3 Dolby Digital, 3/2 (L,C,R,l,r) + LFE ch, ~448 kbps | ENGФормат субтитров: UTF-8 Plain Text

Дата премьеры (мир): 1 августа 2016Дата премьеры (РФ): 4 августа 2016, «Каро-Премьер»

Релиз от: AFM

Media Info

General Format : Matroska Format version : Version 4 / Version 2 File size : 2.87 GiB Duration : 2h 2 min Overall bit rate : 3 348 kb/s Movie name : Отряд самоубийц / Suicide Squad (2016) :: AFM :: Encoded date : UTC 2016-12-02 02:11:15 Writing application : mkvmerge v8.3.0 ('Over the Horizon') 32bit Writing library : libebml v1.3.1 + libmatroska v1.4.2

Video ID : 1 Format : AVC Format/Info : Advanced Video Codec Format profile : [email protected] Format settings, CABAC : Yes Format settings, ReFrames : 11 frames Codec ID : V_MPEG4/ISO/AVC Duration : 2h 2 min Bit rate : 2 386 kb/s Width : 1 152 pixels Height : 480 pixels Display aspect ratio : 2.40:1 Frame rate mode : Constant Frame rate : 23.976 (24000/1001) FPS Color space : YUV Chroma subsampling : 4:2:0 Bit depth : 8 bits Scan type : Progressive Bits/(Pixel*Frame) : 0.180 Stream size : 2.05 GiB (71%) Title : BDRip by AFM Writing library : x264 core 148 r2721+55 e19946b t_mod_Custom [[email protected] X86_64] Encoding settings : cabac=1 / ref=11 / deblock=1:-3:-2 / analyse=0x3:0x113 / me=umh / subme=10 / psy=1 / fade_compensate=0.00 / psy_rd=1.00:0.00 / mixed_ref=1 / me_range=32 / chroma_me=1 / trellis=2 / 8x8dct=1 / cqm=0 / deadzone=21,11 / fast_pskip=0 / chroma_qp_offset=-2 / threads=6 / lookahead_threads=1 / sliced_threads=0 / nr=0 / decimate=1 / interlaced=0 / bluray_compat=0 / constrained_intra=0 / fgo=0 / bframes=12 / b_pyramid=2 / b_adapt=2 / b_bias=0 / direct=1 / weightb=1 / open_gop=0 / weightp=2 / keyint=240 / keyint_min=23 / scenecut=40 / intra_refresh=0 / rc_lookahead=40 / rc=crf / mbtree=0 / crf=18.8500 / qcomp=0.65 / qpmin=0:0:0 / qpmax=69:69:69 / qpstep=4 / vbv_maxrate=50000 / vbv_bufsize=62500 / crf_max=0.0 / nal_hrd=none / filler=0 / ip_ratio=1.35 / pb_ratio=1.27 / aq=3:0.85 / aq-sensitivity=10.00 / aq-factor=1.00:1.00:1.00 / aq2=0 / aq3=0 Language : English Default : Yes Forced : No

Audio #1 ID : 2 Format : AC-3 Format/Info : Audio Coding 3 Mode extension : CM (complete main) Format settings, Endianness : Big Codec ID : A_AC3 Duration : 2h 2 min Bit rate mode : Constant Bit rate : 448 kb/s Channel(s) : 6 channels Channel positions : Front: L C R, Side: L R, LFE Sampling rate : 48.0 kHz Frame rate : 31.250 FPS (1536 spf) Compression mode : Lossy Stream size : 394 MiB (13%) Title : Dub, AC3 5.1 ~448 kbps Language : Russian Default : Yes Forced : No

Audio #2 ID : 3 Format : AC-3 Format/Info : Audio Coding 3 Mode extension : CM (complete main) Format settings, Endianness : Big Codec ID : A_AC3 Duration : 2h 2 min Bit rate mode : Constant Bit rate : 448 kb/s Channel(s) : 6 channels Channel positions : Front: L C R, Side: L R, LFE Sampling rate : 48.0 kHz Frame rate : 31.250 FPS (1536 spf) Compression mode : Lossy Stream size : 394 MiB (13%) Title : Original, AC3 5.1 ~448 kbps Language : English Default : No Forced : No

Text #1 ID : 4 Format : UTF-8 Codec ID : S_TEXT/UTF8 Codec ID/Info : UTF-8 Plain Text Title : forced Language : Russian Default : Yes Forced : No

Text #2 ID : 5 Format : UTF-8 Codec ID : S_TEXT/UTF8 Codec ID/Info : UTF-8 Plain Text Language : Russian Default : No Forced : No

Text #3 ID : 6 Format : UTF-8 Codec ID : S_TEXT/UTF8 Codec ID/Info : UTF-8 Plain Text Language : English Default : No Forced : No

Menu 00:00:00.000 : Chapter 01 00:09:07.505 : Chapter 02 00:19:03.726 : Chapter 03 00:29:27.140 : Chapter 04 00:39:17.313 : Chapter 05 00:50:21.227 : Chapter 06 01:00:10.106 : Chapter 07 01:11:46.928 : Chapter 08 01:22:46.128 : Chapter 09 01:32:01.099 : Chapter 10 01:39:21.831 : Chapter 11 01:52:27.991 : Chapter 12

mrutor.org

Скачать фильм Отряд самоубийц через торрент в хорошем качестве бесплатно WEB-DLRip

Размер: 1.37 GB | Добавлен: 11 мес. назад | Торрент скачан:779 раз
Реклама Дарим 3000 рублей за регистрацию, не упусти свой шанс получить шикарный бонус!!!

15-11-2016 07:43 Отряд самоубийц Скачать торрент  

Отряд самоубийц / Suicide Squad Год выпуска: 2016Страна: СШАЖанр: фантастика, фэнтези, боевик, приключения

Продолжительность: 02:02:50Перевод: Дубляж - [Чистый звук]

Режиссер: Дэвид ЭйрВ ролях: Марго Робби (Harley Quinn), Уилл Смит (Deadshot), Джаред Лето (The Joker), Джай Кортни (George Harkness / Captain Boomerang), Кара Делевинь (June Moone / Enchantress), Джей Эрнандес (Diablo), Юэль Киннаман (Rick Flag), Виола Дэвис (Amanda Waller), Адевале Акинойе-Агбаже (Killer Croc), Скотт Иствуд (Lieutenant GQ Edwards), Джейм Фицсаймонс (Sergeant Ames Bravo 14), Айк Баринхолц (Griggs)Описание: Правительство решает дать команде суперзлодеев шанс на искупление. Подвох в том, что их отправляют на миссию, где они, вероятнее всего, погибнут.Рейтинг: MPAA: PG-13 - Детям до 13 лет просмотр не желателенКачество: WEB-DLRipФормат: AVIВидео: XviD, 720x304 (2.35:1), 1199 kbps, 23,976 fps, 0,229 bppАудио: AC3 / 2.0 / 48 kHz / 384 kbps / GeneralComplete name : D:\Proba\Suicide Squad.WEB-DLRip.aviFormat : AVIFormat/Info : Audio Video InterleaveFile size : 1.37 GiBDuration : 2 h 2 minOverall bit rate : 1 593 kb/sWriting application : VirtualDubMod 1.5.10.2 (build 2540/release)Writing library : VirtualDubMod build 2540/release

VideoID : 0Format : MPEG-4 VisualFormat profile : Advanced [email protected] settings, BVOP : 2Format settings, QPel : NoFormat settings, GMC : No warppointsFormat settings, Matrix : CustomCodec ID : XVIDCodec ID/Hint : XviDDuration : 2 h 2 minBit rate : 1 200 kb/sWidth : 720 pixelsHeight : 304 pixelsDisplay aspect ratio : 2.35:1Frame rate : 23.976 (24000/1001) FPSColor space : YUVChroma subsampling : 4:2:0Bit depth : 8 bitsScan type : ProgressiveCompression mode : LossyBits/(Pixel*Frame) : 0.229Stream size : 1.03 GiB (75%)Writing library : XviD 1.2.1 (UTC 2008-12-04)

AudioID : 1Format : AC-3Format/Info : Audio Coding 3Mode extension : CM (complete main)Format settings, Endianness : BigCodec ID : 2000Duration : 2 h 2 minBit rate mode : ConstantBit rate : 384 kb/sChannel(s) : 2 channelsChannel positions : Front: L RSampling rate : 48.0 kHzFrame rate : 31.250 FPS (1536 spf)Compression mode : LossyStream size : 337 MiB (24%)Alignment : Split accross interleavesInterleave, duration : 42 ms (1.00 video frame)Interleave, preload duration : 500 ms

Рекламы нет

Скачать Отряд самоубийц через торрент http://i5.imageban.ru/out/2016/11/15/5a7f9d301beed66daf585cde1361d5f4.jpg Скачать фильм Отряд самоубийц через торрент бесплантно в хорошем качестве Описание: Правительство решает дать команде суперзлодеев шанс на искупление. Подвох в том, что их отправляют на миссию, где они, вероятнее ... 2016-11-15 07:44 8.8 10 22

Loading...

Loading...

% Раздел Тема Автор DL S | L
Ultra HD (UHD: 2K, 4K, 8K) — видео сверхвысокой чёткости [ 48.19 GB ] Отряд самоубийц / Suicide Squad [2016 UHD BDRemux 2160p] DUB+AVO [] bober100 Скачать
Фильмы (Blu-ray, BD-Remux, HDDVD) [ 25.5 GB ] Отряд самоубийц / Suicide Squad [2016 BD Remux 1080p] [ Blu-Ray CEE] DUB+AVO bober100 Скачать
Фильмы (HD 720p, 1080p) (48-60 fps) [ 4.36 GB ] Отряд самоубийц / Suicide Squad [2016 BDRip 720p 60 fps от еnvy / NNNB] [Theatrical Cut] DUB еnvy Скачать
Ultra HD (UHD: 2K, 4K, 8K) — видео сверхвысокой чёткости [ 57.75 GB ] Отряд самоубийц / Suicide Squad [Расширенная версия/Extended Cut] [2016 UHD WEBRip 2160p] [USA Transfer] DUB [] bober100 Скачать
Фильмы с авторской озвучкой [ 2.19 GB ] Отряд самоубийц / Suicide Squad [2016 BDRip] [Расширенная версия / Extended cut] [AVO] killermax2013 Скачать
Фильмы 2016 [DVDrip, WEB-DLRip, HDrip] (DUB, MVO) [ 2.19 GB ] Отряд самоубийц / Suicide Squad [2016 BDRip] - [] Twi7ter Скачать
3D Фильмы [ 20.1 GB ] Отряд самоубийц в 3Д / Suicide Squad 3D [2016 BDrip 1080p] DUB / OverUnder / Вертикальная стереопара serega768 Скачать

Рекламный пират

15-11-2016 08:14 Отряд самоубийц Скачать торрент  

Спасибо! Будем проверять)

15-11-2016 08:18 Отряд самоубийц Скачать торрент  

BeeRka писал(а):

Спасибо! Будем проверять)

....завтра Тунец вроде

15-11-2016 08:49 Отряд самоубийц Скачать торрент  

А когда будет режиссерская версия?

15-11-2016 09:12 Отряд самоубийц Скачать торрент  

Kolobok118 писал(а):

А когда будет режиссерская версия?

хз....The Suicide Squad Extended Cut goes on sale on Digital HD 11/15 and on Blu-ray наверное позже будет

15-11-2016 11:28 Отряд самоубийц Скачать торрент  

Userman4ik писал(а):

Kolobok118 писал(а):

А когда будет режиссерская версия?

хз....The Suicide Squad Extended Cut goes on sale on Digital HD 11/15 and on Blu-ray наверное позже будетя щас погуглил везде написано режисёрская версия должна выйти 13 декабря

15-11-2016 11:37 Отряд самоубийц Скачать торрент  

клюв писал(а):

Userman4ik писал(а):

Kolobok118 писал(а):

А когда будет режиссерская версия?

хз....The Suicide Squad Extended Cut goes on sale on Digital HD 11/15 and on Blu-ray наверное позже будетя щас погуглил везде написано режисёрская версия должна выйти 13 декабряСпасибо

15-11-2016 13:40 Отряд самоубийц Скачать торрент  

Kolobok118 писал(а):

клюв писал(а):

Userman4ik писал(а):

Kolobok118 писал(а):

А когда будет режиссерская версия?

хз....The Suicide Squad Extended Cut goes on sale on Digital HD 11/15 and on Blu-ray наверное позже будетя щас погуглил везде написано режисёрская версия должна выйти 13 декабряСпасибо Нет , Блюрэй версия выходит 13 декабря , а Режиссерская версия должна выйти сегодня по идее .(Информация с Кинопоиска)

15-11-2016 14:52 Отряд самоубийц Скачать торрент  

Рекламы нет----------------------Вот за это большое спасибо.Перекачиваю.К слову,здесь же висит весёлая версия Самоубийц.Во дают.

Pекламный агент PB

15-11-2016 17:19 Отряд самоубийц Скачать торрент  

maori45 писал(а):

Рекламы нет----------------------Вот за это большое спасибо.Перекачиваю.К слову,здесь же висит весёлая версия Самоубийц.Во дают.

В украинском дубляже?

Дорогой пользователь! Огромная просьба, поблагодарите релизера, оцените раздачу и оставьте свои комментарий, если Вы скачали Отряд самоубийц через торрент бесплатно! Внесите свою лепту в развитие PiratBit!

Комментировать посты могут только пользователи прошедшие не сложную регистрацию

Отряд самоубийц через торрент Скачать бесплатно Отряд самоубийц Отряд самоубийц скачать торрент Отряд самоубийц смотреть онлайн Cкачать фильм Отряд самоубийц бесплатно Отряд самоубийц скачать торрент в хорошем качестве Отряд самоубийц смотреть онлайн бесплатно в хорошем качестве

Вы можете начинать темыВы можете отвечать на сообщенияВы не можете редактировать свои сообщенияВы не можете удалять свои сообщенияВы не можете голосовать в опросахВы не можете прикреплять файлы к сообщениямВы можете скачивать файлы

piratbit.ru

Отряд самоубийц (2016) (Suicide Squad)

Безбашенный и интригующий трейлер заставил просто считать дни до выхода этого феерического месива из первоклассных актёров и нужно сказать сразу — ожидания были оправданы в полной мере!

Сюжет нужно сказать интригует — отряд из опаснейших головорезов и убийц, во главе которых опытный вояка, влюблённый в доктора-ведьму + Джокер со своей бандой, вставляющий палки в колёса — честно сказать в голове не укладывалось как это всё будет преподнесено. Начинается повествование с описания всех главных героев, где куда не плюнь везде индивидуальность, харизматичность и порой непомерная крутость — пожалуй тоже следует сказать о них пару слов!

Действующие лица, которые не дают скучать:

Джаред Лето — Джокер, его герой очень ярок, совершенно не отдаёт отчёт нравственным и моральным ценностям и всегда делает так, как задумал — настоящий псих, который нужно сказать тут влюблён и от этого даже такой злодей кажется не совсем уж и неизлечимым. Джаред сыграл превосходно, было интересно наблюдать за тем, насколько безбашенным он может быть в этой роли, очень вжился в персонажа, чего только стоит одна его выходка отправить использованные презервативы своим коллегам по фильму :D

Марго Робби — Харли Куин, её героиня очень яркая, под стать своему любимому, которым является Джокер. Эта очаровательная особа нужно отметить замечательно вписалась в отряд убийц-мужчин, она как яркий огонёк среди всех, который разбавляет порой нагнетающуюся атмосферу, и, безусловно, радует глаз её внешность и откровенный наряд, думаю мужская половина аудитории останется под впечатлением. Приятно было увидеть эту очаровашку в этом фильме, удивила!

Уилл Смит — Дэдшот, его герой является очень эффектым, он лучший и самый опасный киллер в мире, которого ничм не запугать и практически не найти, но у него есть 1 слабость, его дочка, ради которой он готов пойти на всё и даже сесть в тюрьму. На первый взгляд может показаться, что этот человек сбился с пути, выбрав профессию наёмного убийцы, но даже у него есть моральные принципы и чувства, которые делают его всё же человеком. Очень яркая роль, даже для героя, который не наделён сверхспособностями, он непомерно крут и ярок, как, наверное и сам Уилл, который очень тщательно подбирает себе роли. Было приятно увидеть его в этом проекте, блеснул!

Джай Кортни — Бумеранг, его герой тоже не владеет сверхспособностями, но имеет одно оружие, которым отлично владеет — это бумеранг. Так же и этот персонаж является человеком со сбитым прицелом в жизни, который зарабатывал воровством и рано или поздно попался. Безусловно Джай внёс свою лепту в общее дело, но, если честно, был наименее ярким персонажем в этом фильме.

Адевале Акинойе-Агбаже — Киллер Крок/рептилия, его персонаж является не человеком — это рептилия, в случае с этим человеком эволюция и мутация сыграли злую шутку, но тем не менее это очень колоритный персонаж, который моментами вызывает даже улыбку, отпуская фразочки и шутя. Отлично влился в отряд, молодцом!

Джей Эрнандес — Дьябло, его персонаж является человеком, который может управлять огнём, но есть одна небольшая поправка — когда его разозлишь, он не способен себя контролировать и может сжечь всё и каждого вокруг себя. Таким случаем стала история с его семьёй — женой и двумя детьми, когда Дьябло не смог контролировать себя и случилось несчастье, после которого он остался один и после этого его жизнь потеряла смысл и он сам сдался полиции. Очень яркая роль, необычная, и хочется сказать, что наличие татуировок на квадратном сантиметре всего тела, даже лице впечатляет и подогревает интерес к этому персонажу ещё больше!

Кара Делевинь — Джун Мун/ведьма, её персонаж является, на мой скромный взгляд, самым ярким, ведь далеко не просто совмещать в себе и человека — доктора, который помогает отряду и ведьму, которая вселилась в бедную девушку и не покидает её. Нужно отметить, что ведьма получилась очень необычная и яркая, внушающая и вызывающая порой мурашки, есть что-то необычное в этом образе, зацепило!

Юэль Киннаман — Рик Флэг, его персонаж является человеком, опытным воякой, который повидал многое и безнадёжно влюблён в доктора или, точнее, ведьму, которая вселилась в его возлюбленную. Этот отважный человек является лидером отряда и держит всё и всех под контролем, не давая расслабиться никому и сам делает всё, что ему приказывают сверху. Яркая роль и сыграно отлично, молодцом полковник!

Скотт Иствуд — Эдвардс, его персонаж является главным в отряде сопровождения, который подчиняется приказам Флэга и прикрывает основной отряд с наёмниками. Ничем не примечательная роль, но всё же пару раз мелькнул сын Иствуда и уже узнаваем, даже на второстепенной роли, так держать!

Виола Дэвис — Аманда Уоллер, её героиня является ответственным человеком, работает на правительство и принимает сложные решения — именно ей пришла идея собрать отряд из всех отъявленных злодеев и убийц, чтобы защитить свою страну. Отважная и смелая женщина, иногда о таких говорят — мужик в юбке!

Нужно отметить что наконец-то DC Comics сняли стоящий проект, который по праву можно считать очень ярким и мощным. Честно признаться я фанат фильмов по комиксам и тут всё было сделано на высшем уровне. Чего только стоит саундтрек, который просто будоражит, тут абсолютно каждая песня в тему и снято очень не дурно. Работа оператора заслуживает похвалы, очень впечатляют моменты экшена — одно падение вертушки чего только стоит, и то, как всё в целом подано и как передвигается камера, особенным в моменты перестрелок или драк или когда показывают ведьму — впечатляет!

Дэвид Эйр безусловно человек очень талантливый, чего только стоят его сценарии к таким фильмам как Ю-571, Форсаж и Тренировочный День. В этом фильме ему пришлось поработать, ведь для него это первый опыт, кода он снимает фильм по комиксам и нужно отметить, что у него это получилось на славу, ведь фильм выдался интригующим и очень драйвовым, было просто не оторвать взгляд от экрана и два часа пролетели за один миг. Талантливый человек, снимаю шляпу!

Подводя итог хочется сказать то, что на мой взгляд этот фильм является самым ярким проектом в этом году, собрал в свои ряды мастеровитого режиссёра и кучу просто первоклассных актёров, а в сочетании со спец эффектами, первоклассным саундом и интересным сюжетом это всё являет собой просто яркую ядерную смесь хронометражем в 2 часа. DC Comics приятно удивили и не смотря на вечное соперничество с Marvel Comics сделали очень драйвовый, интересный и яркий во всех смыслах проект. Рекомендую фильм к просмотру — это просто бомба, пожалуй самый яркий и лучший фильм этого года!

10 из 10

www.fast-torrent.ru

Скачать торрент Отряд самоубийц / Suicide Squad (2016) Blu-Ray 1080p | Театральная версия | 3D-Video

«Justice has a bad side»

Информация о фильмеНазвание: Отряд самоубийцОригинальное название: Suicide SquadГод выхода: 2016Жанр: Фантастика, фэнтези, боевик, приключенияРежиссер: Дэвид ЭйрВ ролях: Марго Робби, Уилл Смит, Джаред Лето, Джай Кортни, Кара Делевинь, Джей Эрнандес, Юэль Киннаман, Виола Дэвис

О фильме: Правительство решает дать команде суперзлодеев шанс на искупление. Подвох в том, что их отправляют на миссию, где они, вероятнее всего, погибнут.

Страна: СШАСтудия: Atlas Entertainment, DC Comics, DC Entertainment, Dune Entertainment, Lin Pictures, Warner Bros. PicturesПродолжительность: 02:02:53Перевод: Профессиональный (полное дублирование)

ФайлКачество: Blu Ray 1080pКонтейнер: ISOФормат: BDMVКодек: MPEG-4 AVC VideoВидео: 1920x1080 (16:9), 23,976 fps, MPEG-4 AVC Video ~ 25024 kbps avg, MPEG-4 MVC Video ~ 12199 kbps, High Profile 4.1 Аудио#1: Dolby TrueHD Audio English 3800 kbps 7.1 / 48 kHz / 3800 kbps / 24-bit (AC3 Embedded: 5.1-EX / 48 kHz / 384 kbps / DN -4dB) Аудио#2: Dolby Digital Audio Czech 448 kbps 5.1 / 48 kHz / 448 kbps / DN -4dBАудио#3: Dolby Digital Audio Hungarian 448 kbps 5.1 / 48 kHz / 448 kbps / DN -4dBАудио#4: Dolby Digital Audio Polish 448 kbps 5.1 / 48 kHz / 448 kbps / DN -4dBАудио#5: Dolby Digital Audio Russian 448 kbps 5.1 / 48 kHz / 448 kbps / DN -4dB / Профессиональный (полное дублирование)Аудио#6: Dolby Digital Audio Turkish 448 kbps 5.1 / 48 kHz / 448 kbps / DN -4dBСубтитры: Русские, английские, арабские, хорватские, чешские, эстонские, иврит, венгерские, корейские, латышские, литовские, польские, португальские, румынские, словенские, турецкие (PGS)

BDInfo Report

DISC INFO:

Disc Title: SUICIDE_SQUAD_3D_TC_HDCLUB Disc Size: 45 384 338 915 bytes Protection: AACS BD-Java: No Extras: Blu-ray 3D BDInfo: 0.5.8

PLAYLIST REPORT:

Name: 00098.MPLS Length: 2:02:53.491 (h:m:s.ms) Size: 43 879 385 088 bytes Total Bitrate: 47,61 Mbps

VIDEO:

Codec Bitrate Deion ----- ------- ----------- MPEG-4 AVC Video 25024 kbps 1080p / 23,976 fps / 16:9 / High Profile 4.1 MPEG-4 MVC Video 12199 kbps

AUDIO:

Codec Language Bitrate Deion ----- -------- ------- ----------- Dolby TrueHD Audio English 3800 kbps 7.1 / 48 kHz / 3800 kbps / 24-bit (AC3 Embedded: 5.1-EX / 48 kHz / 384 kbps / DN -4dB) Dolby Digital Audio Czech 448 kbps 5.1 / 48 kHz / 448 kbps / DN -4dB Dolby Digital Audio Hungarian 448 kbps 5.1 / 48 kHz / 448 kbps / DN -4dB Dolby Digital Audio Polish 448 kbps 5.1 / 48 kHz / 448 kbps / DN -4dB Dolby Digital Audio Russian 448 kbps 5.1 / 48 kHz / 448 kbps / DN -4dB Dolby Digital Audio Turkish 448 kbps 5.1 / 48 kHz / 448 kbps / DN -4dB

SUBTITLES:

Codec Language Bitrate Deion ----- -------- ------- ----------- Presentation Graphics English 32,229 kbps Presentation Graphics Arabic 14,472 kbps Presentation Graphics Croatian 26,719 kbps Presentation Graphics Czech 21,665 kbps Presentation Graphics Czech 1,332 kbps Presentation Graphics Estonian 27,842 kbps Presentation Graphics Hebrew 23,326 kbps Presentation Graphics Hungarian 23,092 kbps Presentation Graphics Hungarian 1,102 kbps Presentation Graphics Korean 17,020 kbps Presentation Graphics Latvian 24,572 kbps Presentation Graphics Lithuanian 28,589 kbps Presentation Graphics Polish 23,271 kbps Presentation Graphics Polish 1,832 kbps Presentation Graphics Portuguese 27,681 kbps Presentation Graphics Romanian 25,513 kbps Presentation Graphics Russian 26,715 kbps Presentation Graphics Russian 2,221 kbps Presentation Graphics Slovenian 23,626 kbps Presentation Graphics Turkish 27,001 kbps Presentation Graphics Turkish 1,660 kbps

FILES:

Name Time In Length Size Total Bitrate ---- ------- ------ ---- ------------- 00042.SSIF 0:00:00.000 2:02:53.491 43 879 385 088 47 608

mrutor.org

Скачать торрент Отряд самоубийц / Suicide Squad (2016) BDRip-AVC | Театральная версия

Отряд самоубийц / Suicide Squad

Страна: США Производство: Warner Bros. Pictures, DC Entertainment, DC Comics, Dune Entertainment, Atlas EntertainmentГод выпуска: 2016Жанр: фантастика, фэнтези, боевик, триллер, криминалПродолжительность: 02:02:53

Режиссер: Дэвид ЭйрАвторы сценария: Дэвид Эйр, Джон Острандер

В ролях: Марго Робби, Уилл Смит, Джаред Лето, Джай Кортни, Кара Делевинь, Джей Эрнандес, Юэль Киннаман, Виола Дэвис, Скотт Иствуд

Описание: Правительство решает дать команде суперзлодеев шанс на искупление. Подвох в том, что их отправляют на миссию, где они, вероятнее всего, погибнут...

Перевод: Профессиональный (полное дублирование) | лицензияСубтитры: русские (forced + full), английские (full)

Качество: BDRip-AVC | исходник SUICIDE_SQUAD_3D_TC_HDCLUBФормат: МКVВидео кодек: AVCАудио кодек: АС3Видео: 1152x480 (2.40:1), 23.976 fps, MPEG-4 AVC ~2 386 kbps avgАудио №1: 48.0 kHz, AC3 Dolby Digital, 3/2 (L,C,R,l,r) + LFE ch, ~448 kbps | RUSАудио №2: 48.0 kHz, AC3 Dolby Digital, 3/2 (L,C,R,l,r) + LFE ch, ~448 kbps | ENGФормат субтитров: UTF-8 Plain Text

Дата премьеры (мир): 1 августа 2016Дата премьеры (РФ): 4 августа 2016, «Каро-Премьер»

Релиз от: AFM

Media Info

General Format : Matroska Format version : Version 4 / Version 2 File size : 2.87 GiB Duration : 2h 2 min Overall bit rate : 3 348 kb/s Movie name : Отряд самоубийц / Suicide Squad (2016) :: AFM :: Encoded date : UTC 2016-12-02 02:11:15 Writing application : mkvmerge v8.3.0 ('Over the Horizon') 32bit Writing library : libebml v1.3.1 + libmatroska v1.4.2

Video ID : 1 Format : AVC Format/Info : Advanced Video Codec Format profile : [email protected] Format settings, CABAC : Yes Format settings, ReFrames : 11 frames Codec ID : V_MPEG4/ISO/AVC Duration : 2h 2 min Bit rate : 2 386 kb/s Width : 1 152 pixels Height : 480 pixels Display aspect ratio : 2.40:1 Frame rate mode : Constant Frame rate : 23.976 (24000/1001) FPS Color space : YUV Chroma subsampling : 4:2:0 Bit depth : 8 bits Scan type : Progressive Bits/(Pixel*Frame) : 0.180 Stream size : 2.05 GiB (71%) Title : BDRip by AFM Writing library : x264 core 148 r2721+55 e19946b t_mod_Custom [[email protected] X86_64] Encoding settings : cabac=1 / ref=11 / deblock=1:-3:-2 / analyse=0x3:0x113 / me=umh / subme=10 / psy=1 / fade_compensate=0.00 / psy_rd=1.00:0.00 / mixed_ref=1 / me_range=32 / chroma_me=1 / trellis=2 / 8x8dct=1 / cqm=0 / deadzone=21,11 / fast_pskip=0 / chroma_qp_offset=-2 / threads=6 / lookahead_threads=1 / sliced_threads=0 / nr=0 / decimate=1 / interlaced=0 / bluray_compat=0 / constrained_intra=0 / fgo=0 / bframes=12 / b_pyramid=2 / b_adapt=2 / b_bias=0 / direct=1 / weightb=1 / open_gop=0 / weightp=2 / keyint=240 / keyint_min=23 / scenecut=40 / intra_refresh=0 / rc_lookahead=40 / rc=crf / mbtree=0 / crf=18.8500 / qcomp=0.65 / qpmin=0:0:0 / qpmax=69:69:69 / qpstep=4 / vbv_maxrate=50000 / vbv_bufsize=62500 / crf_max=0.0 / nal_hrd=none / filler=0 / ip_ratio=1.35 / pb_ratio=1.27 / aq=3:0.85 / aq-sensitivity=10.00 / aq-factor=1.00:1.00:1.00 / aq2=0 / aq3=0 Language : English Default : Yes Forced : No

Audio #1 ID : 2 Format : AC-3 Format/Info : Audio Coding 3 Mode extension : CM (complete main) Format settings, Endianness : Big Codec ID : A_AC3 Duration : 2h 2 min Bit rate mode : Constant Bit rate : 448 kb/s Channel(s) : 6 channels Channel positions : Front: L C R, Side: L R, LFE Sampling rate : 48.0 kHz Frame rate : 31.250 FPS (1536 spf) Compression mode : Lossy Stream size : 394 MiB (13%) Title : Dub, AC3 5.1 ~448 kbps Language : Russian Default : Yes Forced : No

Audio #2 ID : 3 Format : AC-3 Format/Info : Audio Coding 3 Mode extension : CM (complete main) Format settings, Endianness : Big Codec ID : A_AC3 Duration : 2h 2 min Bit rate mode : Constant Bit rate : 448 kb/s Channel(s) : 6 channels Channel positions : Front: L C R, Side: L R, LFE Sampling rate : 48.0 kHz Frame rate : 31.250 FPS (1536 spf) Compression mode : Lossy Stream size : 394 MiB (13%) Title : Original, AC3 5.1 ~448 kbps Language : English Default : No Forced : No

Text #1 ID : 4 Format : UTF-8 Codec ID : S_TEXT/UTF8 Codec ID/Info : UTF-8 Plain Text Title : forced Language : Russian Default : Yes Forced : No

Text #2 ID : 5 Format : UTF-8 Codec ID : S_TEXT/UTF8 Codec ID/Info : UTF-8 Plain Text Language : Russian Default : No Forced : No

Text #3 ID : 6 Format : UTF-8 Codec ID : S_TEXT/UTF8 Codec ID/Info : UTF-8 Plain Text Language : English Default : No Forced : No

Menu 00:00:00.000 : Chapter 01 00:09:07.505 : Chapter 02 00:19:03.726 : Chapter 03 00:29:27.140 : Chapter 04 00:39:17.313 : Chapter 05 00:50:21.227 : Chapter 06 01:00:10.106 : Chapter 07 01:11:46.928 : Chapter 08 01:22:46.128 : Chapter 09 01:32:01.099 : Chapter 10 01:39:21.831 : Chapter 11 01:52:27.991 : Chapter 12

krutor.org


Смотрите также