Полицейский с рублевки режиссерская версия скачать торрент


Скачать торрент Полицейский с рублёвки [S01-02] (2016-2017) WEB-DLRip от Generalfilm

Информация о фильмеНазвание: Укажите принятое в России названиеОригинальное название: Полицейский с рублёвкиГод выхода: 2016Жанр: Комедия, криминал, драмаРежиссер: Илья КуликовВ ролях: Александр Петров (II), Александра Бортич, Сергей Бурунов, Татьяна Бабенкова, Софья Каштанова, Роман Попов, Ростислав Гулбис, Анастасия Стежко, Лилия Лаврова, Виктория Тарасова, Анна Котова, Сергей Калашников, Сергей Штатнов, Владимир Рузанов

О фильме: «Полицейский с Рублевки» - замечательный жанровый микс, включающий элементы драмы, комедии, легкой любовной лирики и детективных расследований. Главный герой, Гриша Измайлов, призван охранять от представителей криминальной среды сильнейших мира сего-олигархов знаменитой Рублевки. Молодой полицейский легко находит общий язык с вверенным ему контингентом, ведь он является одним из них… В его жизни, казалось бы, есть все, о чем только можно мечтать-деньги, азарт, безумная популярность у представительниц женского пола. Но почему по вечерам баловню жизни бывает так одиноко и тоскливо в его изысканном стильном жилище? Не потому ли, что уже много лет ему приходится хранить тайну, терзающую его до глубины души?

Страна: РоссияСтудия: АВ КонтентПродолжительность: 16 x ~ 00:50:00Перевод: Не требуется

ФайлФормат: MP4Качество: WEB-DLRip \| КПК Видео: MPEG-4 AVC (x264), 640x360, 640x320, ~500 kbps, 25.000 fpsАудио: AAC LC, 48.0 KHz, 2 ch, 128 KbpsСубтитры: Нет

Семпл

MI

Complete name : E:KinoPolitseyskiy.S.Rublevki.AVC.WEB-DLRip.KPK.GFPolitseyskiy.S.Rublevki.S01.2016.AVC.WEB-DLRip.KPK.GFPolitseyskiy.S.Rublevki.s01e04.2016.AVC.WEB-DLRip.KPK.GF.mp4 Format : MPEG-4 Codec ID : M4V (isom/iso2/avc1) File size : 227 MiB Duration : 50 min 1 s Overall bit rate mode : Variable Overall bit rate : 634 kb/s Writing application : Lavf53.19.0

Video ID : 1 Format : AVC Format/Info : Advanced Video Codec Format profile : [email protected] Format settings, CABAC : Yes Format settings, ReFrames : 8 frames Codec ID : avc1 Codec ID/Info : Advanced Video Coding Duration : 50 min 1 s Bit rate : 500 kb/s Width : 640 pixels Height : 360 pixels Display aspect ratio : 16:9 Frame rate mode : Constant Frame rate : 25.000 FPS Color space : YUV Chroma subsampling : 4:2:0 Bit depth : 8 bits Scan type : Progressive Bits/(Pixel*Frame) : 0.087 Stream size : 179 MiB (79%) Writing library : x264 core 146 r2538 121396c Encoding settings : cabac=1 / ref=8 / deblock=1:-1:-1 / analyse=0x3:0x133 / me=umh / subme=10 / psy=1 / psy_rd=1.00:0.00 / mixed_ref=1 / me_range=24 / chroma_me=1 / trellis=2 / 8x8dct=1 / cqm=0 / deadzone=21,11 / fast_pskip=1 / chroma_qp_offset=-2 / threads=3 / lookahead_threads=1 / sliced_threads=0 / nr=0 / decimate=1 / interlaced=0 / bluray_compat=0 / constrained_intra=0 / bframes=8 / b_pyramid=2 / b_adapt=2 / b_bias=0 / direct=3 / weightb=1 / open_gop=0 / weightp=2 / keyint=250 / keyint_min=126 / scenecut=40 / intra_refresh=0 / rc_lookahead=40 / rc=2pass / mbtree=1 / bitrate=500 / ratetol=1.0 / qcomp=0.60 / qpmin=0 / qpmax=69 / qpstep=4 / cplxblur=20.0 / qblur=0.5 / ip_ratio=1.40 / aq=1:1.00 Menus : 3

Audio ID : 2 Format : AAC Format/Info : Advanced Audio Codec Format profile : LC Codec ID : 40 Duration : 50 min 1 s Bit rate mode : Variable Bit rate : 128 kb/s Channel(s) : 2 channels Channel positions : Front: L R Sampling rate : 48.0 kHz Frame rate : 46.875 FPS (1024 spf) Compression mode : Lossy Stream size : 45.8 MiB (20%) Default : Yes Alternate group : 1 Menus : 3

Релиз от:

krutor.org

Скачать торрент Полицейский с рублёвки [S01] (2016) WEB-DLRip-AVC от ExKinoRay

Информация о фильмеНазвание: Полицейский с рублёвкиГод выхода: 2016Жанр: Комедия, криминал, драмаРежиссер: Илья КуликовВ ролях: Александр Петров, Александра Бортич, Сергей Бурунов, Татьяна Бабенкова, Софья Каштанова, Роман Попов, Ростислав Гулбис, Анастасия Стежко, Лилия Лаврова, Виктория Тарасова, Анна Котова, Сергей Калашников, Сергей Штатнов, Владимир Рузанов

О фильме: «Полицейский с Рублёвки» — это история о Грише Измайлове, полицейском, который призван охранять покой и порядок в самом элитном районе России, где живут невероятно богатые люди. Ему приходится расследовать дела, в которые впутываются жители Рублевки, и делает он это нередко превышая свои полномочия. Грише около 30 лет, он красив, одинок, богат, циничен, азартен и ко всему относится с изрядной долей черного юмора. Он заботится о младшей сестре-хулиганке, которую вынужден постоянно вытаскивать из неприятностей. Гриша не прикладывая усилий умеет нравиться женщинам и регулярно издевается над своим начальником Яковлевым.

Выпущено: Россия, АВ КонтентПродолжительность: ~ 00:50:00Перевод: Русский

ФайлКодек: х264Качество: WEB-DLRip-AVCВидео: 1024х576 (16:9), 25 fps, x264, 1800 Kbps, 0.122 bit/pixelЗвук: 48,0 kHz, Audio Coding 3, 2 ch, ~192 kbps avg

Инфо файл

Общее Уникальный идентификатор : 195833725388119069705909774023447838399 (0x9354341E1E9DBD4AB1DFF1A328007EBF) Полное имя : D:ВидеоПолицейский с рублёвки . WEB-DLRip-AVC by Vovan366(ExKinoRay)Полицейский с рублёвки .01 серия. 2016.WEB-DLRip-AVC by Vovan366(ExKinoRay).mkv Формат : Matroska Версия формата : Version 2 Размер файла : 714 Мбайт Продолжительность : 50 м. Общий поток : 1993 Кбит/сек Дата кодирования : UTC 2016-06-18 03:58:18 Программа кодирования : mkvmerge v7.8.0 ('River Man') 32bit built on Apr 3 2015 12:11:22 Библиотека кодирования : libebml v1.3.1 + libmatroska v1.4.2

Видео Идентификатор : 1 Формат : AVC Формат/Информация : Advanced Video Codec Профиль формата : [email protected] Параметр CABAC формата : Да Параметр ReFrames формата : 10 кадров Идентификатор кодека : V_MPEG4/ISO/AVC Продолжительность : 50 м. Битрейт : 1800 Кбит/сек Ширина : 1024 пикселя Высота : 576 пикселей Соотношение сторон : 16:9 Режим частоты кадров : Постоянный Частота кадров : 25,000 кадров/сек Цветовое пространство : YUV Субдискретизация насыщенности : 4:2:0 Битовая глубина : 8 бит Тип развёртки : Прогрессивная Бит/(Пиксели*Кадры) : 0.122 Размер потока : 631 Мбайт (88%) Библиотека кодирования : x264 core 146 r2538 121396c Настройки программы : cabac=1 / ref=10 / deblock=1:-1:-1 / analyse=0x3:0x113 / me=umh / subme=10 / psy=1 / psy_rd=1.00:0.00 / mixed_ref=1 / me_range=32 / chroma_me=1 / trellis=2 / 8x8dct=1 / cqm=0 / deadzone=21,11 / fast_pskip=1 / chroma_qp_offset=-2 / threads=6 / lookahead_threads=1 / sliced_threads=0 / nr=0 / decimate=0 / interlaced=0 / bluray_compat=0 / constrained_intra=0 / bframes=10 / b_pyramid=2 / b_adapt=2 / b_bias=0 / direct=1 / weightb=1 / open_gop=0 / weightp=2 / keyint=250 / keyint_min=25 / scenecut=40 / intra_refresh=0 / rc=2pass / mbtree=0 / bitrate=1800 / ratetol=1.0 / qcomp=0.60 / qpmin=0 / qpmax=69 / qpstep=4 / cplxblur=20.0 / qblur=0.5 / ip_ratio=1.40 / pb_ratio=1.30 / aq=1:1.00 Default : Да Forced : Нет Основные цвета : BT.709 Характеристики трансфера : BT.709 Коэффициенты матрицы : BT.709

Аудио Идентификатор : 2 Формат : AC-3 Формат/Информация : Audio Coding 3 Расширение режима : CM (complete main) Параметр Endianness формата : Big Идентификатор кодека : A_AC3 Продолжительность : 50 м. Вид битрейта : Постоянный Битрейт : 192 Кбит/сек Каналы : 2 канала Расположение каналов : Front: L R Частота : 48,0 КГц Битовая глубина : 16 бит Метод сжатия : С потерями Размер потока : 68,7 Мбайт (10%) Default : Да Forced : Нет

Релиз от: Rip by: Vovan366

krutor.org

Скачать торрент Полицейский с рублёвки [S01] (2016) DVB

Информация о фильмеНазвание: Полицейский с рублёвкиГод выхода: 2016Жанр: Комедия, криминал, драмаРежиссер: Илья КуликовВ ролях: Александр Петров, Александра Бортич, Сергей Бурунов, Татьяна Бабенкова, Софья Каштанова, Роман Попов, Ростислав Гулбис, Анастасия Стежко, Лилия Лаврова, Виктория Тарасова, Анна Котова, Сергей Калашников, Сергей Штатнов, Владимир Рузанов

О фильме: «Полицейский с Рублёвки» — это история о Грише Измайлове, полицейском, который призван охранять покой и порядок в самом элитном районе России, где живут невероятно богатые люди. Ему приходится расследовать дела, в которые впутываются жители Рублевки, и делает он это нередко превышая свои полномочия. Грише около 30 лет, он красив, одинок, богат, циничен, азартен и ко всему относится с изрядной долей черного юмора. Он заботится о младшей сестре-хулиганке, которую вынужден постоянно вытаскивать из неприятностей. Гриша не прикладывая усилий умеет нравиться женщинам и регулярно издевается над своим начальником Яковлевым.

Выпущено: Россия, АВ КонтентПродолжительность: ~ 00:50:00Перевод: Не требуется

ФайлКачество: DVBФормат: MPEG-TSВидео кодек: MPEG-2Аудио кодек: MP2Видео: [email protected]х576 (4:3), 25,000 fps, ~ 4800 kbps avg, 0.465 bit/pixel Аудио: 48,0 kHz, MPEG Audio 2, 2 ch, ~192 kbps avg

MI

Общее Идентификатор : 1 (0x1) Полное имя : D:ВидеоPolitseyskiy.s.Rublyovki.S01.2016.DVBPolitseyskiy.s.Rublyovki.s01s08.2016.DVB.ts Формат : MPEG-TS Размер файла : 1,96 Гбайт Продолжительность : 51 м. Режим общего битрейта : Переменный Общий поток : 5481 Кбит/сек

Видео Идентификатор : 770 (0x302) Идентификатор меню : 768 (0x300) Формат : MPEG Video Версия формата : Version 2 Профиль формата : [email protected] Параметр BVOP формата : Да Параметр матрицы формата : Выборочная Параметр GOP формата : Variable Идентификатор кодека : 2 Продолжительность : 51 м. Вид битрейта : Переменный Битрейт : 4823 Кбит/сек Максимальный битрейт : 15,0 Мбит/сек Ширина : 720 пикселей Высота : 576 пикселей Соотношение сторон : 4:3 Частота кадров : 25,000 кадров/сек Стандарт вещания : PAL Цветовое пространство : YUV Субдискретизация насыщенности : 4:2:0 Битовая глубина : 8 бит Метод сжатия : С потерями Бит/(Пиксели*Кадры) : 0.465 TimeCode_FirstFrame : 00:00:00:00 TimeCode_Source : Group of pictures header Размер потока : 1,72 Гбайт (88%)

Аудио #1 Идентификатор : 771 (0x303) Идентификатор меню : 768 (0x300) Формат : MPEG Audio Версия формата : Version 1 Профиль формата : Layer 2 Идентификатор кодека : 3 Продолжительность : 51 м. Вид битрейта : Постоянный Битрейт : 192 Кбит/сек Каналы : 2 канала Частота : 48,0 КГц Метод сжатия : С потерями Задержка видео : 13 мс. Размер потока : 70,2 Мбайт (4%) Язык : Russian

Аудио #2 Идентификатор : 772 (0x304) Идентификатор меню : 768 (0x300) Формат : MPEG Audio Версия формата : Version 1 Профиль формата : Layer 2 Идентификатор кодека : 3 Продолжительность : 51 м. Вид битрейта : Постоянный Битрейт : 192 Кбит/сек Каналы : 2 канала Частота : 48,0 КГц Метод сжатия : С потерями Задержка видео : 18 мс. Размер потока : 70,2 Мбайт (4%) Язык : English

Релиз от:

krutor.org

Полицейский с рублевки торрент скачать

Полицейский с рублёвки [01x01 из 08] (2016) SATRip621.5 MBПолицейский с Рублевки (2 сезон: 1-8 серии из 8) В Бескудниково / 2017 / РУ / SATRip / 5.17 ГБ5.17 GBПолицейский с Рублёвки (2016) WEB-DL [H.264/720p-LQ] (Серии 1-8 из 8)5.62 GBПолицейский с Рублёвки в Бескудниково (2017) SATRip (сезон 2, серии 1-8 из 8)5.17 GBПолицейский с Рублёвки в Бескудниково (2017) WEB-DL [H.264/720p-LQ] (сезон 2, серии 1-8 из 8)8.28 GBПолицейский с Рублёвки (1-2 сезоны: 1-16 серии из 16 + Фильм о фильме) / 2016-2017 / РУ / WEB-DLRip / 10.82 ГБ10.82 GBПолицейский с Рублёвки [01х01-08 из 08] (2016) WEB-DL 720p от MediaClub5.61 GBПолицейский с рублёвки / Сезон: 1 / Серии: 1-8 из 8 (Илья Куликов) [2016, Комедия, криминал, драма, WEBRip 720p]5.61 GBПолицейский с Рублёвки в Бескудниково / Сезон: 2 / Серии: 1-8 из 8 (Илья Куликов) [2017, Комедия, SATRip]5.17 GBПолицейский с Рублёвки (1-2 сезоны: 1-16 серии из 16) / 2016-2017 / РУ / SATRip / 9.83 ГБ9.83 GBПолицейский с Рублёвки в Бескудниково / Сезон: 2 / Серии: 1-8 из 8 (Илья Куликов) [2017, Драма, комедия, HDTVRip (720p)]10.32 GBПолицейский с Рублёвки [S01] (2016) WEB-DLRip от GeneralFilm2.9 GBПолицейский с Рублёвки (1 сезон: 1-8 серии из 8) / 2016 / РУ / SATRip / 4.66 ГБ4.66 GBПолицейский с Рублёвки в Бескудниково (2017) SATRip [H.264] (сезон 2, серии 1-8 из 8 )4.69 GBПолицейский с рублёвки [01x01 из 08] (2016) SATRip-AVC от ExKinoRay784.94 MBПолицейский с Рублевки (2 сезон: 1-8 серии из 8) В Бескудниково / 2017 / РУ / HDTV (1080i) / 19.74 ГБ19.74 GBПолицейский с Рублёвки / Сезон: 1 / Серии: 1-8 из 8 (Илья Куликов) [2016, комедия, криминал, драма, WEBRip]5.39 GBПолицейский с Рублёвки в Бескудниково (2017) HDTVRip (сезон 2, серии 1-8 из 8)4.69 GBПолицейский с Рублёвки (2016) SATRip (серии 1-8 из 8)4.66 GBПолицейский с Рублёвки (1 сезон: 1-8 серии из 8) / 2016 / РУ / WEB-DL (720p) / 5.61 ГБ5.61 GBПолицейский с рублёвки [S01-02] (2016-2017) WEB-DLRip от Generalfilm | КПК3.5 GBПолицейский с Рублёвки в Бескудниково / Серии: 1-8 из 8 (Илья Куликов) [2017,комедия,криминал, SATRip-AVC]4.69 GBПолицейский с Рублёвки в Бескудниково (2017) HDTV [H.264/1080i-LQ] (сезон 2, серии 1-8 из 8)19.7 GBПолицейский с Рублевки (2 сезон: 1-8 серии из 8) В Бескудниково / 2017 / РУ / WEB-DLRip (720p) / 10.71 ГБ10.71 GBПолицейский с Рублёвки в Бескудниково (2017) HDTVRip [H.264/720p-LQ] (сезон 2, серии 1-8 из 8)10.3 GBПолицейский с рублёвки [01x08 из 08] (2016) SATRip4.66 GBПолицейский с Рублёвки (2016) DVB (серии 1-8 из 8)13.3 GBПолицейский с Рублёвки (1-2 сезоны: 1-16 серии из 16) / 2016-2017 / РУ / WEB-DLRip (AVC) / 11.08 ГБ11.08 GBПолицейский с Рублевки (2 сезон: 1-8 серия из 8) В Бескудниково / 2017 / РУ / WEB-DLRip / 5.08 ГБ5.08 GBПолицейский с Рублевки (2016) SATRip [H.264] (серии 1-8 из 8)4.81 GBПолицейский с Рублевки (2 сезон: 1-8 серии из 8) В Бескудниково / 2017 / РУ / SATRip / 4.69 ГБ4.69 GBПолицейский с Рублевки (2 сезон: 1-8 серии из 8) В Бескудниково / 2017 / РУ / HDTVRip (720p) / 10.32 ГБ10.32 GBПолицейский с Рублевки в Бескудниково / Сезон: 2 / Серии: 1-8 из 8 (Илья Куликов) [2017, Драма, комедия, HDTV 1080i]19.74 GBПолицейский с рублёвки / Сезон: 1 Серии: 1-8 (08) (Илья Куликов) [2016, Комедия, криминал, драма, DVB]14.39 GBПолицейский с Рублёвки (1 сезон: 1-8 серии из 8) / 2016 / РУ / WEB-DLRip / 5.39 ГБ5.39 GBПолицейский с Рублевки / Серии: 1-8 из 8 (Илья Куликов) [2016, драма, комедия,криминал, SATRip-AVC]4.81 GBПолицейский с Рублёвки (1 сезон: 1-8 серии из 8) / 2016 / РУ / DVB / 14.39 ГБ14.39 GBПолицейский с Рублевки (1-2 сезоны: 1-16 серии из 16) / 2016-2017 / РУ / SATRip / 9.5 ГБ9.5 GBПолицейский с Рублёвки (2016) DVB [H.264] (серии 1-8 из 8)6.23 GBПолицейский с Рублевки (2 сезон: 1-8 серия из 8) В Бескудниково / 2017 / РУ / HDTVRip / 4.69 ГБ4.69 GBПолицейский с Рублёвки в Бескудниково (2017) WEB-DL [H.264/720p-LQ] (сезон 2, серии 1-8 из 8) [AD]10.7 GBПолицейский с Рублёвки (1-2 сезоны: 1-16 серии из 16) / 2016-2017 / РУ / DVB / 24.83 ГБ24.83 GBПолицейский с Рублёвки (1 сезон: 1-8 серии из 8) / 2016 / РУ / SATRip / 4.81 ГБ4.81 GBПолицейский с Рублёвки (1 сезон: 1-8 серии из 8) / 2016 / РУ / SATRip / 5.92 ГБ5.92 GBПолицейский с Рублёвки в Бескудниково (2017) WEB-DLRip (сезон 2, серии 1-8 из 8) [AD]7.36 GBПолицейский с Рублевки (2 сезон: 1-8 серии из 8) В Бескудниково / 2017 / РУ / HDTVRip (AVC) / 6.11 ГБ6.11 GBПолицейский С Рублёвки / Soundtrack / 2016 / MP3 / 141 МБ141 MBПолицейский с Рублевки (2 сезон: 1-8 серии из 8) В Бескудниково / 2017 / РУ / WEB-DLRip (AVC) / 5.76 ГБ5.76 GBПолицейский с Рублёвки / Score / 2016 / MP3 / 90 МБ90 MBПолицейский с Рублёвки (Фильм о фильме) / 2016 / РУ / WEB-DL (1080p) / 713 МБ713 MB tparser.org – торрент поисковик по популярным торрент трекерам. Находить и скачивать новинки кино в HDRip и BDRip качестве через tparser намного проще! Добро пожаловать на крупный торрент архив фильмов и игр tparser.org. Вам больше не придется искать торренты на основных торрент трекерах в поисках нужной раздачи – мы предлагаем найти и скачать фильмы в хорошем качестве прямо на нашем сайте. Наш сервис поиска торрентов в реальном времени собирает информацию с крупных торрент трекеров и сортирует полученные результаты в удобную таблицу. Скачивайте торренты без ограничений и без всяких регистраций на трекерах. Начните скачивать торрент Полицейский с рублевки прямо сейчас!

tparser.org

Скачать торрент Полицейский с рублёвки [S01] (2016) SATRip-AVC :: Mrutor.org

Информация о фильмеНазвание: Полицейский с рублёвкиГод выхода: 2016Жанр: Комедия, криминал, драмаРежиссер: Илья КуликовВ ролях: Александр Петров, Александра Бортич, Сергей Бурунов, Татьяна Бабенкова, Софья Каштанова, Роман Попов, Ростислав Гулбис, Анастасия Стежко, Лилия Лаврова, Виктория Тарасова, Анна Котова, Сергей Калашников, Сергей Штатнов, Владимир Рузанов

О фильме: «Полицейский с Рублёвки» — это история о Грише Измайлове, полицейском, который призван охранять покой и порядок в самом элитном районе России, где живут невероятно богатые люди. Ему приходится расследовать дела, в которые впутываются жители Рублевки, и делает он это нередко превышая свои полномочия. Грише около 30 лет, он красив, одинок, богат, циничен, азартен и ко всему относится с изрядной долей черного юмора. Он заботится о младшей сестре-хулиганке, которую вынужден постоянно вытаскивать из неприятностей. Гриша не прикладывая усилий умеет нравиться женщинам и регулярно издевается над своим начальником Яковлевым.

Выпущено: Россия, АВ КонтентПродолжительность: ~ 00:50:00Перевод: Русский

ФайлКодек: х264Качество: SATRip-AVCВидео: 720х406 (16:9), 25 fps, x264, 2000 Kbps, 0.274 bit/pixelЗвук: 48,0 kHz, Audio Coding 3, 2 ch, ~192 kbps avg

Инфо файл

Общее Уникальный идентификатор : 245598517888739956307158464326370735759 (0xB8C48DD2484BA46B9A37C5CFF852368F) Полное имя : D:ВидеоПолицейский с рублёвки s1. 2016.SATRip(AVC) by Vovan366(ExKinoRay)Полицейский с рублёвки .08 серия. 2016.SATRip(AVC)by Vovan366(ExKinoRay).mkv Формат : Matroska Версия формата : Version 2 Размер файла : 801 Мбайт Продолжительность : 51 м. Общий поток : 2193 Кбит/сек Дата кодирования : UTC 2016-04-01 10:41:59 Программа кодирования : mkvmerge v7.8.0 ('River Man') 32bit built on Apr 3 2015 12:11:22 Библиотека кодирования : libebml v1.3.1 + libmatroska v1.4.2

Видео Идентификатор : 1 Формат : AVC Формат/Информация : Advanced Video Codec Профиль формата : [email protected] Параметр CABAC формата : Нет Параметр ReFrames формата : 10 кадров Идентификатор кодека : V_MPEG4/ISO/AVC Продолжительность : 51 м. Битрейт : 2000 Кбит/сек Ширина : 720 пикселей Высота : 406 пикселей Соотношение сторон : 16:9 Режим частоты кадров : Постоянный Частота кадров : 25,000 кадров/сек Цветовое пространство : YUV Субдискретизация насыщенности : 4:2:0 Битовая глубина : 8 бит Тип развёртки : Прогрессивная Бит/(Пиксели*Кадры) : 0.274 Размер потока : 715 Мбайт (89%) Библиотека кодирования : x264 core 146 r2538 121396c Настройки программы : cabac=0 / ref=10 / deblock=1:-3:-3 / analyse=0x3:0x113 / me=umh / subme=10 / psy=1 / psy_rd=1.01:0.10 / mixed_ref=1 / me_range=32 / chroma_me=1 / trellis=2 / 8x8dct=1 / cqm=0 / deadzone=21,11 / fast_pskip=0 / chroma_qp_offset=-3 / threads=6 / lookahead_threads=1 / sliced_threads=0 / nr=0 / decimate=0 / interlaced=0 / bluray_compat=0 / constrained_intra=0 / bframes=10 / b_pyramid=2 / b_adapt=2 / b_bias=0 / direct=3 / weightb=1 / open_gop=0 / weightp=2 / keyint=250 / keyint_min=25 / scenecut=40 / intra_refresh=0 / rc=2pass / mbtree=0 / bitrate=2000 / ratetol=1.0 / qcomp=0.60 / qpmin=0 / qpmax=69 / qpstep=4 / cplxblur=20.0 / qblur=0.5 / ip_ratio=1.40 / pb_ratio=1.30 / aq=1:1.00 Default : Да Forced : Нет Основные цвета : BT.601 PAL Характеристики трансфера : BT.470 System B, BT.470 System G Коэффициенты матрицы : BT.601

Аудио Идентификатор : 2 Формат : AC-3 Формат/Информация : Audio Coding 3 Расширение режима : CM (complete main) Параметр Endianness формата : Big Идентификатор кодека : A_AC3 Продолжительность : 51 м. Вид битрейта : Постоянный Битрейт : 192 Кбит/сек Каналы : 2 канала Расположение каналов : Front: L R Частота : 48,0 КГц Битовая глубина : 16 бит Метод сжатия : С потерями Размер потока : 70,2 Мбайт (9%) Default : Да Forced : Нет

Rip by: Vovan366

mrutor.org

Скачать торрент Полицейский с рублёвки [S01] (2016) SATRip-AVC

Информация о фильмеНазвание: Полицейский с рублёвкиГод выхода: 2016Жанр: Комедия, криминал, драмаРежиссер: Илья КуликовВ ролях: Александр Петров, Александра Бортич, Сергей Бурунов, Татьяна Бабенкова, Софья Каштанова, Роман Попов, Ростислав Гулбис, Анастасия Стежко, Лилия Лаврова, Виктория Тарасова, Анна Котова, Сергей Калашников, Сергей Штатнов, Владимир Рузанов

О фильме: «Полицейский с Рублёвки» — это история о Грише Измайлове, полицейском, который призван охранять покой и порядок в самом элитном районе России, где живут невероятно богатые люди. Ему приходится расследовать дела, в которые впутываются жители Рублевки, и делает он это нередко превышая свои полномочия. Грише около 30 лет, он красив, одинок, богат, циничен, азартен и ко всему относится с изрядной долей черного юмора. Он заботится о младшей сестре-хулиганке, которую вынужден постоянно вытаскивать из неприятностей. Гриша не прикладывая усилий умеет нравиться женщинам и регулярно издевается над своим начальником Яковлевым.

Выпущено: Россия, АВ КонтентПродолжительность: ~ 00:50:00Перевод: Русский

ФайлКодек: х264Качество: SATRip-AVCВидео: 720х406 (16:9), 25 fps, x264, 2000 Kbps, 0.274 bit/pixelЗвук: 48,0 kHz, Audio Coding 3, 2 ch, ~192 kbps avg

Инфо файл

Общее Уникальный идентификатор : 245598517888739956307158464326370735759 (0xB8C48DD2484BA46B9A37C5CFF852368F) Полное имя : D:ВидеоПолицейский с рублёвки s1. 2016.SATRip(AVC) by Vovan366(ExKinoRay)Полицейский с рублёвки .08 серия. 2016.SATRip(AVC)by Vovan366(ExKinoRay).mkv Формат : Matroska Версия формата : Version 2 Размер файла : 801 Мбайт Продолжительность : 51 м. Общий поток : 2193 Кбит/сек Дата кодирования : UTC 2016-04-01 10:41:59 Программа кодирования : mkvmerge v7.8.0 ('River Man') 32bit built on Apr 3 2015 12:11:22 Библиотека кодирования : libebml v1.3.1 + libmatroska v1.4.2

Видео Идентификатор : 1 Формат : AVC Формат/Информация : Advanced Video Codec Профиль формата : [email protected] Параметр CABAC формата : Нет Параметр ReFrames формата : 10 кадров Идентификатор кодека : V_MPEG4/ISO/AVC Продолжительность : 51 м. Битрейт : 2000 Кбит/сек Ширина : 720 пикселей Высота : 406 пикселей Соотношение сторон : 16:9 Режим частоты кадров : Постоянный Частота кадров : 25,000 кадров/сек Цветовое пространство : YUV Субдискретизация насыщенности : 4:2:0 Битовая глубина : 8 бит Тип развёртки : Прогрессивная Бит/(Пиксели*Кадры) : 0.274 Размер потока : 715 Мбайт (89%) Библиотека кодирования : x264 core 146 r2538 121396c Настройки программы : cabac=0 / ref=10 / deblock=1:-3:-3 / analyse=0x3:0x113 / me=umh / subme=10 / psy=1 / psy_rd=1.01:0.10 / mixed_ref=1 / me_range=32 / chroma_me=1 / trellis=2 / 8x8dct=1 / cqm=0 / deadzone=21,11 / fast_pskip=0 / chroma_qp_offset=-3 / threads=6 / lookahead_threads=1 / sliced_threads=0 / nr=0 / decimate=0 / interlaced=0 / bluray_compat=0 / constrained_intra=0 / bframes=10 / b_pyramid=2 / b_adapt=2 / b_bias=0 / direct=3 / weightb=1 / open_gop=0 / weightp=2 / keyint=250 / keyint_min=25 / scenecut=40 / intra_refresh=0 / rc=2pass / mbtree=0 / bitrate=2000 / ratetol=1.0 / qcomp=0.60 / qpmin=0 / qpmax=69 / qpstep=4 / cplxblur=20.0 / qblur=0.5 / ip_ratio=1.40 / pb_ratio=1.30 / aq=1:1.00 Default : Да Forced : Нет Основные цвета : BT.601 PAL Характеристики трансфера : BT.470 System B, BT.470 System G Коэффициенты матрицы : BT.601

Аудио Идентификатор : 2 Формат : AC-3 Формат/Информация : Audio Coding 3 Расширение режима : CM (complete main) Параметр Endianness формата : Big Идентификатор кодека : A_AC3 Продолжительность : 51 м. Вид битрейта : Постоянный Битрейт : 192 Кбит/сек Каналы : 2 канала Расположение каналов : Front: L R Частота : 48,0 КГц Битовая глубина : 16 бит Метод сжатия : С потерями Размер потока : 70,2 Мбайт (9%) Default : Да Forced : Нет

Rip by: Vovan366

krutor.org

Скачать торрент Полицейский с рублёвки [S01] (2016) WEB-DLRip-AVC от ExKinoRay :: Mrutor.org

Информация о фильмеНазвание: Полицейский с рублёвкиГод выхода: 2016Жанр: Комедия, криминал, драмаРежиссер: Илья КуликовВ ролях: Александр Петров, Александра Бортич, Сергей Бурунов, Татьяна Бабенкова, Софья Каштанова, Роман Попов, Ростислав Гулбис, Анастасия Стежко, Лилия Лаврова, Виктория Тарасова, Анна Котова, Сергей Калашников, Сергей Штатнов, Владимир Рузанов

О фильме: «Полицейский с Рублёвки» — это история о Грише Измайлове, полицейском, который призван охранять покой и порядок в самом элитном районе России, где живут невероятно богатые люди. Ему приходится расследовать дела, в которые впутываются жители Рублевки, и делает он это нередко превышая свои полномочия. Грише около 30 лет, он красив, одинок, богат, циничен, азартен и ко всему относится с изрядной долей черного юмора. Он заботится о младшей сестре-хулиганке, которую вынужден постоянно вытаскивать из неприятностей. Гриша не прикладывая усилий умеет нравиться женщинам и регулярно издевается над своим начальником Яковлевым.

Выпущено: Россия, АВ КонтентПродолжительность: ~ 00:50:00Перевод: Русский

ФайлКодек: х264Качество: WEB-DLRip-AVCВидео: 1024х576 (16:9), 25 fps, x264, 1800 Kbps, 0.122 bit/pixelЗвук: 48,0 kHz, Audio Coding 3, 2 ch, ~192 kbps avg

Инфо файл

Общее Уникальный идентификатор : 195833725388119069705909774023447838399 (0x9354341E1E9DBD4AB1DFF1A328007EBF) Полное имя : D:ВидеоПолицейский с рублёвки . WEB-DLRip-AVC by Vovan366(ExKinoRay)Полицейский с рублёвки .01 серия. 2016.WEB-DLRip-AVC by Vovan366(ExKinoRay).mkv Формат : Matroska Версия формата : Version 2 Размер файла : 714 Мбайт Продолжительность : 50 м. Общий поток : 1993 Кбит/сек Дата кодирования : UTC 2016-06-18 03:58:18 Программа кодирования : mkvmerge v7.8.0 ('River Man') 32bit built on Apr 3 2015 12:11:22 Библиотека кодирования : libebml v1.3.1 + libmatroska v1.4.2

Видео Идентификатор : 1 Формат : AVC Формат/Информация : Advanced Video Codec Профиль формата : [email protected] Параметр CABAC формата : Да Параметр ReFrames формата : 10 кадров Идентификатор кодека : V_MPEG4/ISO/AVC Продолжительность : 50 м. Битрейт : 1800 Кбит/сек Ширина : 1024 пикселя Высота : 576 пикселей Соотношение сторон : 16:9 Режим частоты кадров : Постоянный Частота кадров : 25,000 кадров/сек Цветовое пространство : YUV Субдискретизация насыщенности : 4:2:0 Битовая глубина : 8 бит Тип развёртки : Прогрессивная Бит/(Пиксели*Кадры) : 0.122 Размер потока : 631 Мбайт (88%) Библиотека кодирования : x264 core 146 r2538 121396c Настройки программы : cabac=1 / ref=10 / deblock=1:-1:-1 / analyse=0x3:0x113 / me=umh / subme=10 / psy=1 / psy_rd=1.00:0.00 / mixed_ref=1 / me_range=32 / chroma_me=1 / trellis=2 / 8x8dct=1 / cqm=0 / deadzone=21,11 / fast_pskip=1 / chroma_qp_offset=-2 / threads=6 / lookahead_threads=1 / sliced_threads=0 / nr=0 / decimate=0 / interlaced=0 / bluray_compat=0 / constrained_intra=0 / bframes=10 / b_pyramid=2 / b_adapt=2 / b_bias=0 / direct=1 / weightb=1 / open_gop=0 / weightp=2 / keyint=250 / keyint_min=25 / scenecut=40 / intra_refresh=0 / rc=2pass / mbtree=0 / bitrate=1800 / ratetol=1.0 / qcomp=0.60 / qpmin=0 / qpmax=69 / qpstep=4 / cplxblur=20.0 / qblur=0.5 / ip_ratio=1.40 / pb_ratio=1.30 / aq=1:1.00 Default : Да Forced : Нет Основные цвета : BT.709 Характеристики трансфера : BT.709 Коэффициенты матрицы : BT.709

Аудио Идентификатор : 2 Формат : AC-3 Формат/Информация : Audio Coding 3 Расширение режима : CM (complete main) Параметр Endianness формата : Big Идентификатор кодека : A_AC3 Продолжительность : 50 м. Вид битрейта : Постоянный Битрейт : 192 Кбит/сек Каналы : 2 канала Расположение каналов : Front: L R Частота : 48,0 КГц Битовая глубина : 16 бит Метод сжатия : С потерями Размер потока : 68,7 Мбайт (10%) Default : Да Forced : Нет

Релиз от: Rip by: Vovan366

mrutor.org


Смотрите также