Прометей режиссерская версия скачать торрент 1080


rutor.org :: Прометей / Prometheus (2012) BDRip 1080p от Ash61 | Расширенная Фан-версия

Прометей (Расширенная Фан-версия)Prometheus (Extended Fan Cut)

«Они искали колыбель человечества, но нашли его погибель»

Год выпуска: 2012Страна: США, Великобритания (20th Century Fox, Dune Entertainment, Scott Free Productions, Brandywine Productions Ltd.)Жанр: Фантастика, Детектив, ПриключенияПродолжительность: 02:35:01

Перевод: Профессиональный дублированный + Любительский одноголосый закадровый (в добавленных и альтернативных сценах)

Режиссер и продюсер: Ридли Скотт / Ridley ScottСценаристы: Джон Спэйтс / Jon Spaihts, Дэймон Линделоф / Damon Lindelof, Дэн О’Бэннон / Dan O'Bannon, Рональд Шусетт / Ronald ShusettКомпозитор: Марк Стрейтенфелд / Marc StreitenfeldРоли исполняли (дублировали):

Элизабет Шоу - Нуми Рапас (Ольга Сирина)Дэвид - Майкл Фассбендер (Илья Исаев)Мередит Викерс - Шарлиз Терон (Татьяна Шитова)Джанек - Идрис Эльба (Александр Груздев)Питер Уэйлэнд - Гай Пирс (Александр Пожаров)Чарли Холоуэй - Логан Маршалл-Грин (Денис Шведов)Файфилд - Шон Харрис (Радик Мухаметзянов)Миллберн - Рейф Сполл (Михаил Тарабукин)Ченс - Иман Эллиотт (Даниил Эльдаров)Рейвел - Бенедикт Вонг (Дмитрий Поляновский)Форд - Кейт Дики (Ирина Киреева)Отец Элизабет - Патрик Уилсон (Даниил Эльдаров)Т. Э. Лоуренс, хроника - Питер О’Тул

Описание: В поисках сакрального знания группа ученых отправляется в самые темные и неизведанные чертоги вселенной. Именно там, в отдаленных мирах, находясь на пределе своих умственных и физических возможностей, им предстоит вступить в безжалостную схватку за будущее всего человечества… В данном своём проекте Ридли Скотт, режиссёр фильмов "Чужой", "Гладиатор", "Бегущий по лезвию", вновь возвращается к жанру, который им же в своё время и был создан. "Прометей" предлагает зрителю принципиально новую мифологию о зарождении жизни на Земле.Доп. инфо: Официальная версия фильма была продолжительностью - 02:03:45. Монтаж видео, аудио и субтитров - Ash61. Если заметите какие-либо недочёты - пишите (возможно подкорректирую). Чёрные полосы обрезать не стал, т.к. две добавленные сцены идут 16:9 (без полос). Все возможные сцены заменены на альтернативные, вставлены все вырезанные (только в Послании Прометея не стал вставлять то, что посчитал лишним):

Карта добавленных и заменённых сцен

00:03:05 - 00:03:33 - Прибытие Инженеров (альтернативная сцена) 00:05:22 - 00:12:16 - Конференция TED, 2023 (добавленная сцена) 00:14:39 - 00:17:11 - Послание Элизабет Шоу Вейланду (добавленная сцена) 00:17:11 - 00:19:34 - "Рождение" Дэвида (добавленная сцена) 00:19:34 - 00:20:12 - Послание Прометея Инженерам (отрывок 1) (добавленная сцена) 00:20:12 - 00:22:50 - Послание Прометея Инженерам (отрывок 2) (добавленная сцена) 00:22:50 - 00:23:22 - Послание Прометея Инженерам (отрывок 3) (добавленная сцена) 00:30:04 - 00:31:04 - Рождество (альтернативная расширенная сцена) 00:50:31 - 00:51:15 - Наш первый инопланетянин (добавленная сцена) 01:02:01 - 01:02:45 - Кожа (добавленная сцена) 01:03:38 - 01:05:03 - Мы больше не одни (добавленная сцена) 01:15:46 - 01:18:51 - Странные компаньоны (альтернативная сцена) 01:24:51 - 01:25:11 - Похмелье Холлоуэя (расширение сцены) 01:35:12 - 01:35:36 - Задача Дэвида (добавленная сцена) 01:40:43 - 01:44:19 - Дженек успокаивает Викерс (добавленная сцена) 01:48:41 - 01:50:48 - Файфилд атакует (альтернативная сцена) 01:56:23 - 02:00:13 - Король правит (альтернативная расширенная сцена) 02:04:14 - 02:06:38 - Инженер говорит (альтернативная расширенная сцена) 02:16:00 - 02:21:04 - Финальная битва (альтернативная расширенная сцена) 02:22:26 - 02:27:30 - Рай (альтернативная расширенная сцена)

Знаете ли вы, что...

  • Логан Маршалл-Грин охарактеризовал свою роль Чарли Холлоуэя как специалиста по всемирным экстремальным играм с кабельного спортивного канала «ESPN», который смотрит, прежде чем прыгает.
  • Г. Р. Гигер создавший внешний вид ксеноморфа для «Чужого» (1979) был приглашен консультантом по дизайну чужих для этого фильма.
  • По слухам, Бен Фостер мог получить одну из ролей в фильме.
  • Продюсеры Уолтер Хилл и Дэвид Гайлер присоединились к Ридли Скотту впервые за последние 30 лет, с момента их первого сотрудничества, когда они работали над фильмом «Чужой» (1979).
  • Джемма Артертон, Кэри Маллиган, Оливия Уайлд, Энн Хэтэуэй, Эбби Корниш и Натали Портман рассматривались на роль доктора Элизабет Шоу.
  • Роль Чарли Холлоуэя могла достаться Джеймсу Франко.
  • Изначально, фильм должен был стать приквелом фильма «Чужой» (1979), режиссером которого также является Ридли Скотт. Но им же было принято решение сделать «Прометей» оригинальным фильмом с Нуми Рапас (она ещё тогда была заявлена на роль), которая в итоге стала исполнительницей одной из пяти главных ролей. Спустя время было утверждено, что, несмотря на то, что действие фильма будет происходить в той же вселенной, что и «Чужой» (1979) и во многом ссылаться на него, фактически это будет оригинальный фильм, не являющийся прямым приквелом.
  • Мишель Йео рассматривалась на роль Мередит Викерс.
  • Чтобы подчеркнуть загадочный характер Мередит Викерс, Ридли Скотт объяснял Шарлиз Терон как замирать, затаившись в углу, и скрытно передвигаться.
  • Ридли Скотт назвал фильм «Прометей», посчитав, что именно такое название полностью отражает его суть: «Это история создания; история о богах и человеке, который восстал против них». В древнегреческой мифологии слуга богов титан Прометей похитил огонь и передал его людям, что навсегда изменило жизнь человечества к лучшему и худшему одновременно.
  • В процессе создания фильма Ридли Скотт старался прибегать к помощи компьютерной графики как можно реже, используя ее главным образом в пространственных сценах. Скотт вспомнил совет специалиста по визуальным эффектам Дугласа Трамбалла, который тот дал ему во время съемок фильма «Бегущий по лезвию» (1982): «Если ты можешь сделать это в живую, делай это в живую», а также заявил, что реальные визуальные эффекты гораздо более рентабельны, чем цифровые.
  • Для раскрутки фильма была использована инновационная вирусная рекламная кампания, состоящая из нескольких видеороликов изображающих мир в ближайшем будущем из фильма. Первым был ролик с речью Питера Уэйланда (Гай Пирс) на конференции «TED», от 2028 года. Затем вышли две различные версии рекламы андроида «David 8» (Майкл Фассбендер). Эти видеоролики были придуманы Ридли Скоттом и Дэймоном Линделофом, а поставлены Люком Скоттом (сыном Ридли).
  • Ридли Скотт предложил актерам «пожить» в декорациях на съёмочной площадке, но этого не произошло из-за нарушений по технике безопасности и возможной угрозы здоровью актеров.
  • Шведская актриса Нуми Рапас много тренировалась для своей роли, чтобы говорить с британским акцентом.
  • Шарлиз Терон пришлось нелегко во время съёмок экшн-сцен из-за привычки к курению, особенно во время сцен, где ей нужно было бегать по песку в обуви весом четырнадцать килограмм.
  • Первоначально фильм должен был называться «Рай», так планировалось в декабре 2010 года.
  • Оператор Дариуш Вольски убедил Ридли Скотта, что фильм можно снять в 3D с той же легкостью и эффективностью, как и обычный фильм. Компания «3ality Technica» предоставила оборудование для облегчения 3D-съемки и обучала персонал работе с ним. Так как съёмки 3D-фильмов требуют более высокого освещения на съёмочной площадке, темная мрачная атмосфера, присущая фильмам о чужих, была добавлена на завершающем этапе.
  • В фильме содержится около 1300 кадров со спецэффектами.
  • Ридли Скотт заявил, что он снимал «самый агрессивный фильм, что мог» не думая о рейтингах MPAA, имея поддержку от главного исполнительного директора «20th Century Fox» Тома Ротмана, который обратился к поклонникам «Чужого»(1979), заявив, что он «очень хорошо понимает их озабоченность», и что «они могут быть уверены, что фильм не будет скомпрометирован. Так что, если это означает, что фильм получит рейтинг R, то это будет R. Если это будет PG-13, то PG-13, но фильм не пострадает от этого в любом случае». Скотт снял фильм, помня про оба рейтинга(R и PG-13), позволяя в случае необходимости урезать более «взрослые» моменты без ущерба для общего представления. В конце концов, фильм был отнесен к категории R за «научно-фантастическую» жестокость, наряду с откровенными кадрами и грубыми выражениями» и был выпущен без каких-либо сокращений.
  • 7 мая 2012 года, Гильермо дель Торо заявил, что его длинная запланированная подготовка для фильма «Хребты безумия» была отложена на неопределенный срок, как только он почувствовал, что подход в фильме Ридли Скотта был очень схож с тем, как он работал над повестью Лавкрафта, вплоть до того, что «были бы почти идентичные сцены, одинаковые ветви сюжета и точно такие же откровения в конце».
  • При подготовке к роли Дэвида Майкл Фассбендер посмотрел такие фильмы как: «Бегущий по лезвию» (1982), «Человек, который упал на Землю» (1976), «Слуга» (1963) и «Лоуренс Аравийский» (1962). Фассбендер также изучал олимпийского чемпиона по прыжкам в воду Грега Луганиса, черпая вдохновение в его физических качествах.
  • По словам Ридли Скотта, вдохновением к сюжету фильма послужили работы Эриха фон Дэникена о пребывании в далеком прошлом на Земле инопланетных космонавтов: «И NASA, и Ватикан согласны, что математически это почти невозможно, чтобы мы были там, где находимся сегодня, без наличия небольшой помощи на этом пути. Вот что нас интересует: мы говорим о богах и инженерах, инженерах пространства. Были ли чужие задуманы как форма биологического оружия, или как нечто, что придет и очистит планету?».
  • Сцена, которая открывает фильм, была отснята в Исландии. Вся съемка заняла две недели.
  • Во время полёта Дэвид смотрит картину Дэвида Лина «Лоуренс Аравийский» (1962) и пытается повторить прическу главного героя в исполнении Питера О`Тула.
  • Ридли Скотт обратился в Лондонский Университет по изучению стран Востока и Африки, чтобы найти специалистов, которые могли бы помочь в создании нового языка для фильма. В итоге Анил Бильту (Anil Biltoo), из языкового центра этого университета, взялся за работу по созданию языка, а так же письменности инопланетян, которую можно видеть на протяжении всего фильма. Самого Анила можно увидеть в сцене с Майклом Фассбендером.
  • Когда во время песчаной бури спасают доктора Элизабет Шоу, доктор Холлоуэй называет ее «Нуми».
  • Первые кадры наскальных рисунков в начале фильма, которые показывают лошадь в движении, взяты из пещеры Шове на юге Франции. Об этих рисунках Вернер Херцог снял документальный фильм «Пещера забытых снов» (2010) (кстати снят он тоже в 3D).
  • Это не единственная роль Йена Уайта (он играет последнего инженера) связанная с серией фильмов про «Чужих». Уайт так же играл Хищников в серии фильмов «Чужой против Хищника».
  • На конференции, когда Шоу обсуждает свои находки, на заднем плане можно увидеть надпись «Eilean a» Cheo». В переводе с шотландского (кельтского) это означает «Остров Туманов», этот остров так же называют Скай, и его название правильно писать «An t-Eilean Sgitheanach».
  • Три треугольника — логотип корпорации Вейланд (который визуально похож на логотип The Weinstein Company) на самом деле происходит от рисунка на стене на фоне в ранней картине Рона Кобба изображающей «Космического пилота» для оригинального фильма про «Чужих». Этот логотип можно видеть в отпечатках пальцев Дэвида.
  • Как упоминалось в фильме, Прометей — персонаж из греческой мифологии. Он был титаном (бессмертным), который подарил людям огонь. Прометей был наказан за это, он был привязан к скале в Колхиде, где каждый день прилетал орел (символ Зевса), чтобы клевать его печень. И только она успевала отрасти, как на следующий день орел прилетал и съедал ее вновь. В некоторых сказаниях, Прометея в конце концов освобождает Геракл (Геркулес). Среди древних греков Прометей почитался как божество. Прометей может происходить от греческого «forethinker» (предвидящий) или от прото-индо-европейского «thief» (вор). Прометей так же обманул богов, что имеет значимость для фильма.
  • Когда Викерс спрашивает Дэвида, как долго они были в гипер-сне, он отвечает: «2 года, 4 месяца, 18 дней, 36 часов, 15 минут». Непонятно почему день должен быть длиннее, чем стандартные 24 часа, и почему он не сказал «19 дней, 12 часов».
  • Расстояние до экзо-планеты, на которую они прилетают, как указано, порядка 10^14км. И так как им потребовалось чуть больше двух лет, чтобы попасть туда, то лететь они должны были на скорости в 10 раз превышающей скорость света.

    Осторожно! Дальнейший список содержит спойлеры!

  • Ридли Скотт решил не показывать ксеноморфов в фильме, потому как «сиквелы выжали из них максимум, и всё было отлично… но я никоим образом не собираюсь к ним возвращаться». Фильм всё же является косвенным приквелом к «Чужому» (1979), и Скотт решил показать предков чужих, родителей ксеноморфов.
  • Имена андроидов в фильмах о чужих идут в алфавитном порядке: Ash в «Чужом»; Bishop в «Чужих» и «Чужом 3»; Call в «Чужом 4: Воскрешение». В «Прометее» — David.
  • Когда капитан Янек заигрывает с Мередит Викерс, она утверждает, что находится на расстоянии «полмиллиарда миль» от других людей. Это расстояние едва-едва укладывается от Солнца до Юпитера, не говоря уже о других солнечных системах.
  • В фильме видно, что Элизабет Шоу может ходить, бегать, прыгать и выполнять тяжелую физическую работу, и это сразу после кесарева сечения, с грубыми швами на животе. Хотя, многократно показывают, как она употребляет наркотики, что могло бы объяснить то, что она не чувствует боли и набирает силу.
  • Ошибки в фильме (осторожно, содержатся спойлеры!)...

  • Дэвид спасает Элизабет и Чарли от песчаной бури «разрезающей скафандры», и в следующей же сцене в шлюзовой камере мы видим, что костюмы без единой царапины.
  • После того как на шлем Холлоуэйя попадает кровь «Чужого», она расплавляет пластик и капает ему на лицо оставляя огромный отпечаток. Позже, когда остальные члены команды выходят из корабля, чтобы спасти его, у него лишь небольшая пробоина в шлеме.
  • Вскоре после того, как команда впервые взошла на корабль, говорится, что температура -23°C, тем не менее никто из ученых (все из них сняли шлемы), по всей видимости, не страдает от холода.
  • Когда Дэвид снимает крест Шоу, цепь достаточно короткая, и Дэвиду приходится расстегивать зажим, чтобы ее снять. Однако, позже в фильме, когда она сама снимает его, длины цепи хватает, чтобы просто снять его через голову.
  • Скафандры экипажа Прометея сделаны очень странным образом: они могут выдержать свирепую песчаную бурю и на них не остается даже царапины, но они легко рвутся, когда несчастный астронавт ломает руку или когда от удара разбивается шлем.
  • Когда Шоу выходит из спасательной капсулы на ней надет шлем, но нет перчаток. В следующем кадре она в перчатках.
  • Момент, когда доктор Шоу хватает топор, происходит мгновенно, от кадра снятого из-за нее, к кадру перед ней.
  • Много раз во время начального исследования планеты показывают как шлемы персонажей очищают паром, и затем в следующем кадре они абсолютно прозрачные.
  • Когда доктор Шоу заходит на корабль, который совершил аварийную посадку на планету, можно видеть книги и вещи раскиданные повсюду, но бутылка водки стоит на барной стойке как ни в чем не бывало рядом со шлемом и неким контейнером.
  • Когда Викерс стоит перед Вейландом и говорит о том, почему она отправилась в путешествие, ее руки меняют положение несколько раз. В одном кадре они перед ней, а в следующем уже за ней.
  • Премьера: 30 мая 2012 (31 мая 2012)Релиз на Blu-Ray (DVD) (Россия): 4 октября 2012Бюджет: $130 000 000Кассовые сборы: $403 354 469

    Качество: BDRip (by Ash61)Контейнер: MKVВидео: AVC / 23,976 fps / 1920х1080p / ~8.7 Mbps

    Аудио:#1 - Русский / AC3 / 48 KHz / 5.1 ch / 640 Kbps (Дубляж [BD Eur] + VO)#2 - Английский / AC3 / 48 KHz / 5.1 ch / 640 Kbps (Original - BD Eur)

    Субтитры (SRT):Вшитые (softsub):#1 - Русские Форсированные (включены по умолчанию)#2 - Русские Полные#3 - English Full

    Внешние (UTF-8):#1 - Русские Форсированные (включены по умолчанию)

    MediaInfo

    General Unique ID : 229583362325432921387009562857634839796 (0xACB825B0718F4CD592690078FE28BCF4) Complete name : E:Prometheus(2012)(ExtendedFanCut)BDRip.1080p(Ash61)Prometheus(2012)(ExtendedFanCut)BDRip.1080p(Ash61).mkv Format : Matroska Format version : Version 2 File size : 13.8 GiB Duration : 2h 35mn Overall bit rate : 12.7 Mbps Encoded date : UTC 2015-07-10 14:44:50 Writing application : mkvmerge v5.8.0 ('No Sleep / Pillow') built on Sep 2 2012 15:37:04 Writing library : libebml v1.2.3 + libmatroska v1.3.0

    Video ID : 1 Format : AVC Format/Info : Advanced Video Codec Format profile : [email protected] Format settings, CABAC : Yes Format settings, ReFrames : 4 frames Codec ID : V_MPEG4/ISO/AVC Duration : 2h 35mn Bit rate : 11.2 Mbps Width : 1 920 pixels Height : 1 080 pixels Display aspect ratio : 16:9 Frame rate mode : Constant Frame rate : 23.976 fps Color space : YUV Chroma subsampling : 4:2:0 Bit depth : 8 bits Scan type : Progressive Bits/(Pixel*Frame) : 0.225 Stream size : 12.1 GiB (88%) Title : BDRip and Montage by Ash61 Writing library : x264 core 138 r2358 9e941d1 Encoding settings : cabac=1 / ref=4 / deblock=1:-3:-3 / analyse=0x3:0x113 / me=umh / subme=10 / psy=1 / psy_rd=1.00:0.00 / mixed_ref=1 / me_range=32 / chroma_me=1 / trellis=2 / 8x8dct=1 / cqm=0 / deadzone=21,11 / fast_pskip=1 / chroma_qp_offset=-2 / threads=12 / lookahead_threads=2 / sliced_threads=0 / nr=0 / decimate=1 / interlaced=0 / bluray_compat=0 / constrained_intra=0 / bframes=9 / b_pyramid=2 / b_adapt=2 / b_bias=0 / direct=3 / weightb=1 / open_gop=0 / weightp=2 / keyint=250 / keyint_min=23 / scenecut=40 / intra_refresh=0 / rc_lookahead=60 / rc=crf / mbtree=1 / crf=15.0 / qcomp=0.70 / qpmin=0 / qpmax=51 / qpstep=4 / vbv_maxrate=40000 / vbv_bufsize=30000 / crf_max=0.0 / nal_hrd=none / ip_ratio=1.40 / aq=1:0.70 Language : English Default : Yes Forced : No

    Audio #1 ID : 2 Format : AC-3 Format/Info : Audio Coding 3 Mode extension : CM (complete main) Format settings, Endianness : Big Codec ID : A_AC3 Duration : 2h 35mn Bit rate mode : Constant Bit rate : 640 Kbps Channel(s) : 6 channels Channel positions : Front: L C R, Side: L R, LFE Sampling rate : 48.0 KHz Bit depth : 16 bits Compression mode : Lossy Stream size : 710 MiB (5%) Title : Дубляж (BD-5.1ch) + вставки одноголосого закадрового (Ash61) (2.1ch) (Montage by Ash61) Language : Russian Default : Yes Forced : No

    Audio #2 ID : 3 Format : AC-3 Format/Info : Audio Coding 3 Mode extension : CM (complete main) Format settings, Endianness : Big Codec ID : A_AC3 Duration : 2h 35mn Bit rate mode : Constant Bit rate : 640 Kbps Channel(s) : 6 channels Channel positions : Front: L C R, Side: L R, LFE Sampling rate : 48.0 KHz Bit depth : 16 bits Compression mode : Lossy Stream size : 710 MiB (5%) Title : Original (5.1ch) + Inserts (2ch) (Montage by Ash61) Language : English Default : No Forced : No

    Text #1 ID : 4 Format : UTF-8 Codec ID : S_TEXT/UTF8 Codec ID/Info : UTF-8 Plain Text Title : Форсированные Language : Russian Default : Yes Forced : No

    Text #2 ID : 5 Format : UTF-8 Codec ID : S_TEXT/UTF8 Codec ID/Info : UTF-8 Plain Text Title : Полные Language : Russian Default : No Forced : No

    Text #3 ID : 6 Format : UTF-8 Codec ID : S_TEXT/UTF8 Codec ID/Info : UTF-8 Plain Text Title : Full Language : English Default : No Forced : No

    Menu 00:00:00.000 : en:1. 00:03:05.230 : en:2. Прибытие Инженеров (альтернативная сцена) 00:03:33.006 : en:3. 00:05:22.742 : en:4. Конференция TED, 2023 (добавленная сцена) 00:12:15.720 : en:5. 00:14:39.170 : en:6. Послание Шоу Вейланду (добавленная сцена) 00:17:10.980 : en:7. "Рождение" Дэвида (добавленная сцена) 00:19:34.465 : en:8. Послание Прометея ч.1 (добавленная сцена) 00:20:12.160 : en:9. Послание Прометея ч.2 (добавленная сцена) 00:22:50.210 : en:10. Послание Прометея ч.3 (добавленная сцена) 00:23:21.939 : en:11. 00:27:16.856 : en:12. 00:30:03.540 : en:14. Рождество (альтернативная расширенная сцена) 00:31:04.079 : en:15. 00:36:25.122 : en:16. 00:38:53.039 : en:17. 00:44:03.330 : en:18. 00:48:18.049 : en:19. 00:50:31.040 : en:20. Наш первый инопланетянин (добавленная сцена) 00:51:15.104 : en:21. 00:54:57.478 : en:22. 00:57:49.609 : en:23. 01:02:00.765 : en:24. Кожа (добавленная сцена) 01:02:44.985 : en:25. 01:03:37.811 : en:26. Мы больше не одни (добавленная сцена) 01:05:03.268 : en:27. 01:08:01.852 : en:28. 01:09:36.977 : en:29. 01:13:10.310 : en:30. 01:15:46.145 : en:31. Странные компаньоны (альтернативная сцена) 01:18:50.643 : en:32. 01:20:48.229 : en:33. 01:23:36.606 : en:34. 01:24:51.167 : en:35. Похмелье Холлоуэя (расширение сцены) 01:25:10.832 : en:36. 01:28:36.624 : en:37. 01:30:52.248 : en:38. 01:35:11.719 : en:39. Задача Дэвида (добавленная сцена) 01:35:36.103 : en:40. 01:37:08.134 : en:41. 01:40:42.506 : en:42. Дженек успокаивает Викерс (добавленная сцена) 01:44:18.581 : en:43. 01:48:41.456 : en:44.Файфилд атакует (альтернативная сцена) 01:50:48.496 : en:45. 01:53:49.497 : en:46. 01:56:22.872 : en:47. Король правит (альтернативная расширенная сцена) 02:00:12.706 : en:48. 02:04:14.182 : en:49. Инженер говорит (альтернативная расширенная сцена) 02:06:38.475 : en:50. 02:10:40.380 : en:51. 02:15:59.964 : en:52. Финальная битва (альтернативная расширенная сцена) 02:21:03.672 : en:53. 02:22:25.989 : en:54. Рай (альтернативная расширенная сцена) 02:27:29.559 : en:55. 02:29:20.758 : en:56. Финальные титры

    Бонус фото

    Charlize Theron, Logan Marshall-Green, Noomi Rapace, Michael FassbenderNoomi Rapace, Charlize TheronNoomi Rapace, Charlize TheronGuy Pearce, Michael Fassbender, Charlize Theron, Noomi Rapace, Ridley Scott, Logan Marshall-GreenRidley Scott, Charlize Theron, Noomi Rapace, Michael FassbenderCharlize TheronCharlize TheronCharlize TheronCharlize TheronCharlize TheronRidley Scott[/font]

    main-rutor.org

    rutor.org :: Прометей / Prometheus (2012) BDRip 1080p от Ash61 | 3D-Video | halfOU

    Прометей (Расширенная Фан-версия с 2Д-вставками)Prometheus (Extended Fan Cut with 2D-inserts)

    «Они искали колыбель человечества, но нашли его погибель»

    Год выпуска: 2012Страна: США, Великобритания (20th Century Fox, Dune Entertainment, Scott Free Productions, Brandywine Productions Ltd.)Жанр: Фантастика, Детектив, ПриключенияПродолжительность: 02:30:03

    Перевод: Профессиональный дублированный + Любительский одноголосый закадровый (KEWE) (в добавленных сценах)

    Режиссер и продюсер: Ридли Скотт / Ridley ScottСценаристы: Джон Спэйтс / Jon Spaihts, Дэймон Линделоф / Damon Lindelof, Дэн О’Бэннон / Dan O'Bannon, Рональд Шусетт / Ronald ShusettКомпозитор: Марк Стрейтенфелд / Marc StreitenfeldРоли исполняли (дублировали):

    Элизабет Шоу - Нуми Рапас (Ольга Сирина)Дэвид - Майкл Фассбендер (Илья Исаев)Мередит Викерс - Шарлиз Терон (Татьяна Шитова)Джанек - Идрис Эльба (Александр Груздев)Питер Уэйлэнд - Гай Пирс (Александр Пожаров)Чарли Холоуэй - Логан Маршалл-Грин (Денис Шведов)Файфилд - Шон Харрис (Радик Мухаметзянов)Миллберн - Рейф Сполл (Михаил Тарабукин)Ченс - Иман Эллиотт (Даниил Эльдаров)Рейвел - Бенедикт Вонг (Дмитрий Поляновский)Форд - Кейт Дики (Ирина Киреева)Отец Элизабет - Патрик Уилсон (Даниил Эльдаров)Т. Э. Лоуренс, хроника - Питер О’Тул

    Описание: В поисках сакрального знания группа ученых отправляется в самые темные и неизведанные чертоги вселенной. Именно там, в отдаленных мирах, находясь на пределе своих умственных и физических возможностей, им предстоит вступить в безжалостную схватку за будущее всего человечества… В данном своём проекте Ридли Скотт, режиссёр фильмов "Чужой", "Гладиатор", "Бегущий по лезвию", вновь возвращается к жанру, который им же в своё время и был создан. "Прометей" предлагает зрителю принципиально новую мифологию о зарождении жизни на Земле.Доп. инфо: Официальная версия фильма была продолжительностью - 02:03:45. Монтаж видео, аудио и субтитров - Ash61. Если заметите какие-либо недочёты - пишите (возможно подкорректирую). Чистого голоса KEWE у меня не было, потому пара-тройка фраз на грани разборчивости.Добавленные сцены реализованы в псевдо 3Д! Заменял не все альтернативные сцены и не целиком, а только то, что посчитал нужным:

    Карта добавленных и заменённых сцен

    00:03:05 - 00:03:33 - Прибытие Инженеров (альтернативная сцена) 00:05:20 - 00:12:13 - Конференция TED, 2023 (добавленная сцена) 00:14:40 - 00:17:11 - Послание Элизабет Шоу Вейланду (добавленная сцена) 00:17:11 - 00:19:35 - "Рождение" Дэвида (добавленная сцена) 00:19:34 - 00:20:12 - Послание Прометея Инженерам (отрывок 1) (добавленная сцена) 00:20:12 - 00:21:06 - Послание Прометея Инженерам (отрывок 2) (добавленная сцена) 00:21:06 - 00:21:40 - Послание Прометея Инженерам (отрывок 3) (добавленная сцена) 00:28:47 - 00:29:08 - Рождество (расширение сцены) 00:48:35 - 00:49:19 - Наш первый инопланетянин (добавленная сцена) 01:00:05 - 01:00:49 - Кожа (добавленная сцена) 01:01:42 - 01:03:07 - Мы больше не одни (добавленная сцена) 01:22:50 - 01:23:10 - Похмелье Холлоуэя (расширение сцены) 01:33:11 - 01:33:35 - Задача Дэвида (добавленная сцена) 01:38:41 - 01:42:17 - Дженек успокаивает Викерс (добавленная сцена) 02:01:02 - 02:01:49 - Инженер говорит (расширение сцены) 02:12:05 - 02:12:49 - Финальная битва (отрывок 1) (расширение сцены) 02:13:35 - 02:16:17 - Финальная битва (отрывок 2) (альтернативная расширенная сцена) 02:19:04 - 02:19:57 - Рай (расширение сцены)

    Знаете ли вы, что...

  • Логан Маршалл-Грин охарактеризовал свою роль Чарли Холлоуэя как специалиста по всемирным экстремальным играм с кабельного спортивного канала «ESPN», который смотрит, прежде чем прыгает.
  • Г. Р. Гигер создавший внешний вид ксеноморфа для «Чужого» (1979) был приглашен консультантом по дизайну чужих для этого фильма.
  • По слухам, Бен Фостер мог получить одну из ролей в фильме.
  • Продюсеры Уолтер Хилл и Дэвид Гайлер присоединились к Ридли Скотту впервые за последние 30 лет, с момента их первого сотрудничества, когда они работали над фильмом «Чужой» (1979).
  • Джемма Артертон, Кэри Маллиган, Оливия Уайлд, Энн Хэтэуэй, Эбби Корниш и Натали Портман рассматривались на роль доктора Элизабет Шоу.
  • Роль Чарли Холлоуэя могла достаться Джеймсу Франко.
  • Изначально, фильм должен был стать приквелом фильма «Чужой» (1979), режиссером которого также является Ридли Скотт. Но им же было принято решение сделать «Прометей» оригинальным фильмом с Нуми Рапас (она ещё тогда была заявлена на роль), которая в итоге стала исполнительницей одной из пяти главных ролей. Спустя время было утверждено, что, несмотря на то, что действие фильма будет происходить в той же вселенной, что и «Чужой» (1979) и во многом ссылаться на него, фактически это будет оригинальный фильм, не являющийся прямым приквелом.
  • Мишель Йео рассматривалась на роль Мередит Викерс.
  • Чтобы подчеркнуть загадочный характер Мередит Викерс, Ридли Скотт объяснял Шарлиз Терон как замирать, затаившись в углу, и скрытно передвигаться.
  • Ридли Скотт назвал фильм «Прометей», посчитав, что именно такое название полностью отражает его суть: «Это история создания; история о богах и человеке, который восстал против них». В древнегреческой мифологии слуга богов титан Прометей похитил огонь и передал его людям, что навсегда изменило жизнь человечества к лучшему и худшему одновременно.
  • В процессе создания фильма Ридли Скотт старался прибегать к помощи компьютерной графики как можно реже, используя ее главным образом в пространственных сценах. Скотт вспомнил совет специалиста по визуальным эффектам Дугласа Трамбалла, который тот дал ему во время съемок фильма «Бегущий по лезвию» (1982): «Если ты можешь сделать это в живую, делай это в живую», а также заявил, что реальные визуальные эффекты гораздо более рентабельны, чем цифровые.
  • Для раскрутки фильма была использована инновационная вирусная рекламная кампания, состоящая из нескольких видеороликов изображающих мир в ближайшем будущем из фильма. Первым был ролик с речью Питера Уэйланда (Гай Пирс) на конференции «TED», от 2028 года. Затем вышли две различные версии рекламы андроида «David 8» (Майкл Фассбендер). Эти видеоролики были придуманы Ридли Скоттом и Дэймоном Линделофом, а поставлены Люком Скоттом (сыном Ридли).
  • Ридли Скотт предложил актерам «пожить» в декорациях на съёмочной площадке, но этого не произошло из-за нарушений по технике безопасности и возможной угрозы здоровью актеров.
  • Шведская актриса Нуми Рапас много тренировалась для своей роли, чтобы говорить с британским акцентом.
  • Шарлиз Терон пришлось нелегко во время съёмок экшн-сцен из-за привычки к курению, особенно во время сцен, где ей нужно было бегать по песку в обуви весом четырнадцать килограмм.
  • Первоначально фильм должен был называться «Рай», так планировалось в декабре 2010 года.
  • Оператор Дариуш Вольски убедил Ридли Скотта, что фильм можно снять в 3D с той же легкостью и эффективностью, как и обычный фильм. Компания «3ality Technica» предоставила оборудование для облегчения 3D-съемки и обучала персонал работе с ним. Так как съёмки 3D-фильмов требуют более высокого освещения на съёмочной площадке, темная мрачная атмосфера, присущая фильмам о чужих, была добавлена на завершающем этапе.
  • В фильме содержится около 1300 кадров со спецэффектами.
  • Ридли Скотт заявил, что он снимал «самый агрессивный фильм, что мог» не думая о рейтингах MPAA, имея поддержку от главного исполнительного директора «20th Century Fox» Тома Ротмана, который обратился к поклонникам «Чужого»(1979), заявив, что он «очень хорошо понимает их озабоченность», и что «они могут быть уверены, что фильм не будет скомпрометирован. Так что, если это означает, что фильм получит рейтинг R, то это будет R. Если это будет PG-13, то PG-13, но фильм не пострадает от этого в любом случае». Скотт снял фильм, помня про оба рейтинга(R и PG-13), позволяя в случае необходимости урезать более «взрослые» моменты без ущерба для общего представления. В конце концов, фильм был отнесен к категории R за «научно-фантастическую» жестокость, наряду с откровенными кадрами и грубыми выражениями» и был выпущен без каких-либо сокращений.
  • 7 мая 2012 года, Гильермо дель Торо заявил, что его длинная запланированная подготовка для фильма «Хребты безумия» была отложена на неопределенный срок, как только он почувствовал, что подход в фильме Ридли Скотта был очень схож с тем, как он работал над повестью Лавкрафта, вплоть до того, что «были бы почти идентичные сцены, одинаковые ветви сюжета и точно такие же откровения в конце».
  • При подготовке к роли Дэвида Майкл Фассбендер посмотрел такие фильмы как: «Бегущий по лезвию» (1982), «Человек, который упал на Землю» (1976), «Слуга» (1963) и «Лоуренс Аравийский» (1962). Фассбендер также изучал олимпийского чемпиона по прыжкам в воду Грега Луганиса, черпая вдохновение в его физических качествах.
  • По словам Ридли Скотта, вдохновением к сюжету фильма послужили работы Эриха фон Дэникена о пребывании в далеком прошлом на Земле инопланетных космонавтов: «И NASA, и Ватикан согласны, что математически это почти невозможно, чтобы мы были там, где находимся сегодня, без наличия небольшой помощи на этом пути. Вот что нас интересует: мы говорим о богах и инженерах, инженерах пространства. Были ли чужие задуманы как форма биологического оружия, или как нечто, что придет и очистит планету?».
  • Сцена, которая открывает фильм, была отснята в Исландии. Вся съемка заняла две недели.
  • Во время полёта Дэвид смотрит картину Дэвида Лина «Лоуренс Аравийский» (1962) и пытается повторить прическу главного героя в исполнении Питера О`Тула.
  • Ридли Скотт обратился в Лондонский Университет по изучению стран Востока и Африки, чтобы найти специалистов, которые могли бы помочь в создании нового языка для фильма. В итоге Анил Бильту (Anil Biltoo), из языкового центра этого университета, взялся за работу по созданию языка, а так же письменности инопланетян, которую можно видеть на протяжении всего фильма. Самого Анила можно увидеть в сцене с Майклом Фассбендером.
  • Когда во время песчаной бури спасают доктора Элизабет Шоу, доктор Холлоуэй называет ее «Нуми».
  • Первые кадры наскальных рисунков в начале фильма, которые показывают лошадь в движении, взяты из пещеры Шове на юге Франции. Об этих рисунках Вернер Херцог снял документальный фильм «Пещера забытых снов» (2010) (кстати снят он тоже в 3D).
  • Это не единственная роль Йена Уайта (он играет последнего инженера) связанная с серией фильмов про «Чужих». Уайт так же играл Хищников в серии фильмов «Чужой против Хищника».
  • На конференции, когда Шоу обсуждает свои находки, на заднем плане можно увидеть надпись «Eilean a» Cheo». В переводе с шотландского (кельтского) это означает «Остров Туманов», этот остров так же называют Скай, и его название правильно писать «An t-Eilean Sgitheanach».
  • Три треугольника — логотип корпорации Вейланд (который визуально похож на логотип The Weinstein Company) на самом деле происходит от рисунка на стене на фоне в ранней картине Рона Кобба изображающей «Космического пилота» для оригинального фильма про «Чужих». Этот логотип можно видеть в отпечатках пальцев Дэвида.
  • Как упоминалось в фильме, Прометей — персонаж из греческой мифологии. Он был титаном (бессмертным), который подарил людям огонь. Прометей был наказан за это, он был привязан к скале в Колхиде, где каждый день прилетал орел (символ Зевса), чтобы клевать его печень. И только она успевала отрасти, как на следующий день орел прилетал и съедал ее вновь. В некоторых сказаниях, Прометея в конце концов освобождает Геракл (Геркулес). Среди древних греков Прометей почитался как божество. Прометей может происходить от греческого «forethinker» (предвидящий) или от прото-индо-европейского «thief» (вор). Прометей так же обманул богов, что имеет значимость для фильма.
  • Когда Викерс спрашивает Дэвида, как долго они были в гипер-сне, он отвечает: «2 года, 4 месяца, 18 дней, 36 часов, 15 минут». Непонятно почему день должен быть длиннее, чем стандартные 24 часа, и почему он не сказал «19 дней, 12 часов».
  • Расстояние до экзо-планеты, на которую они прилетают, как указано, порядка 10^14км. И так как им потребовалось чуть больше двух лет, чтобы попасть туда, то лететь они должны были на скорости в 10 раз превышающей скорость света.

    Осторожно! Дальнейший список содержит спойлеры!

  • Ридли Скотт решил не показывать ксеноморфов в фильме, потому как «сиквелы выжали из них максимум, и всё было отлично… но я никоим образом не собираюсь к ним возвращаться». Фильм всё же является косвенным приквелом к «Чужому» (1979), и Скотт решил показать предков чужих, родителей ксеноморфов.
  • Имена андроидов в фильмах о чужих идут в алфавитном порядке: Ash в «Чужом»; Bishop в «Чужих» и «Чужом 3»; Call в «Чужом 4: Воскрешение». В «Прометее» — David.
  • Когда капитан Янек заигрывает с Мередит Викерс, она утверждает, что находится на расстоянии «полмиллиарда миль» от других людей. Это расстояние едва-едва укладывается от Солнца до Юпитера, не говоря уже о других солнечных системах.
  • В фильме видно, что Элизабет Шоу может ходить, бегать, прыгать и выполнять тяжелую физическую работу, и это сразу после кесарева сечения, с грубыми швами на животе. Хотя, многократно показывают, как она употребляет наркотики, что могло бы объяснить то, что она не чувствует боли и набирает силу.
  • Ошибки в фильме (осторожно, содержатся спойлеры!)...

  • Дэвид спасает Элизабет и Чарли от песчаной бури «разрезающей скафандры», и в следующей же сцене в шлюзовой камере мы видим, что костюмы без единой царапины.
  • После того как на шлем Холлоуэйя попадает кровь «Чужого», она расплавляет пластик и капает ему на лицо оставляя огромный отпечаток. Позже, когда остальные члены команды выходят из корабля, чтобы спасти его, у него лишь небольшая пробоина в шлеме.
  • Вскоре после того, как команда впервые взошла на корабль, говорится, что температура -23°C, тем не менее никто из ученых (все из них сняли шлемы), по всей видимости, не страдает от холода.
  • Когда Дэвид снимает крест Шоу, цепь достаточно короткая, и Дэвиду приходится расстегивать зажим, чтобы ее снять. Однако, позже в фильме, когда она сама снимает его, длины цепи хватает, чтобы просто снять его через голову.
  • Скафандры экипажа Прометея сделаны очень странным образом: они могут выдержать свирепую песчаную бурю и на них не остается даже царапины, но они легко рвутся, когда несчастный астронавт ломает руку или когда от удара разбивается шлем.
  • Когда Шоу выходит из спасательной капсулы на ней надет шлем, но нет перчаток. В следующем кадре она в перчатках.
  • Момент, когда доктор Шоу хватает топор, происходит мгновенно, от кадра снятого из-за нее, к кадру перед ней.
  • Много раз во время начального исследования планеты показывают как шлемы персонажей очищают паром, и затем в следующем кадре они абсолютно прозрачные.
  • Когда доктор Шоу заходит на корабль, который совершил аварийную посадку на планету, можно видеть книги и вещи раскиданные повсюду, но бутылка водки стоит на барной стойке как ни в чем не бывало рядом со шлемом и неким контейнером.
  • Когда Викерс стоит перед Вейландом и говорит о том, почему она отправилась в путешествие, ее руки меняют положение несколько раз. В одном кадре они перед ней, а в следующем уже за ней.
  • Премьера: 30 мая 2012 (31 мая 2012)Релиз на Blu-Ray (DVD) (Россия): 4 октября 2012Бюджет: $130 000 000Кассовые сборы: $403 354 469

    Качество: BDRip (by Ash61)Контейнер: MKVФормат 3D: Half OverUnder / Вертикальная анаморфная стереопараПорядок ракурсов: левый ракурс первыйВидео: AVC / 23,976 fps / 1920х1080p / ~8.7 Mbps

    Аудио:#1 - Русский / AC3 / 48 KHz / 5.1 ch / 640 Kbps (Дубляж [BD 3D] + VO [KEWE])#2 - Английский / AC3 / 48 KHz / 5.1 ch / 640 Kbps (Original - BD 3D)

    Субтитры (SRT):Вшитые (softsub):#1 - Русские Форсированные (включены по умолчанию)#2 - Русские Полные#3 - English Full

    Внешние (UTF-8):#1 - Русские Форсированные (включены по умолчанию)

    MediaInfo

    General Unique ID : 213629127482952834579195036386065036611 (0xA0B7792E3455C3D28597D4F5721AB543) Complete name : E:Prometheus(ExtendedFanCut)(2012)3D-halfOU(BDRipAndMontageAsh61)(+Inserts2D)Prometheus(ExtendedFanCut)(2012)3D-halfOU(BDRipAndMontageAsh61)(+Inserts2D).mkv Format : Matroska Format version : Version 2 File size : 10.7 GiB Duration : 2h 30mn Overall bit rate : 10.2 Mbps Movie name : Прометей / Prometheus (2012) (ExtendedFanCut) 3D Encoded date : UTC 2015-05-19 21:35:38 Writing application : mkvmerge v5.8.0 ('No Sleep / Pillow') built on Sep 2 2012 15:37:04 Writing library : libebml v1.2.3 + libmatroska v1.3.0

    Video ID : 1 Format : AVC Format/Info : Advanced Video Codec Format profile : [email protected] Format settings, CABAC : Yes Format settings, ReFrames : 4 frames Codec ID : V_MPEG4/ISO/AVC Duration : 2h 30mn Bit rate : 8 714 Kbps Width : 1 920 pixels Height : 1 080 pixels Display aspect ratio : 16:9 Frame rate mode : Constant Frame rate : 23.976 fps Color space : YUV Chroma subsampling : 4:2:0 Bit depth : 8 bits Scan type : Progressive Bits/(Pixel*Frame) : 0.175 Stream size : 9.13 GiB (85%) Title : BDRip by Ash61 ( Расширенная версия с 2Д вставками. Монтаж Ash61) Writing library : x264 core 138 r2358 9e941d1 Encoding settings : cabac=1 / ref=4 / deblock=1:-3:-3 / analyse=0x3:0x113 / me=umh / subme=10 / psy=1 / psy_rd=1.00:0.00 / mixed_ref=1 / me_range=32 / chroma_me=1 / trellis=2 / 8x8dct=1 / cqm=0 / deadzone=21,11 / fast_pskip=1 / chroma_qp_offset=-2 / threads=12 / lookahead_threads=2 / sliced_threads=0 / nr=0 / decimate=1 / interlaced=0 / bluray_compat=0 / constrained_intra=0 / bframes=9 / b_pyramid=2 / b_adapt=2 / b_bias=0 / direct=3 / weightb=1 / open_gop=0 / weightp=2 / keyint=250 / keyint_min=12 / scenecut=20 / intra_refresh=0 / rc_lookahead=60 / rc=crf / mbtree=1 / crf=15.0 / qcomp=0.70 / qpmin=0 / qpmax=51 / qpstep=4 / vbv_maxrate=40000 / vbv_bufsize=30000 / crf_max=0.0 / nal_hrd=none / frame-packing=4 / ip_ratio=1.40 / aq=1:0.70 Language : English Default : Yes Forced : No

    Audio #1 ID : 2 Format : AC-3 Format/Info : Audio Coding 3 Mode extension : CM (complete main) Format settings, Endianness : Big Codec ID : A_AC3 Duration : 2h 30mn Bit rate mode : Constant Bit rate : 640 Kbps Channel(s) : 6 channels Channel positions : Front: L C R, Side: L R, LFE Sampling rate : 48.0 KHz Bit depth : 16 bits Compression mode : Lossy Stream size : 687 MiB (6%) Title : Дубляж с вставками Одноголосого закадрового (KEWE). Монтаж Ash61 Language : Russian Default : Yes Forced : No

    Audio #2 ID : 3 Format : AC-3 Format/Info : Audio Coding 3 Mode extension : CM (complete main) Format settings, Endianness : Big Codec ID : A_AC3 Duration : 2h 30mn Bit rate mode : Constant Bit rate : 640 Kbps Channel(s) : 6 channels Channel positions : Front: L C R, Side: L R, LFE Sampling rate : 48.0 KHz Bit depth : 16 bits Compression mode : Lossy Stream size : 687 MiB (6%) Title : Original (BD 3D) with inserts (BD 2D Supplements). Montage Ash61 Language : English Default : No Forced : No

    Text #1 ID : 4 Format : UTF-8 Codec ID : S_TEXT/UTF8 Codec ID/Info : UTF-8 Plain Text Title : Форсированные Language : Russian Default : Yes Forced : No

    Text #2 ID : 5 Format : UTF-8 Codec ID : S_TEXT/UTF8 Codec ID/Info : UTF-8 Plain Text Title : Полные Language : Russian Default : No Forced : No

    Text #3 ID : 6 Format : UTF-8 Codec ID : S_TEXT/UTF8 Codec ID/Info : UTF-8 Plain Text Title : Full Language : English Default : No Forced : No

    Menu 00:00:00.000 : :1. 00:03:05.230 : :2. Прибытие Инженеров (альтернативная сцена) 00:03:33.006 : :3. 00:05:20.784 : :4. Конференция TED, 2023 (добавленная сцена) 00:12:13.912 : :5. 00:14:40.120 : :6. Послание Шоу Вейланду (добавленная сцена) 00:17:11.110 : :7. "Рождение" Дэвида (добавленная сцена) 00:19:34.705 : :8. Послание Прометея ч.1 (добавленная сцена) 00:20:12.501 : :9. Послание Прометея ч.2 (добавленная сцена) 00:21:06.090 : :10. Послание Прометея ч.3 (добавленная сцена) 00:21:40.189 : :11. 00:25:35.647 : :12. 00:28:47.986 : :13. Рождество (расширение сцены) 00:29:08.622 : :14. 00:34:29.663 : :15. 00:36:57.580 : :16. 00:42:07.872 : :17. 00:46:22.580 : :18. 00:48:35.591 : :19. Наш первый инопланетянин (добавленная сцена) 00:49:19.645 : :20. 00:53:02.021 : :21. 00:55:54.144 : :22. 01:00:05.317 : :23. Кожа (добавленная сцена) 01:00:49.556 : :24. 01:01:42.360 : :25. Мы больше не одни (добавленная сцена) 01:03:07.811 : :26. 01:06:06.393 : :27. 01:07:41.518 : :28. 01:11:14.894 : :29. 01:13:50.685 : :30. 01:16:50.102 : :31. 01:18:47.643 : :32. 01:21:36.019 : :33. 01:22:50.563 : :34. Похмелье Холлоуэя (расширение сцены) 01:23:10.249 : :35. 01:23:39.623 : :36. 01:26:36.040 : :37. 01:28:51.665 : :38. 01:32:48.790 : :39. 01:33:11.134 : :40. Задача Дэвида (добавленная сцена) 01:33:35.519 : :41. 01:35:07.519 : :42. 01:38:41.923 : :43. Дженек успокаивает Викерс (добавленная сцена) 01:42:17.997 : :44. 01:46:40.872 : :45. 01:48:47.913 : :46. 01:51:48.913 : :47. 01:54:22.288 : :48. 01:57:01.705 : :49. 01:59:23.538 : :50. 02:01:02.515 : :51. Инженер говорит (расширение сцены) 02:01:49.724 : :52. 02:03:12.171 : :53. 02:06:12.004 : :54. 02:10:54.588 : :55. 02:12:05.029 : :56. Финальная битва ч.1 (расширение сцены) 02:12:49.017 : :57. 02:13:35.716 : :58. Финальная битва ч.2 (альтернативная расширенная сцена) 02:16:17.246 : :59. 02:17:32.111 : :60. 02:19:04.708 : :61. Рай (расширение сцены) 02:19:57.095 : :62. 02:24:21.220 : :63.Финальные титры

    О методах просмотра 3D

    main-rutor.org

    Прометей (2012) смотреть онлайн или скачать фильм через торрент. Трейлеры, правдивые оценки, рецензии, комментарии, похожие фильмы, саундтрек, новости и интересные факты на Fast-torrent

    Итак, можно поздравить всех с появлением нового космического триллера. Нет, в целом, всё не так уж плохо. Хотели пришельцев? Да пожалуйста. Хотели непонятных злобных тварюшек? Сколько угодно. Хотели мрачный колорит в лучших традициях "Чужого"? Получите, распишитесь. У меня только один вопрос... кто писал этот бредовый сценарий?

    Начнём с самого начала - то бишь с пролога. Чтой это такое было, Холмс? О чём нам должен был сообщить акт изощрённого суицида брутального инопланетного дядечки? Ну, если учитывать показанную крупным планом молекулу ДНК, то, видимо, об истинном положении дел с происхождением человека. Только способ какой-то странный. К чему такие варварские методы, если цивилизация такая развитая, и что вообще путного могло получится из сомнительного тандма инопланетной ДНК с подозрительной дрянью, которую пришелец мужественно принял на грудь, после чего в страшных муках склеил ласты?

    Впрочем, фиг с ним, едем дальше. А дальше доблестные учёные опять откопали что-то на свои бедовые головы. И закрутилось - ух ты, ах ты, все мы космонавты. Вы нас не ждали, а мы припёрлись. Нет, правда, зачем попёрлись-то? Найти создателей, причём об этих создателях талдычили на все лады весь фильм. Вопрос... а с чего они вообще взяли, что эти инопланетные гопники создатели? Мало ли что могли малоразвитые цивилизации на стенах пещеры накарябать. К тому же, на минуточку, пришельцев ведь, никто из них в глаза никогда не видел, и планетку эту злосчастную на небе увидеть никак не могли... наверно, приснилось, не иначе.

    Ладно, учёные-фанатики, что с них взять? И дедульке-миллионеру очень пожить подольше захотелось - это тоже вполне понятно. Короче, прилетели-таки. А вот всё, что последовало за этим - это уже полный бред. Какая-то мутная планета набитая инопланетными кораблями-лабораториями, где эти самые инопланетные "создатели" проводили какие-то жуткие эксперименты, робот - юный натуралист, у которого вдруг проснулся исследовательский интерес, что он решил провести парочку экспериментов на экипаже корабля, самопальный аборт, и как-то непредсказуемо и самопроизвольно мутирующие... а, собственно, кто? Нам ведь так толком и не объяснили, что там у них произошло - отчего у них головы взрываются, почему они все вымерли як мамонты, и почему один уцелел, иммунитет что ли был? Всё что нам показали - это две недружелюбные "змейки" и кучу каких-то сосудов с непонятной жижей. При том, действует эта жижа на всех совершенно по-разному, но если руками не трогать, то она совершенно безвредна, а иначе как бы наши горе-исследователи смогли так долго шастать по кишащему всякими тварями кораблю? И разбуженный инопланетянин чудаком оказался - продрых 2000 лет, как спящая красавица, а как разбудили начал всем непонятно за что люлей раздавать, а потом с чего-то решил, что ему не жить, не быть на Землю надо, а как план провалился зачем-то последнюю выжившую добивать побежал... и как только о ней узнал? О, знаю, он ясновидящий! А в ходе всей этой эпопеи выяснилось, что если скрестить человека с той самой жижей, то получится амёбообразный гигантский осьминог, а при дальнейшем его скрещивании с пришельцем вылупится тот самый "чужой", ради которого всё и затевалось.

    Уф, выдохнем. Остаётся только переварить и сделать выводы. А выводы однозначны - дедушка Дарвин был не прав, а кто там, да что там, лучше даже не разбираться, а сидеть на своей планете и не пиликать во избежание, так сказать.

    Жаль, честное слово, жаль. Вот искренне не понимаю. Выделяются такие огромные деньги, создаются неплохие спецэффекты, и актёры играют вполне прилично, и тема благодатная, так почему нормальный сценарий не написать? Они вообще сами-то это читали? Или понадеялись, что зрители и так съедят, да ещё спасибо скажут? Остаётся только пересмотреть ещё раз классический вариант и успокоиться в робкой надежде на то, что следующее возвращение к "Чужим" будет лучше, а то, что оно будет в той или иной вариации, сомнений нет.

    www.fast-torrent.ru

    Прометей торрент скачать | Скачать торренты в BDRip и HDRip качестве

    Прометей / Prometheus (2012) BDRip [H.265/1080p-LQ]5.24 GBПрометей / Prometheus (Ридли Скотт / Ridley Scott) [2012, США, Великобритания, фантастика, триллер, приключения, HDTVRip] [Open matte] MVO (1 канал)1.45 GBПрометей / Prometheus (2012) BDRip 1080p от Ash61 | 3D-Video | halfOU | Расширенная Фан-версия10.69 GBПрометей / Prometheus (2012) HDTVRip | P | Первый канал1.45 GBПрометей / Prometheus (2012) BDRip [H.264/1080p] [Extended Fan Cut]13.8 GBПрометей / Prometheus (2012) HDRip | Extended Fan Cut2.18 GBПрометей / Prometheus (2012) HDRip [H.264] [Extended Fan Cut]2.9 GBПрометей / Prometheus (2012) BDRip 720p от Ash61 | Расширенная Фан-версия | Лицензия+L16.03 GBПрометей (Расширенная версия) / Prometheus (Extended Cut) / 2012 / ДБ / HDRip / 2.18 ГБ2.18 GBПрометей / Prometheus / 2012 / ДБ, СТ / BDRip (1080p) / 7.76 ГБ7.76 GBПрометей / Prometheus (2012) BDRip [H.264/1080p-LQ]4.37 GBПрометей / Prometheus / 2012 / ДБ / HDRip / 2.05 ГБ2.05 GBПрометей / Prometheus (2012) HDRip-AVC | Extended Fan Cut2.9 GBПрометей / Prometheus [2012, США, Великобритания, фантастика, триллер, приключения, BDRip] [(Full Fun Cut)] Dub + VO + Sub Rus + Original Eng6.75 GBПрометей / Prometheus (Ридли Скотт / Ridley Scott) [2012, США, Великобритания, фантастика, триллер, приключения, BDRip 720p] [Рабочая расширенная версия / Workprint Edition (Extended Edit) by J.J.O.R.] Dub + VO + Sub Rus + Original Eng9.44 GBПрометей / Prometheus (2012) BDRip 720p от HELLYWOOD | Лицензия4.37 GBПрометей / Prometheus (2012) BDRip [H.265/1080p-LQ] [10-bit]4.99 GBПрометей / Prometheus (Ридли Скотт / Ridley Scott) [2012, США, Великобритания, фантастика, триллер, приключения, BDRip-AVC] Dub + Original + Sub (Rus, Eng)1.46 GBПрометей / Prometheus (2012) BDRip 1080p от Ash61 | Расширенная Фан-версия | Лицензия+L113.8 GBПрометей / Prometheus (Ридли Скотт / Ridley Scott) [2012, США, Великобритания, фантастика, триллер, приключения, BDRip 1080p] Dub + 3х AVO (Сербин, Гаврилов, Горчаков) + Sub Rus, Ukr, Eng + Original Eng18.76 GBПрометей / Prometheus (2012) BDRip [720p] [Full Fun Cut]6.75 GBПрометей / Prometheus (2012) BDRip 1080p от HELLYWOOD | D, A9.47 GBПрометей / Prometheus / 2012 / ДБ / BDRip / 1.46 ГБ1.46 GBПрометей / Prometheus (2012) HDRip [Extended Fan Cut]2.18 GBПрометей / Prometheus / 2012 / ДБ, СТ / HEVC, HDR, 4K / Blu-Ray Remux (2160p) / 35.36 ГБ35.36 GBПрометей / Prometheus (2012) BDRip 1080p от Leonardo and Scarabey | Лицензия10.3 GBПрометей / Prometheus (Ридли Скотт) [2012 г., фантастика, триллер, приключения, BDRip] Dub [лицензия]2.18 GBПрометей / Prometheus (2012) BDRip-AVC от HELLYWOOD | Лицензия2.18 GBПрометей / Prometheus (2012) BDRip 720p от NNNB | D, A7.75 GBПрометей / Prometheus (Ридли Скотт / Ridley Scott) [2012, США, Великобритания, фантастика, триллер, приключения, BDRip 720p] Dub + 3х AVO (Сербин, Гаврилов, Горчаков) + Sub Rus, Ukr, Eng + Original Eng7.97 GBПрометей / Prometheus (2012) BDRip [1080p]18.8 GBПрометей / Prometheus / 2012 / ДБ, СТ / BDRip (1080p) / 10.09 ГБ10.09 GBПрометей / Prometheus (2012) BDRip от HQCLUB | Лицензия2.18 GBЛегенды и мифы Древней Греции (Возвращение с Олимпа, Аргонавты, Персей, Прометей, Геракл у Адмета) (Александра Снежко-Блоцкая, Анатолий Петров) [1969-1986, Детский, семейный, DVDRip]1.36 GBПрометей в 3Д / Prometheus 3D (Ридли Скотт / Ridley Scott) [2012, Фантастика, Триллер, BDrip-AVC] Half OverUnder / Вертикальная анаморфная стереопара8.87 GBПрометей / Prometheus (Ридли Скотт / Ridley Scott) [2012, США, Великобритания, фантастика, ужасы, BDRip] Dub + MVO (ОРТ) + 3хAVO (Гаврилов, Горчаков, Сербин)3.13 GBПрометей / Prometheus (2012) BDRip 1080p | D, A, L17.96 GBПрометей / Prometheus (Ридли Скотт / Ridley Scott) [2012, США, Великобритания, фантастика, триллер, приключения, Blu-ray disc 1080p] [EUR] Dub + Ukr + Original Eng + Sub Rus, Ukr, Eng44.21 GBПрометей / Prometheus (2012) BDRemux 1080p от GORESEWAGE47.36 GBПрометей / Prometheus (2012) BDRip 1080p от GORESEWAGE | 3D-Video | HSBS20.49 GBПрометей / Prometheus (Ридли Скотт / Ridley Scott) [2012, США, Великобритания, фантастика, триллер, приключения, HDTV 1080i] [Open matte] Dub + MVO (Первый канал)5.45 GBПрометей / Prometheus / 2012 / ДБ / DVDRip / 1.37 ГБ1.37 GBПрометей / Prometheus (Ридли Скотт / Ridley Scott) [2012, США, Великобритания, фантастика, триллер, приключения, HDTVRip] [Open matte] Dub + MVO (1 канал) + Eng2.92 GB[ATV3] Прометей / Prometheus (Ридли Скотт / Ridley Scott ) [2012, США, Великобритания , Фантастика, детектив, приключения, BDRip, HD (1080p)] DUB + Original + sub (rus, eng, ukr)8.82 GBПрометей / Prometheus (Ридли Скотт / Ridley Scott) [2012, США, Великобритания, фантастика, триллер, приключения, BDRip-AVC] Dub + 2 x AVO (Гаврилов, Горчаков) + Original (Eng) + Sub (Rus, Eng)3.92 GBПрометей / Prometheus (Ридли Скотт / Ridley Scott) [2012, США, Великобритания, фантастика, триллер, приключения, BDRip] Dub1.46 GBЛегенды и мифы древней Греции (Прометей; Возвращение с Олимпа; Аргонавты; Персей; Геракл у Адмета)(Александра Снежко-Блоцкая, Анатолий Петров)[1969-1986, мультфильмы, DVD5] Крупный план, без реставрации3.33 GBПрометей / Prometheus (Ридли Скотт / Ridley Scott) [2012, США, Великобритания, фантастика, триллер, приключения, BDRip-AVC] Dub + Original (Eng) + Subs (Rus, Ukr, Eng)2.18 GBПрометей в 3Д / Prometheus 3D (Ридли Скотт / Ridley Scott) [2012, фантастика, триллер, приключения, BDRip-AVC] Half OverUnder / Вертикальная анаморфная стереопара14.03 GBПрометей / Prometheus / 2012 / ДБ, АП (Гаврилов), СТ / BDRip (720p) / 7.62 ГБ7.62 GB tparser.org – торрент поисковик по популярным торрент трекерам. Находить и скачивать новинки кино в HDRip и BDRip качестве через tparser намного проще! Добро пожаловать на крупный торрент архив фильмов и игр tparser.org. Вам больше не придется искать торренты на основных торрент трекерах в поисках нужной раздачи – мы предлагаем найти и скачать фильмы в хорошем качестве прямо на нашем сайте. Наш сервис поиска торрентов в реальном времени собирает информацию с крупных торрент трекеров и сортирует полученные результаты в удобную таблицу. Скачивайте торренты без ограничений и без всяких регистраций на трекерах. Начните скачивать торрент Прометей прямо сейчас!

    tparser.org

    rutor.org :: Прометей / Prometheus (2012) HDRip-AVC

    Прометей / Prometheus (2012) HDRip Производство: США, Великобритания / Twentieth Century Fox, Dune Entertainment, Scott Free ProductionsЖанр: Фантастика, ПриключенияПродолжительность: 02:35:01Перевод: Профессиональный дублированный + любительский одноголосый закадровый (в добавленных и альтернативных сценах)Субтитры: Русские (форс.), русские, английские

    Режиссер: Ридли Скотт

    Актеры: Нуми Рапас, Майкл Фассбендер, Шарлиз Терон, Идрис Эльба, Гай Пирс, Логан Маршалл-Грин, Шон Харрис, Рейф Сполл, Иман Эллиотт, Бенедикт Вонг

    Описание: В поисках сакрального знания группа ученых отправляется в самые темные и неизведанные чертоги вселенной. Именно там, в отдаленных мирах, находясь на пределе своих умственных и физических возможностей, им предстоит вступить в безжалостную схватку за будущее всего человечества...

    Качество: HDRip-AVCВидео: AVC, 1024x426 (2.40:1), 23.976 fps, 2 233 Kbps (0.214 bit/pixel)Аудио: AC-3, 48.0 KHz, 6 ch, 448 Kbps, CBR (Russian)

    Доп.инфа

    Официальная версия фильма была короче на 32 минуты 16 сек. Монтаж видео, аудио и субтитров - Ash61. Все возможные сцены заменены на альтернативные, вставлены все вырезанные, кроме момента Послание Прометея.

    Карта добавленных и заменённых сцен

    00:03:05 - 00:03:33 - Прибытие Инженеров (альтернативная сцена) 00:05:22 - 00:12:16 - Конференция TED, 2023 (добавленная сцена) 00:14:39 - 00:17:11 - Послание Элизабет Шоу Вейланду (добавленная сцена) 00:17:11 - 00:19:34 - "Рождение" Дэвида (добавленная сцена) 00:19:34 - 00:20:12 - Послание Прометея Инженерам (отрывок 1) (добавленная сцена) 00:20:12 - 00:22:50 - Послание Прометея Инженерам (отрывок 2) (добавленная сцена) 00:22:50 - 00:23:22 - Послание Прометея Инженерам (отрывок 3) (добавленная сцена) 00:30:04 - 00:31:04 - Рождество (альтернативная расширенная сцена) 00:50:31 - 00:51:15 - Наш первый инопланетянин (добавленная сцена) 01:02:01 - 01:02:45 - Кожа (добавленная сцена) 01:03:38 - 01:05:03 - Мы больше не одни (добавленная сцена) 01:15:46 - 01:18:51 - Странные компаньоны (альтернативная сцена) 01:24:51 - 01:25:11 - Похмелье Холлоуэя (расширение сцены) 01:35:12 - 01:35:36 - Задача Дэвида (добавленная сцена) 01:40:43 - 01:44:19 - Дженек успокаивает Викерс (добавленная сцена) 01:48:41 - 01:50:48 - Файфилд атакует (альтернативная сцена) 01:56:23 - 02:00:13 - Король правит (альтернативная расширенная сцена) 02:04:14 - 02:06:38 - Инженер говорит (альтернативная расширенная сцена) 02:16:00 - 02:21:04 - Финальная битва (альтернативная расширенная сцена) 02:22:26 - 02:27:30 - Рай (альтернативная расширенная сцена)

    Знаете ли вы, что...

  • Логан Маршалл-Грин охарактеризовал свою роль Чарли Холлоуэя как специалиста по всемирным экстремальным играм с кабельного спортивного канала «ESPN», который смотрит, прежде чем прыгает.
  • Г. Р. Гигер создавший внешний вид ксеноморфа для «Чужого» (1979) был приглашен консультантом по дизайну чужих для этого фильма.
  • По слухам, Бен Фостер мог получить одну из ролей в фильме.
  • Продюсеры Уолтер Хилл и Дэвид Гайлер присоединились к Ридли Скотту впервые за последние 30 лет, с момента их первого сотрудничества, когда они работали над фильмом «Чужой» (1979).
  • Джемма Артертон, Кэри Маллиган, Оливия Уайлд, Энн Хэтэуэй, Эбби Корниш и Натали Портман рассматривались на роль доктора Элизабет Шоу.
  • Роль Чарли Холлоуэя могла достаться Джеймсу Франко.
  • Изначально, фильм должен был стать приквелом фильма «Чужой» (1979), режиссером которого также является Ридли Скотт. Но им же было принято решение сделать «Прометей» оригинальным фильмом с Нуми Рапас (она ещё тогда была заявлена на роль), которая в итоге стала исполнительницей одной из пяти главных ролей. Спустя время было утверждено, что, несмотря на то, что действие фильма будет происходить в той же вселенной, что и «Чужой» (1979) и во многом ссылаться на него, фактически это будет оригинальный фильм, не являющийся прямым приквелом.
  • Мишель Йео рассматривалась на роль Мередит Викерс.
  • Чтобы подчеркнуть загадочный характер Мередит Викерс, Ридли Скотт объяснял Шарлиз Терон как замирать, затаившись в углу, и скрытно передвигаться.
  • Ридли Скотт назвал фильм «Прометей», посчитав, что именно такое название полностью отражает его суть: «Это история создания; история о богах и человеке, который восстал против них». В древнегреческой мифологии слуга богов титан Прометей похитил огонь и передал его людям, что навсегда изменило жизнь человечества к лучшему и худшему одновременно.
  • В процессе создания фильма Ридли Скотт старался прибегать к помощи компьютерной графики как можно реже, используя ее главным образом в пространственных сценах. Скотт вспомнил совет специалиста по визуальным эффектам Дугласа Трамбалла, который тот дал ему во время съемок фильма «Бегущий по лезвию» (1982): «Если ты можешь сделать это в живую, делай это в живую», а также заявил, что реальные визуальные эффекты гораздо более рентабельны, чем цифровые.
  • Для раскрутки фильма была использована инновационная вирусная рекламная кампания, состоящая из нескольких видеороликов изображающих мир в ближайшем будущем из фильма. Первым был ролик с речью Питера Уэйланда (Гай Пирс) на конференции «TED», от 2028 года. Затем вышли две различные версии рекламы андроида «David 8» (Майкл Фассбендер). Эти видеоролики были придуманы Ридли Скоттом и Дэймоном Линделофом, а поставлены Люком Скоттом (сыном Ридли).
  • Ридли Скотт предложил актерам «пожить» в декорациях на съёмочной площадке, но этого не произошло из-за нарушений по технике безопасности и возможной угрозы здоровью актеров.
  • Шведская актриса Нуми Рапас много тренировалась для своей роли, чтобы говорить с британским акцентом.
  • Шарлиз Терон пришлось нелегко во время съёмок экшн-сцен из-за привычки к курению, особенно во время сцен, где ей нужно было бегать по песку в обуви весом четырнадцать килограмм.
  • Первоначально фильм должен был называться «Рай», так планировалось в декабре 2010 года.
  • Оператор Дариуш Вольски убедил Ридли Скотта, что фильм можно снять в 3D с той же легкостью и эффективностью, как и обычный фильм. Компания «3ality Technica» предоставила оборудование для облегчения 3D-съемки и обучала персонал работе с ним. Так как съёмки 3D-фильмов требуют более высокого освещения на съёмочной площадке, темная мрачная атмосфера, присущая фильмам о чужих, была добавлена на завершающем этапе.
  • В фильме содержится около 1300 кадров со спецэффектами.
  • Ридли Скотт заявил, что он снимал «самый агрессивный фильм, что мог» не думая о рейтингах MPAA, имея поддержку от главного исполнительного директора «20th Century Fox» Тома Ротмана, который обратился к поклонникам «Чужого»(1979), заявив, что он «очень хорошо понимает их озабоченность», и что «они могут быть уверены, что фильм не будет скомпрометирован. Так что, если это означает, что фильм получит рейтинг R, то это будет R. Если это будет PG-13, то PG-13, но фильм не пострадает от этого в любом случае». Скотт снял фильм, помня про оба рейтинга(R и PG-13), позволяя в случае необходимости урезать более «взрослые» моменты без ущерба для общего представления. В конце концов, фильм был отнесен к категории R за «научно-фантастическую» жестокость, наряду с откровенными кадрами и грубыми выражениями» и был выпущен без каких-либо сокращений.
  • 7 мая 2012 года, Гильермо дель Торо заявил, что его длинная запланированная подготовка для фильма «Хребты безумия» была отложена на неопределенный срок, как только он почувствовал, что подход в фильме Ридли Скотта был очень схож с тем, как он работал над повестью Лавкрафта, вплоть до того, что «были бы почти идентичные сцены, одинаковые ветви сюжета и точно такие же откровения в конце».
  • При подготовке к роли Дэвида Майкл Фассбендер посмотрел такие фильмы как: «Бегущий по лезвию» (1982), «Человек, который упал на Землю» (1976), «Слуга» (1963) и «Лоуренс Аравийский» (1962). Фассбендер также изучал олимпийского чемпиона по прыжкам в воду Грега Луганиса, черпая вдохновение в его физических качествах.
  • По словам Ридли Скотта, вдохновением к сюжету фильма послужили работы Эриха фон Дэникена о пребывании в далеком прошлом на Земле инопланетных космонавтов: «И NASA, и Ватикан согласны, что математически это почти невозможно, чтобы мы были там, где находимся сегодня, без наличия небольшой помощи на этом пути. Вот что нас интересует: мы говорим о богах и инженерах, инженерах пространства. Были ли чужие задуманы как форма биологического оружия, или как нечто, что придет и очистит планету?».
  • Сцена, которая открывает фильм, была отснята в Исландии. Вся съемка заняла две недели.
  • Во время полёта Дэвид смотрит картину Дэвида Лина «Лоуренс Аравийский» (1962) и пытается повторить прическу главного героя в исполнении Питера О`Тула.
  • Ридли Скотт обратился в Лондонский Университет по изучению стран Востока и Африки, чтобы найти специалистов, которые могли бы помочь в создании нового языка для фильма. В итоге Анил Бильту (Anil Biltoo), из языкового центра этого университета, взялся за работу по созданию языка, а так же письменности инопланетян, которую можно видеть на протяжении всего фильма. Самого Анила можно увидеть в сцене с Майклом Фассбендером.
  • Когда во время песчаной бури спасают доктора Элизабет Шоу, доктор Холлоуэй называет ее «Нуми».
  • Первые кадры наскальных рисунков в начале фильма, которые показывают лошадь в движении, взяты из пещеры Шове на юге Франции. Об этих рисунках Вернер Херцог снял документальный фильм «Пещера забытых снов» (2010) (кстати снят он тоже в 3D).
  • Это не единственная роль Йена Уайта (он играет последнего инженера) связанная с серией фильмов про «Чужих». Уайт так же играл Хищников в серии фильмов «Чужой против Хищника».
  • На конференции, когда Шоу обсуждает свои находки, на заднем плане можно увидеть надпись «Eilean a» Cheo». В переводе с шотландского (кельтского) это означает «Остров Туманов», этот остров так же называют Скай, и его название правильно писать «An t-Eilean Sgitheanach».
  • Три треугольника — логотип корпорации Вейланд (который визуально похож на логотип The Weinstein Company) на самом деле происходит от рисунка на стене на фоне в ранней картине Рона Кобба изображающей «Космического пилота» для оригинального фильма про «Чужих». Этот логотип можно видеть в отпечатках пальцев Дэвида.
  • Как упоминалось в фильме, Прометей — персонаж из греческой мифологии. Он был титаном (бессмертным), который подарил людям огонь. Прометей был наказан за это, он был привязан к скале в Колхиде, где каждый день прилетал орел (символ Зевса), чтобы клевать его печень. И только она успевала отрасти, как на следующий день орел прилетал и съедал ее вновь. В некоторых сказаниях, Прометея в конце концов освобождает Геракл (Геркулес). Среди древних греков Прометей почитался как божество. Прометей может происходить от греческого «forethinker» (предвидящий) или от прото-индо-европейского «thief» (вор). Прометей так же обманул богов, что имеет значимость для фильма.
  • Когда Викерс спрашивает Дэвида, как долго они были в гипер-сне, он отвечает: «2 года, 4 месяца, 18 дней, 36 часов, 15 минут». Непонятно почему день должен быть длиннее, чем стандартные 24 часа, и почему он не сказал «19 дней, 12 часов».
  • Расстояние до экзо-планеты, на которую они прилетают, как указано, порядка 10^14км. И так как им потребовалось чуть больше двух лет, чтобы попасть туда, то лететь они должны были на скорости в 10 раз превышающей скорость света.

    Осторожно! Дальнейший список содержит спойлеры!

  • Ридли Скотт решил не показывать ксеноморфов в фильме, потому как «сиквелы выжали из них максимум, и всё было отлично… но я никоим образом не собираюсь к ним возвращаться». Фильм всё же является косвенным приквелом к «Чужому» (1979), и Скотт решил показать предков чужих, родителей ксеноморфов.
  • Имена андроидов в фильмах о чужих идут в алфавитном порядке: Ash в «Чужом»; Bishop в «Чужих» и «Чужом 3»; Call в «Чужом 4: Воскрешение». В «Прометее» — David.
  • Когда капитан Янек заигрывает с Мередит Викерс, она утверждает, что находится на расстоянии «полмиллиарда миль» от других людей. Это расстояние едва-едва укладывается от Солнца до Юпитера, не говоря уже о других солнечных системах.
  • В фильме видно, что Элизабет Шоу может ходить, бегать, прыгать и выполнять тяжелую физическую работу, и это сразу после кесарева сечения, с грубыми швами на животе. Хотя, многократно показывают, как она употребляет наркотики, что могло бы объяснить то, что она не чувствует боли и набирает силу.
  • Ошибки в фильме (осторожно, содержатся спойлеры!)...

  • Дэвид спасает Элизабет и Чарли от песчаной бури «разрезающей скафандры», и в следующей же сцене в шлюзовой камере мы видим, что костюмы без единой царапины.
  • После того как на шлем Холлоуэйя попадает кровь «Чужого», она расплавляет пластик и капает ему на лицо оставляя огромный отпечаток. Позже, когда остальные члены команды выходят из корабля, чтобы спасти его, у него лишь небольшая пробоина в шлеме.
  • Вскоре после того, как команда впервые взошла на корабль, говорится, что температура -23°C, тем не менее никто из ученых (все из них сняли шлемы), по всей видимости, не страдает от холода.
  • Когда Дэвид снимает крест Шоу, цепь достаточно короткая, и Дэвиду приходится расстегивать зажим, чтобы ее снять. Однако, позже в фильме, когда она сама снимает его, длины цепи хватает, чтобы просто снять его через голову.
  • Скафандры экипажа Прометея сделаны очень странным образом: они могут выдержать свирепую песчаную бурю и на них не остается даже царапины, но они легко рвутся, когда несчастный астронавт ломает руку или когда от удара разбивается шлем.
  • Когда Шоу выходит из спасательной капсулы на ней надет шлем, но нет перчаток. В следующем кадре она в перчатках.
  • Момент, когда доктор Шоу хватает топор, происходит мгновенно, от кадра снятого из-за нее, к кадру перед ней.
  • Много раз во время начального исследования планеты показывают как шлемы персонажей очищают паром, и затем в следующем кадре они абсолютно прозрачные.
  • Когда доктор Шоу заходит на корабль, который совершил аварийную посадку на планету, можно видеть книги и вещи раскиданные повсюду, но бутылка водки стоит на барной стойке как ни в чем не бывало рядом со шлемом и неким контейнером.
  • Когда Викерс стоит перед Вейландом и говорит о том, почему она отправилась в путешествие, ее руки меняют положение несколько раз. В одном кадре они перед ней, а в следующем уже за ней.
  • Mediainfo:

    Формат : Matroska Версия формата : Version 2 Размер файла : 2,90 Гбайт Продолжительность : 2 ч. 35 м. Общий поток : 2678 Кбит/сек Дата кодирования : UTC 2015-07-12 11:44:58 Программа кодирования : mkvmerge v5.3.0 ('I could have danced') built on Feb 9 2012 10:38:07 Библиотека кодирования : libebml v1.2.3 + libmatroska v1.3.0 Attachment : Yes

    Видео Идентификатор : 1 Формат : AVC Формат/Информация : Advanced Video Codec Профиль формата : [email protected] Параметр CABAC формата : Да Параметр ReFrames формата : 9 кадров Идентификатор кодека : V_MPEG4/ISO/AVC Продолжительность : 2 ч. 35 м. Битрейт : 2233 Кбит/сек Ширина : 1024 пикселя Высота : 426 пикселей Соотношение сторон : 2,40:1 Режим частоты кадров : Постоянный Частота кадров : 23,976 кадра/сек Цветовое пространство : YUV Субдискретизация насыщенности : 4:2:0 Битовая глубина : 8 бит Тип развёртки : Прогрессивная Бит/(Пиксели*Кадры) : 0.214 Размер потока : 2,36 Гбайт (81%) Библиотека кодирования : x264 core 146 r2538 121396c Настройки программы : cabac=1 / ref=9 / deblock=1:-2:-2 / analyse=0x3:0x133 / me=umh / subme=10 / psy=1 / psy_rd=1.00:0.10 / mixed_ref=1 / me_range=32 / chroma_me=1 / trellis=2 / 8x8dct=1 / cqm=0 / deadzone=21,11 / fast_pskip=0 / chroma_qp_offset=-3 / threads=12 / lookahead_threads=1 / sliced_threads=0 / nr=0 / decimate=0 / interlaced=0 / bluray_compat=0 / constrained_intra=0 / bframes=6 / b_pyramid=2 / b_adapt=2 / b_bias=0 / direct=3 / weightb=1 / open_gop=0 / weightp=2 / keyint=240 / keyint_min=23 / scenecut=40 / intra_refresh=0 / rc=2pass / mbtree=0 / bitrate=2233 / ratetol=1.0 / qcomp=0.60 / qpmin=0 / qpmax=69 / qpstep=4 / cplxblur=20.0 / qblur=0.5 / ip_ratio=1.40 / pb_ratio=1.30 / aq=1:1.00 Язык : English Default : Да Forced : Нет

    Аудио Идентификатор : 2 Формат : AC-3 Формат/Информация : Audio Coding 3 Расширение режима : CM (complete main) Параметр Endianness формата : Big Идентификатор кодека : A_AC3 Продолжительность : 2 ч. 35 м. Вид битрейта : Постоянный Битрейт : 448 Кбит/сек Каналы : 6 каналов Расположение каналов : Front: L C R, Side: L R, LFE Частота : 48,0 КГц Битовая глубина : 16 бит Метод сжатия : С потерями Размер потока : 497 Мбайт (17%) Язык : Russian Default : Да Forced : Нет

    Текст #1 Идентификатор : 3 Формат : UTF-8 Идентификатор кодека : S_TEXT/UTF8 Идентификатор кодека/Информация : UTF-8 Plain Text Заголовок : Форсированные Язык : Russian Default : Да Forced : Нет

    Текст #2 Идентификатор : 4 Формат : UTF-8 Идентификатор кодека : S_TEXT/UTF8 Идентификатор кодека/Информация : UTF-8 Plain Text Заголовок : Полные Язык : Russian Default : Нет Forced : Нет

    Текст #3 Идентификатор : 5 Формат : UTF-8 Идентификатор кодека : S_TEXT/UTF8 Идентификатор кодека/Информация : UTF-8 Plain Text Заголовок : Full Язык : English Default : Нет Forced : Нет

    Меню 00:00:00.000 : en:1. 00:03:05.230 : en:2. Прибытие Инженеров (альтернативная сцена) 00:03:33.006 : en:3. 00:05:22.742 : en:4. Конференция TED, 2023 (добавленная сцена) 00:12:15.720 : en:5. 00:14:39.170 : en:6. Послание Шоу Вейланду (добавленная сцена) 00:17:10.980 : en:7. "Рождение" Дэвида (добавленная сцена) 00:19:34.465 : en:8. Послание Прометея ч.1 (добавленная сцена) 00:20:12.160 : en:9. Послание Прометея ч.2 (добавленная сцена) 00:22:50.210 : en:10. Послание Прометея ч.3 (добавленная сцена) 00:23:21.939 : en:11. 00:27:16.856 : en:12. 00:30:03.540 : en:14. Рождество (альтернативная расширенная сцена) 00:31:04.079 : en:15. 00:36:25.122 : en:16. 00:38:53.039 : en:17. 00:44:03.330 : en:18. 00:48:18.049 : en:19. 00:50:31.040 : en:20. Наш первый инопланетянин (добавленная сцена) 00:51:15.104 : en:21. 00:54:57.478 : en:22. 00:57:49.609 : en:23. 01:02:00.765 : en:24. Кожа (добавленная сцена) 01:02:44.985 : en:25. 01:03:37.811 : en:26. Мы больше не одни (добавленная сцена) 01:05:03.268 : en:27. 01:08:01.852 : en:28. 01:09:36.977 : en:29. 01:13:10.310 : en:30. 01:15:46.145 : en:31. Странные компаньоны (альтернативная сцена) 01:18:50.643 : en:32. 01:20:48.229 : en:33. 01:23:36.606 : en:34. 01:24:51.167 : en:35. Похмелье Холлоуэя (расширение сцены) 01:25:10.832 : en:36. 01:28:36.624 : en:37. 01:30:52.248 : en:38. 01:35:11.719 : en:39. Задача Дэвида (добавленная сцена) 01:35:36.103 : en:40. 01:37:08.134 : en:41. 01:40:42.506 : en:42. Дженек успокаивает Викерс (добавленная сцена) 01:44:18.581 : en:43. 01:48:41.456 : en:44.Файфилд атакует (альтернативная сцена) 01:50:48.496 : en:45. 01:53:49.497 : en:46. 01:56:22.872 : en:47. Король правит (альтернативная расширенная сцена) 02:00:12.706 : en:48. 02:04:14.182 : en:49. Инженер говорит (альтернативная расширенная сцена) 02:06:38.475 : en:50. 02:10:40.380 : en:51. 02:15:59.964 : en:52. Финальная битва (альтернативная расширенная сцена) 02:21:03.672 : en:53. 02:22:25.989 : en:54. Рай (альтернативная расширенная сцена) 02:27:29.559 : en:55. 02:29:20.758 : en:56. Финальные титры

    main-rutor.org

    rutor.org :: Прометей / Prometheus (2012) BDRip 720p от Leonardo and Scarabey

    Прометей / Prometheus

    Страна: США, ВеликобританияГод выпуска: 2012Жанр: фантастика, детектив, приключенияПродолжительность: 02:03:46Перевод: Профессиональный (полное дублирование) Лицензия

    Режиссер: Ридли Скотт / Ridley Scott

    Актеры: Нуми Рапас, Майкл Фассбендер, Шарлиз Терон, Идрис Эльба, Гай Пирс, Логан Маршалл-Грин, Шон Харрис, Рейф Сполл, Иман Эллиотт, Бенедикт Вонг

    Описание фильма: В поисках сакрального знания группа ученых отправляется в самые темные и неизведанные чертоги вселенной. Именно там, в отдаленных мирах, находясь на пределе своих умственных и физических возможностей, им предстоит вступить в безжалостную схватку за будущее всего человечества…

    ФайлКачество видео: BDRip 720p Исходник: Blu-rayФормат: MKV Видео кодек: MPEG-4 AVC Аудио кодек: AC3Видео: AVC, 1280x534 (2.40:1) at 23.976 fps, AVC at 3562 kbps avg, 0.212 bit/pixelАудио: 48 kHz, AC3 Dolby Digital, 3/2 (L,C,R,l,r) + LFE ch, 640.00 kbps - RussianСубтитры: Русские, украинские, английские

    Автор рипа:

    Релиз от:

    АНОНСЫ МОИХ РАЗДАЧ!

    MediaInfo

    * * * MediaInfo Mac 0.7.33.4 file analysis report. * * * MediaInfo Mac is ©2010 by Diego Massanti - http://mediainfo.massanti.com * * * MediaInfoLib by Jerome Martinez - http://mediainfo.sourceforge.net Created on: 16.02.2014 12:02:24 Московское стандартное время Report for file: Prometheus.2012.720p.BluRay.x264-LEONARDO_[scarabey.org].mkv

    General / Container Stream #1 Total Video Streams for this File.................1 Total Audio Streams for this File.................1 Total Subtitle Streams for this File..............3 Video Codecs Used.................................AVC Audio Codecs Used.................................AC3 SubTitle Codecs Used..............................UTF-8 / UTF-8 / UTF-8 Available Sutbitle Languages......................Russian / Ukrainian / File Format.......................................Matroska Play Time.........................................2h 3mn Total File Size...................................3.64 GiB Total Stream BitRate..............................4 205 Kbps Title (Tag).......................................-=LEONARDO=- Encoded with......................................mkvmerge v5.0.1 ('Es ist Sommer') built on Oct 23 2011 00:46:40 Encoding Library..................................libebml v1.2.2 + libmatroska v1.3.0 Video Stream #1 Codec (Human Name)................................AVC Codec (FourCC)....................................V_MPEG4/ISO/AVC Codec [email protected] Frame Width.......................................1 280 pixels Frame Height......................................534 pixels Frame Rate........................................23.976 fps Total Frames......................................178056 Display Aspect Ratio..............................2.40:1 Scan Type.........................................Progressive Color Space.......................................YUV Codec Settings (Summary)..........................CABAC / 8 Ref Frames QF (like Gordian Knot)............................0.212 Codec Settings (CABAC)............................Yes Codec Settings (Reference Frames).................8 Video Stream Length...............................2h 3mn 46s 426ms Video Stream BitRate..............................3 481 Kbps Bit Depth.........................................8 bits Video Stream Size.................................3.01 GiB (83%) Video Encoder.....................................x264 - core 125 r2208 d9d2288 Video Encoder (Settings)..........................cabac=1 / ref=8 / deblock=1:-3:-3 / analyse=0x3:0x133 / me=umh / subme=11 / psy=1 / psy_rd=1.00:0.20 / mixed_ref=1 / me_range=32 / chroma_me=1 / trellis=2 / 8x8dct=1 / cqm=0 / deadzone=21,11 / fast_pskip=0 / chroma_qp_offset=-3 / threads=12 / lookahead_threads=2 / sliced_threads=0 / nr=0 / decimate=1 / interlaced=0 / bluray_compat=0 / constrained_intra=0 / bframes=8 / b_pyramid=2 / b_adapt=2 / b_bias=0 / direct=1 / weightb=1 / open_gop=0 / weightp=2 / keyint=250 / keyint_min=23 / scenecut=40 / intra_refresh=0 / rc=crf / mbtree=0 / crf=17.5 / qcomp=0.60 / qpmin=0 / qpmax=69 / qpstep=4 / ip_ratio=1.40 / pb_ratio=1.30 / aq=2:1.00 Audio Stream #1 Codec.............................................AC-3 Codec (FourCC)....................................A_AC3 Audio Stream Length...............................2h 3mn 46s 432ms Audio Stream BitRate..............................640 Kbps Audio Stream BitRate Mode.........................CBR Number of Audio Channels..........................6 Audio Channel's Positions.........................Front: L C R, Side: L R, LFE Sampling Rate.....................................48.0 KHz Audio Stream Size.................................567 MiB (15%) Audio Stream Title................................Dub Audio Stream Language.............................Russian Subtitle Stream #1 Language..........................................Russian Format............................................UTF-8 Codec ID..........................................S_TEXT/UTF8 Codec Info........................................UTF-8 Plain Text Subtitle Stream #2 Language..........................................Ukrainian Format............................................UTF-8 Codec ID..........................................S_TEXT/UTF8 Codec Info........................................UTF-8 Plain Text Subtitle Stream #3 Format............................................UTF-8 Codec ID..........................................S_TEXT/UTF8 Codec Info........................................UTF-8 Plain Text Menu / Chapters Stream #1

    x264

    x264 [info]: frame I:1686 Avg QP:14.44 size:103175 x264 [info]: frame P:41855 Avg QP:16.51 size: 37768 x264 [info]: frame B:134515 Avg QP:19.45 size: 11541 x264 [info]: consecutive B-frames: 3.8% 2.4% 9.3% 19.1% 26.3% 33.7% 3.7% 1.1% 0.6% x264 [info]: mb I I16..4: 14.9% 55.5% 29.5% x264 [info]: mb P I16..4: 1.4% 7.4% 2.6% P16..4: 29.1% 34.8% 12.5% 4.4% 0.9% skip: 6.9% x264 [info]: mb B I16..4: 0.1% 0.8% 0.3% B16..8: 34.3% 18.1% 2.8% direct: 5.0% skip:38.7% L0:38.9% L1:45.1% BI:15.9% x264 [info]: 8x8 transform intra:63.0% inter:36.5% x264 [info]: coded y,uvDC,uvAC intra: 90.5% 79.7% 59.2% inter: 18.9% 12.5% 2.5% x264 [info]: i16 v,h,dc,p: 8% 8% 23% 61% x264 [info]: i8 v,h,dc,ddl,ddr,vr,hd,vl,hu: 11% 10% 10% 9% 12% 11% 13% 11% 14% x264 [info]: i4 v,h,dc,ddl,ddr,vr,hd,vl,hu: 17% 9% 7% 9% 13% 11% 12% 10% 13% x264 [info]: i8c dc,h,v,p: 38% 29% 18% 14% x264 [info]: Weighted P-Frames: Y:13.5% UV:8.3% x264 [info]: ref P L0: 46.7% 7.6% 19.8% 7.2% 6.2% 4.5% 4.3% 2.7% 0.9% 0.1% x264 [info]: ref B L0: 80.6% 10.1% 4.0% 2.2% 1.6% 1.1% 0.5% x264 [info]: ref B L1: 95.3% 4.7% x264 [info]: kb/s:3562.62

    main-rutor.org

    Прометей / Prometheus (2012) BDRip 1080p

    СШA, Brandywine Productions Ltd.

    Нуми Рапас, Майкл Фассбендер, Шарлиз Терон,, Идрис Эльба, Гай Пирс, Логан Маршалл-Грин, Шон Харрис, Рейф Сполл, Иман Эллиотт, Бенедикт Вонг, Кейт Дики, Патрик Уилсон, Люси Хатчинсон

    Профессиональный дублированный + Любительский одноголосый закадровый (в добавленных и альтернативных сценах)

    ..........................................................................

    О фильме: В поисках сакрального знания группа ученых отправляется в самые темные и неизведанные чертоги вселенной. Именно там, в отдаленных мирах, находясь на пределе своих умственных и физических возможностей, им предстоит вступить в безжалостную схватку за будущее всего человечества…

    «Они искали колыбель человечества, а нашли его погибель»

    Логан Маршалл-Грин охарактеризовал свою роль Чарли Холлоуэя как специалиста по всемирным экстремальным играм с кабельного спортивного канала «ESPN», который смотрит, прежде чем прыгает. Г. Р. Гигер создавший внешний вид ксеноморфа для «Чужого» (1979) был приглашен консультантом по дизайну чужих для этого фильма. По слухам, Бен Фостер мог получить одну из ролей в фильме. Продюсеры Уолтер Хилл и Дэвид Гайлер присоединились к Ридли Скотту впервые за последние 30 лет, с момента их первого сотрудничества, когда они работали над фильмом «Чужой» (1979). Джемма Артертон, Кэри Маллиган, Оливия Уайлд, Энн Хэтэуэй, Эбби Корниш и Натали Портман рассматривались на роль доктора Элизабет Шоу. Роль Чарли Холлоуэя могла достаться Джеймсу Франко. Изначально, фильм должен был стать приквелом фильма «Чужой» (1979), режиссером которого также является Ридли Скотт. Но им же было принято решение сделать «Прометей» оригинальным фильмом с Нуми Рапас (она ещё тогда была заявлена на роль), которая в итоге стала исполнительницей одной из пяти главных ролей. Спустя время было утверждено, что, несмотря на то, что действие фильма будет происходить в той же вселенной, что и «Чужой» (1979) и во многом ссылаться на него, фактически это будет оригинальный фильм, не являющийся прямым приквелом. Мишель Йео рассматривалась на роль Мередит Викерс. Чтобы подчеркнуть загадочный характер Мередит Викерс, Ридли Скотт объяснял Шарлиз Терон как замирать, затаившись в углу, и скрытно передвигаться. Ридли Скотт назвал фильм «Прометей», посчитав, что именно такое название полностью отражает его суть: «Это история создания; история о богах и человеке, который восстал против них». В древнегреческой мифологии слуга богов титан Прометей похитил огонь и передал его людям, что навсегда изменило жизнь человечества к лучшему и худшему одновременно. В процессе создания фильма Ридли Скотт старался прибегать к помощи компьютерной графики как можно реже, используя ее главным образом в пространственных сценах. Скотт вспомнил совет специалиста по визуальным эффектам Дугласа Трамбалла, который тот дал ему во время съемок фильма «Бегущий по лезвию» (1982): «Если ты можешь сделать это в живую, делай это в живую», а также заявил, что реальные визуальные эффекты гораздо более рентабельны, чем цифровые. Для раскрутки фильма была использована инновационная вирусная рекламная кампания, состоящая из нескольких видеороликов изображающих мир в ближайшем будущем из фильма. Первым был ролик с речью Питера Уэйланда (Гай Пирс) на конференции «TED», от 2028 года. Затем вышли две различные версии рекламы андроида «David 8» (Майкл Фассбендер). Эти видеоролики были придуманы Ридли Скоттом и Дэймоном Линделофом, а поставлены Люком Скоттом (сыном Ридли). Ридли Скотт предложил актерам «пожить» в декорациях на съёмочной площадке, но этого не произошло из-за нарушений по технике безопасности и возможной угрозы здоровью актеров. Шведская актриса Нуми Рапас много тренировалась для своей роли, чтобы говорить с британским акцентом. Шарлиз Терон пришлось нелегко во время съёмок экшн-сцен из-за привычки к курению, особенно во время сцен, где ей нужно было бегать по песку в обуви весом четырнадцать килограмм. Первоначально фильм должен был называться «Рай», так планировалось в декабре 2010 года. Оператор Дариуш Вольски убедил Ридли Скотта, что фильм можно снять в 3D с той же легкостью и эффективностью, как и обычный фильм. Компания «3ality Technica» предоставила оборудование для облегчения 3D-съемки и обучала персонал работе с ним. Так как съёмки 3D-фильмов требуют более высокого освещения на съёмочной площадке, темная мрачная атмосфера, присущая фильмам о чужих, была добавлена на завершающем этапе. В фильме содержится около 1300 кадров со спецэффектами. Ридли Скотт заявил, что он снимал «самый агрессивный фильм, что мог» не думая о рейтингах MPAA, имея поддержку от главного исполнительного директора «20th Century Fox» Тома Ротмана, который обратился к поклонникам «Чужого»(1979), заявив, что он «очень хорошо понимает их озабоченность», и что «они могут быть уверены, что фильм не будет скомпрометирован. Так что, если это означает, что фильм получит рейтинг R, то это будет R. Если это будет PG-13, то PG-13, но фильм не пострадает от этого в любом случае». Скотт снял фильм, помня про оба рейтинга(R и PG-13), позволяя в случае необходимости урезать более «взрослые» моменты без ущерба для общего представления. В конце концов, фильм был отнесен к категории R за «научно-фантастическую» жестокость, наряду с откровенными кадрами и грубыми выражениями» и был выпущен без каких-либо сокращений. 7 мая 2012 года, Гильермо дель Торо заявил, что его длинная запланированная подготовка для фильма «Хребты безумия» была отложена на неопределенный срок, как только он почувствовал, что подход в фильме Ридли Скотта был очень схож с тем, как он работал над повестью Лавкрафта, вплоть до того, что «были бы почти идентичные сцены, одинаковые ветви сюжета и точно такие же откровения в конце». При подготовке к роли Дэвида Майкл Фассбендер посмотрел такие фильмы как: «Бегущий по лезвию» (1982), «Человек, который упал на Землю» (1976), «Слуга» (1963) и «Лоуренс Аравийский» (1962). Фассбендер также изучал олимпийского чемпиона по прыжкам в воду Грега Луганиса, черпая вдохновение в его физических качествах. По словам Ридли Скотта, вдохновением к сюжету фильма послужили работы Эриха фон Дэникена о пребывании в далеком прошлом на Земле инопланетных космонавтов: «И NASA, и Ватикан согласны, что математически это почти невозможно, чтобы мы были там, где находимся сегодня, без наличия небольшой помощи на этом пути. Вот что нас интересует: мы говорим о богах и инженерах, инженерах пространства. Были ли чужие задуманы как форма биологического оружия, или как нечто, что придет и очистит планету?». Сцена, которая открывает фильм, была отснята в Исландии. Вся съемка заняла две недели. Во время полёта Дэвид смотрит картину Дэвида Лина «Лоуренс Аравийский» (1962) и пытается повторить прическу главного героя в исполнении Питера О`Тула. Ридли Скотт обратился в Лондонский Университет по изучению стран Востока и Африки, чтобы найти специалистов, которые могли бы помочь в создании нового языка для фильма. В итоге Анил Бильту (Anil Biltoo), из языкового центра этого университета, взялся за работу по созданию языка, а так же письменности инопланетян, которую можно видеть на протяжении всего фильма. Самого Анила можно увидеть в сцене с Майклом Фассбендером. Когда во время песчаной бури спасают доктора Элизабет Шоу, доктор Холлоуэй называет ее «Нуми». Первые кадры наскальных рисунков в начале фильма, которые показывают лошадь в движении, взяты из пещеры Шове на юге Франции. Об этих рисунках Вернер Херцог снял документальный фильм «Пещера забытых снов» (2010) (кстати снят он тоже в 3D). Это не единственная роль Йена Уайта (он играет последнего инженера) связанная с серией фильмов про «Чужих». Уайт так же играл Хищников в серии фильмов «Чужой против Хищника». На конференции, когда Шоу обсуждает свои находки, на заднем плане можно увидеть надпись «Eilean a» Cheo». В переводе с шотландского (кельтского) это означает «Остров Туманов», этот остров так же называют Скай, и его название правильно писать «An t-Eilean Sgitheanach». Три треугольника — логотип корпорации Вейланд (который визуально похож на логотип The Weinstein Company) на самом деле происходит от рисунка на стене на фоне в ранней картине Рона Кобба изображающей «Космического пилота» для оригинального фильма про «Чужих». Этот логотип можно видеть в отпечатках пальцев Дэвида. Как упоминалось в фильме, Прометей — персонаж из греческой мифологии. Он был титаном (бессмертным), который подарил людям огонь. Прометей был наказан за это, он был привязан к скале в Колхиде, где каждый день прилетал орел (символ Зевса), чтобы клевать его печень. И только она успевала отрасти, как на следующий день орел прилетал и съедал ее вновь. В некоторых сказаниях, Прометея в конце концов освобождает Геракл (Геркулес). Среди древних греков Прометей почитался как божество. Прометей может происходить от греческого «forethinker» (предвидящий) или от прото-индо-европейского «thief» (вор). Прометей так же обманул богов, что имеет значимость для фильма. Когда Викерс спрашивает Дэвида, как долго они были в гипер-сне, он отвечает: «2 года, 4 месяца, 18 дней, 36 часов, 15 минут». Непонятно почему день должен быть длиннее, чем стандартные 24 часа, и почему он не сказал «19 дней, 12 часов». Расстояние до экзо-планеты, на которую они прилетают, как указано, порядка 10^14км. И так как им потребовалось чуть больше двух лет, чтобы попасть туда, то лететь они должны были на скорости в 10 раз превышающей скорость света.

    ..........................................................................

    Тех. данные: Формат: MKV Видео: AVC / 23,976 fps / 1920х1080p / 11.2 Mbps Аудио: #1 - Русский / AC3 / 48 KHz / 5.1 ch / 640 Kbps (Дубляж [BD Eur] + VO) #2 - Английский / AC3 / 48 KHz / 5.1 ch / 640 Kbps (Original - BD Eur) Субтитры (SRT): Вшитые (softsub): #1 - Русские Форсированные (включены по умолчанию) #2 - Русские Полные #3 - English Full Внешние (UTF-8): #1 - Русские Форсированные (включены по умолчанию)

    bigtracker.org


    Смотрите также