Прометей режиссерская версия скачать торрент


rutor.org :: Прометей / Prometheus (2012) HDRip

Прометей / Prometheus (2012) HDRip Производство: США, Великобритания / Twentieth Century Fox, Dune Entertainment, Scott Free ProductionsЖанр: Фантастика, ПриключенияПродолжительность: 02:35:01Перевод: Профессиональный дублированный + Любительский одноголосый закадровый (в добавленных и альтернативных сценах)Субтитры: Русские (форсированные на надписи)

Режиссер: Ридли Скотт

Актеры: Нуми Рапас, Майкл Фассбендер, Шарлиз Терон, Идрис Эльба, Гай Пирс, Логан Маршалл-Грин, Шон Харрис, Рейф Сполл, Иман Эллиотт, Бенедикт Вонг

Описание: В поисках сакрального знания группа ученых отправляется в самые темные и неизведанные чертоги вселенной. Именно там, в отдаленных мирах, находясь на пределе своих умственных и физических возможностей, им предстоит вступить в безжалостную схватку за будущее всего человечества...

Качество: HDRipВидео: MPEG4, XviD, 720x304 (2.35:1), 23.976 fps, 1 557 Kbps (0.297 bit/pixel)Аудио: AC-3, 48.0 KHz, 6 ch, 448 Kbps, CBR

Доп.инфа

Официальная версия фильма была короче на 32 минуты 16 сек. Монтаж видео, аудио и субтитров - Ash61. Все возможные сцены заменены на альтернативные, вставлены все вырезанные, кроме момента Послание Прометея.

Карта добавленных и заменённых сцен

00:03:05 - 00:03:33 - Прибытие Инженеров (альтернативная сцена) 00:05:22 - 00:12:16 - Конференция TED, 2023 (добавленная сцена) 00:14:39 - 00:17:11 - Послание Элизабет Шоу Вейланду (добавленная сцена) 00:17:11 - 00:19:34 - "Рождение" Дэвида (добавленная сцена) 00:19:34 - 00:20:12 - Послание Прометея Инженерам (отрывок 1) (добавленная сцена) 00:20:12 - 00:22:50 - Послание Прометея Инженерам (отрывок 2) (добавленная сцена) 00:22:50 - 00:23:22 - Послание Прометея Инженерам (отрывок 3) (добавленная сцена) 00:30:04 - 00:31:04 - Рождество (альтернативная расширенная сцена) 00:50:31 - 00:51:15 - Наш первый инопланетянин (добавленная сцена) 01:02:01 - 01:02:45 - Кожа (добавленная сцена) 01:03:38 - 01:05:03 - Мы больше не одни (добавленная сцена) 01:15:46 - 01:18:51 - Странные компаньоны (альтернативная сцена) 01:24:51 - 01:25:11 - Похмелье Холлоуэя (расширение сцены) 01:35:12 - 01:35:36 - Задача Дэвида (добавленная сцена) 01:40:43 - 01:44:19 - Дженек успокаивает Викерс (добавленная сцена) 01:48:41 - 01:50:48 - Файфилд атакует (альтернативная сцена) 01:56:23 - 02:00:13 - Король правит (альтернативная расширенная сцена) 02:04:14 - 02:06:38 - Инженер говорит (альтернативная расширенная сцена) 02:16:00 - 02:21:04 - Финальная битва (альтернативная расширенная сцена) 02:22:26 - 02:27:30 - Рай (альтернативная расширенная сцена)

Знаете ли вы, что...

  • Логан Маршалл-Грин охарактеризовал свою роль Чарли Холлоуэя как специалиста по всемирным экстремальным играм с кабельного спортивного канала «ESPN», который смотрит, прежде чем прыгает.
  • Г. Р. Гигер создавший внешний вид ксеноморфа для «Чужого» (1979) был приглашен консультантом по дизайну чужих для этого фильма.
  • По слухам, Бен Фостер мог получить одну из ролей в фильме.
  • Продюсеры Уолтер Хилл и Дэвид Гайлер присоединились к Ридли Скотту впервые за последние 30 лет, с момента их первого сотрудничества, когда они работали над фильмом «Чужой» (1979).
  • Джемма Артертон, Кэри Маллиган, Оливия Уайлд, Энн Хэтэуэй, Эбби Корниш и Натали Портман рассматривались на роль доктора Элизабет Шоу.
  • Роль Чарли Холлоуэя могла достаться Джеймсу Франко.
  • Изначально, фильм должен был стать приквелом фильма «Чужой» (1979), режиссером которого также является Ридли Скотт. Но им же было принято решение сделать «Прометей» оригинальным фильмом с Нуми Рапас (она ещё тогда была заявлена на роль), которая в итоге стала исполнительницей одной из пяти главных ролей. Спустя время было утверждено, что, несмотря на то, что действие фильма будет происходить в той же вселенной, что и «Чужой» (1979) и во многом ссылаться на него, фактически это будет оригинальный фильм, не являющийся прямым приквелом.
  • Мишель Йео рассматривалась на роль Мередит Викерс.
  • Чтобы подчеркнуть загадочный характер Мередит Викерс, Ридли Скотт объяснял Шарлиз Терон как замирать, затаившись в углу, и скрытно передвигаться.
  • Ридли Скотт назвал фильм «Прометей», посчитав, что именно такое название полностью отражает его суть: «Это история создания; история о богах и человеке, который восстал против них». В древнегреческой мифологии слуга богов титан Прометей похитил огонь и передал его людям, что навсегда изменило жизнь человечества к лучшему и худшему одновременно.
  • В процессе создания фильма Ридли Скотт старался прибегать к помощи компьютерной графики как можно реже, используя ее главным образом в пространственных сценах. Скотт вспомнил совет специалиста по визуальным эффектам Дугласа Трамбалла, который тот дал ему во время съемок фильма «Бегущий по лезвию» (1982): «Если ты можешь сделать это в живую, делай это в живую», а также заявил, что реальные визуальные эффекты гораздо более рентабельны, чем цифровые.
  • Для раскрутки фильма была использована инновационная вирусная рекламная кампания, состоящая из нескольких видеороликов изображающих мир в ближайшем будущем из фильма. Первым был ролик с речью Питера Уэйланда (Гай Пирс) на конференции «TED», от 2028 года. Затем вышли две различные версии рекламы андроида «David 8» (Майкл Фассбендер). Эти видеоролики были придуманы Ридли Скоттом и Дэймоном Линделофом, а поставлены Люком Скоттом (сыном Ридли).
  • Ридли Скотт предложил актерам «пожить» в декорациях на съёмочной площадке, но этого не произошло из-за нарушений по технике безопасности и возможной угрозы здоровью актеров.
  • Шведская актриса Нуми Рапас много тренировалась для своей роли, чтобы говорить с британским акцентом.
  • Шарлиз Терон пришлось нелегко во время съёмок экшн-сцен из-за привычки к курению, особенно во время сцен, где ей нужно было бегать по песку в обуви весом четырнадцать килограмм.
  • Первоначально фильм должен был называться «Рай», так планировалось в декабре 2010 года.
  • Оператор Дариуш Вольски убедил Ридли Скотта, что фильм можно снять в 3D с той же легкостью и эффективностью, как и обычный фильм. Компания «3ality Technica» предоставила оборудование для облегчения 3D-съемки и обучала персонал работе с ним. Так как съёмки 3D-фильмов требуют более высокого освещения на съёмочной площадке, темная мрачная атмосфера, присущая фильмам о чужих, была добавлена на завершающем этапе.
  • В фильме содержится около 1300 кадров со спецэффектами.
  • Ридли Скотт заявил, что он снимал «самый агрессивный фильм, что мог» не думая о рейтингах MPAA, имея поддержку от главного исполнительного директора «20th Century Fox» Тома Ротмана, который обратился к поклонникам «Чужого»(1979), заявив, что он «очень хорошо понимает их озабоченность», и что «они могут быть уверены, что фильм не будет скомпрометирован. Так что, если это означает, что фильм получит рейтинг R, то это будет R. Если это будет PG-13, то PG-13, но фильм не пострадает от этого в любом случае». Скотт снял фильм, помня про оба рейтинга(R и PG-13), позволяя в случае необходимости урезать более «взрослые» моменты без ущерба для общего представления. В конце концов, фильм был отнесен к категории R за «научно-фантастическую» жестокость, наряду с откровенными кадрами и грубыми выражениями» и был выпущен без каких-либо сокращений.
  • 7 мая 2012 года, Гильермо дель Торо заявил, что его длинная запланированная подготовка для фильма «Хребты безумия» была отложена на неопределенный срок, как только он почувствовал, что подход в фильме Ридли Скотта был очень схож с тем, как он работал над повестью Лавкрафта, вплоть до того, что «были бы почти идентичные сцены, одинаковые ветви сюжета и точно такие же откровения в конце».
  • При подготовке к роли Дэвида Майкл Фассбендер посмотрел такие фильмы как: «Бегущий по лезвию» (1982), «Человек, который упал на Землю» (1976), «Слуга» (1963) и «Лоуренс Аравийский» (1962). Фассбендер также изучал олимпийского чемпиона по прыжкам в воду Грега Луганиса, черпая вдохновение в его физических качествах.
  • По словам Ридли Скотта, вдохновением к сюжету фильма послужили работы Эриха фон Дэникена о пребывании в далеком прошлом на Земле инопланетных космонавтов: «И NASA, и Ватикан согласны, что математически это почти невозможно, чтобы мы были там, где находимся сегодня, без наличия небольшой помощи на этом пути. Вот что нас интересует: мы говорим о богах и инженерах, инженерах пространства. Были ли чужие задуманы как форма биологического оружия, или как нечто, что придет и очистит планету?».
  • Сцена, которая открывает фильм, была отснята в Исландии. Вся съемка заняла две недели.
  • Во время полёта Дэвид смотрит картину Дэвида Лина «Лоуренс Аравийский» (1962) и пытается повторить прическу главного героя в исполнении Питера О`Тула.
  • Ридли Скотт обратился в Лондонский Университет по изучению стран Востока и Африки, чтобы найти специалистов, которые могли бы помочь в создании нового языка для фильма. В итоге Анил Бильту (Anil Biltoo), из языкового центра этого университета, взялся за работу по созданию языка, а так же письменности инопланетян, которую можно видеть на протяжении всего фильма. Самого Анила можно увидеть в сцене с Майклом Фассбендером.
  • Когда во время песчаной бури спасают доктора Элизабет Шоу, доктор Холлоуэй называет ее «Нуми».
  • Первые кадры наскальных рисунков в начале фильма, которые показывают лошадь в движении, взяты из пещеры Шове на юге Франции. Об этих рисунках Вернер Херцог снял документальный фильм «Пещера забытых снов» (2010) (кстати снят он тоже в 3D).
  • Это не единственная роль Йена Уайта (он играет последнего инженера) связанная с серией фильмов про «Чужих». Уайт так же играл Хищников в серии фильмов «Чужой против Хищника».
  • На конференции, когда Шоу обсуждает свои находки, на заднем плане можно увидеть надпись «Eilean a» Cheo». В переводе с шотландского (кельтского) это означает «Остров Туманов», этот остров так же называют Скай, и его название правильно писать «An t-Eilean Sgitheanach».
  • Три треугольника — логотип корпорации Вейланд (который визуально похож на логотип The Weinstein Company) на самом деле происходит от рисунка на стене на фоне в ранней картине Рона Кобба изображающей «Космического пилота» для оригинального фильма про «Чужих». Этот логотип можно видеть в отпечатках пальцев Дэвида.
  • Как упоминалось в фильме, Прометей — персонаж из греческой мифологии. Он был титаном (бессмертным), который подарил людям огонь. Прометей был наказан за это, он был привязан к скале в Колхиде, где каждый день прилетал орел (символ Зевса), чтобы клевать его печень. И только она успевала отрасти, как на следующий день орел прилетал и съедал ее вновь. В некоторых сказаниях, Прометея в конце концов освобождает Геракл (Геркулес). Среди древних греков Прометей почитался как божество. Прометей может происходить от греческого «forethinker» (предвидящий) или от прото-индо-европейского «thief» (вор). Прометей так же обманул богов, что имеет значимость для фильма.
  • Когда Викерс спрашивает Дэвида, как долго они были в гипер-сне, он отвечает: «2 года, 4 месяца, 18 дней, 36 часов, 15 минут». Непонятно почему день должен быть длиннее, чем стандартные 24 часа, и почему он не сказал «19 дней, 12 часов».
  • Расстояние до экзо-планеты, на которую они прилетают, как указано, порядка 10^14км. И так как им потребовалось чуть больше двух лет, чтобы попасть туда, то лететь они должны были на скорости в 10 раз превышающей скорость света.

    Осторожно! Дальнейший список содержит спойлеры!

  • Ридли Скотт решил не показывать ксеноморфов в фильме, потому как «сиквелы выжали из них максимум, и всё было отлично… но я никоим образом не собираюсь к ним возвращаться». Фильм всё же является косвенным приквелом к «Чужому» (1979), и Скотт решил показать предков чужих, родителей ксеноморфов.
  • Имена андроидов в фильмах о чужих идут в алфавитном порядке: Ash в «Чужом»; Bishop в «Чужих» и «Чужом 3»; Call в «Чужом 4: Воскрешение». В «Прометее» — David.
  • Когда капитан Янек заигрывает с Мередит Викерс, она утверждает, что находится на расстоянии «полмиллиарда миль» от других людей. Это расстояние едва-едва укладывается от Солнца до Юпитера, не говоря уже о других солнечных системах.
  • В фильме видно, что Элизабет Шоу может ходить, бегать, прыгать и выполнять тяжелую физическую работу, и это сразу после кесарева сечения, с грубыми швами на животе. Хотя, многократно показывают, как она употребляет наркотики, что могло бы объяснить то, что она не чувствует боли и набирает силу.
  • Ошибки в фильме (осторожно, содержатся спойлеры!)...

  • Дэвид спасает Элизабет и Чарли от песчаной бури «разрезающей скафандры», и в следующей же сцене в шлюзовой камере мы видим, что костюмы без единой царапины.
  • После того как на шлем Холлоуэйя попадает кровь «Чужого», она расплавляет пластик и капает ему на лицо оставляя огромный отпечаток. Позже, когда остальные члены команды выходят из корабля, чтобы спасти его, у него лишь небольшая пробоина в шлеме.
  • Вскоре после того, как команда впервые взошла на корабль, говорится, что температура -23°C, тем не менее никто из ученых (все из них сняли шлемы), по всей видимости, не страдает от холода.
  • Когда Дэвид снимает крест Шоу, цепь достаточно короткая, и Дэвиду приходится расстегивать зажим, чтобы ее снять. Однако, позже в фильме, когда она сама снимает его, длины цепи хватает, чтобы просто снять его через голову.
  • Скафандры экипажа Прометея сделаны очень странным образом: они могут выдержать свирепую песчаную бурю и на них не остается даже царапины, но они легко рвутся, когда несчастный астронавт ломает руку или когда от удара разбивается шлем.
  • Когда Шоу выходит из спасательной капсулы на ней надет шлем, но нет перчаток. В следующем кадре она в перчатках.
  • Момент, когда доктор Шоу хватает топор, происходит мгновенно, от кадра снятого из-за нее, к кадру перед ней.
  • Много раз во время начального исследования планеты показывают как шлемы персонажей очищают паром, и затем в следующем кадре они абсолютно прозрачные.
  • Когда доктор Шоу заходит на корабль, который совершил аварийную посадку на планету, можно видеть книги и вещи раскиданные повсюду, но бутылка водки стоит на барной стойке как ни в чем не бывало рядом со шлемом и неким контейнером.
  • Когда Викерс стоит перед Вейландом и говорит о том, почему она отправилась в путешествие, ее руки меняют положение несколько раз. В одном кадре они перед ней, а в следующем уже за ней.
  • Mediainfo:

    Формат : AVI Формат/Информация : Audio Video Interleave Профиль формата : OpenDML Размер файла : 2,18 Гбайт Продолжительность : 2 ч. 35 м. Общий поток : 2017 Кбит/сек Программа кодирования : VirtualDubMod 1.5.10.3 | www.virtualdub-fr.org || (build 2550/release) Библиотека кодирования : VirtualDubMod build 2550/release

    Видео Идентификатор : 0 Формат : MPEG-4 Visual Профиль формата : Advanced [email protected] Параметр BVOP формата : 1 Параметр QPel формата : Нет Параметр GMC формата : Без точки перехода Параметр матрицы формата : Выборочная Идентификатор кодека : XVID Идентификатор кодека/Подсказка : XviD Продолжительность : 2 ч. 35 м. Битрейт : 1557 Кбит/сек Ширина : 720 пикселей Высота : 304 пикселя Соотношение сторон : 2,35:1 Частота кадров : 23,976 кадра/сек Цветовое пространство : YUV Субдискретизация насыщенности : 4:2:0 Битовая глубина : 8 бит Тип развёртки : Прогрессивная Метод сжатия : С потерями Бит/(Пиксели*Кадры) : 0.297 Размер потока : 1,69 Гбайт (77%) Библиотека кодирования : XviD 73

    Аудио Идентификатор : 1 Формат : AC-3 Формат/Информация : Audio Coding 3 Расширение режима : CM (complete main) Параметр Endianness формата : Big Идентификатор кодека : 2000 Продолжительность : 2 ч. 35 м. Вид битрейта : Постоянный Битрейт : 448 Кбит/сек Каналы : 6 канала Расположение каналов : Front: L R Частота : 48,0 КГц Битовая глубина : 16 бит Метод сжатия : С потерями Размер потока : 497 Мбайт (22%) Выравнивание : Разделение по промежуткам Продолжительность промежутка : 42 мс. (1,00 видеокадр) Время предзагрузки промежутка : 500 мс.

    main-rutor.org

    rutor.org :: Прометей / Prometheus (2012) BDRip 720p от NNNB

    Format : Matroska Format version : Version 2 File size : 7.75 GiB Duration : 2h 3mn Overall bit rate : 8 961 Kbps Movie name : Prometheus.(2012).BDRip.2012.BDRip.720p.[denis100] Encoded date : UTC 2016-01-28 14:42:30 Writing application : mkvmerge v5.8.0 ('No Sleep / Pillow') built on Sep 2 2012 15:37:04 Writing library : libebml v1.2.3 + libmatroska v1.3.0

    Video ID : 1 Format : AVC Format/Info : Advanced Video Codec Format profile : [email protected] Format settings, CABAC : Yes Format settings, ReFrames : 11 frames Codec ID : V_MPEG4/ISO/AVC Duration : 2h 3mn Bit rate : 5 320 Kbps Width : 1 280 pixels Height : 534 pixels Display aspect ratio : 2.40:1 Frame rate : 23.976 fps Color space : YUV Chroma subsampling : 4:2:0 Bit depth : 8 bits Scan type : Progressive Bits/(Pixel*Frame) : 0.325 Stream size : 4.44 GiB (57%) Title : Prometheus.(2012).BDRip.2012.BDRip.720p.[denis100] Writing library : x264 core 148 r2638 7599210 Encoding settings : cabac=1 / ref=11 / deblock=1:-3:-3 / analyse=0x3:0x133 / me=umh / subme=11 / psy=1 / psy_rd=1.00:0.00 / mixed_ref=1 / me_range=32 / chroma_me=1 / trellis=2 / 8x8dct=1 / cqm=0 / deadzone=21,11 / fast_pskip=0 / chroma_qp_offset=-2 / threads=6 / lookahead_threads=1 / sliced_threads=0 / nr=0 / decimate=1 / interlaced=0 / bluray_compat=0 / constrained_intra=0 / bframes=10 / b_pyramid=2 / b_adapt=2 / b_bias=0 / direct=3 / weightb=1 / open_gop=0 / weightp=2 / keyint=240 / keyint_min=23 / scenecut=40 / intra_refresh=0 / rc=2pass / mbtree=0 / bitrate=5320 / ratetol=1.0 / qcomp=0.60 / qpmin=0 / qpmax=69 / qpstep=4 / cplxblur=20.0 / qblur=0.5 / ip_ratio=1.40 / pb_ratio=1.30 / aq=1:1.00 Language : English Default : Yes Forced : No

    Audio #1 ID : 2 Format : AC-3 Format/Info : Audio Coding 3 Mode extension : CM (complete main) Codec ID : A_AC3 Duration : 2h 3mn Bit rate mode : Constant Bit rate : 448 Kbps Channel(s) : 6 channels Channel positions : Front: L C R, Side: L R, LFE Sampling rate : 48.0 KHz Bit depth : 16 bits Compression mode : Lossy Stream size : 397 MiB (5%) Title : Дубляж Language : Russian Default : Yes Forced : No

    Audio #2 ID : 3 Format : AC-3 Format/Info : Audio Coding 3 Mode extension : CM (complete main) Codec ID : A_AC3 Duration : 2h 3mn Bit rate mode : Constant Bit rate : 640 Kbps Channel(s) : 6 channels Channel positions : Front: L C R, Side: L R, LFE Sampling rate : 48.0 KHz Bit depth : 16 bits Compression mode : Lossy Stream size : 567 MiB (7%) Title : Авторский, Ю. Сербин Language : Russian Default : No Forced : No

    Audio #3 ID : 4 Format : AC-3 Format/Info : Audio Coding 3 Mode extension : CM (complete main) Codec ID : A_AC3 Duration : 2h 3mn Bit rate mode : Constant Bit rate : 640 Kbps Channel(s) : 6 channels Channel positions : Front: L C R, Side: L R, LFE Sampling rate : 48.0 KHz Bit depth : 16 bits Compression mode : Lossy Stream size : 567 MiB (7%) Title : Авторский, А. Гаврилов Language : Russian Default : No Forced : No

    Audio #4 ID : 5 Format : AC-3 Format/Info : Audio Coding 3 Mode extension : CM (complete main) Codec ID : A_AC3 Duration : 2h 3mn Bit rate mode : Constant Bit rate : 640 Kbps Channel(s) : 6 channels Channel positions : Front: L C R, Side: L R, LFE Sampling rate : 48.0 KHz Bit depth : 16 bits Compression mode : Lossy Stream size : 567 MiB (7%) Title : Авторский, В. Горчаков Language : Russian Default : No Forced : No

    Audio #5 ID : 6 Format : AC-3 Format/Info : Audio Coding 3 Mode extension : CM (complete main) Codec ID : A_AC3 Duration : 2h 3mn Bit rate mode : Constant Bit rate : 640 Kbps Channel(s) : 6 channels Channel positions : Front: L C R, Side: L R, LFE Sampling rate : 48.0 KHz Bit depth : 16 bits Compression mode : Lossy Stream size : 567 MiB (7%) Title : Авторский, А. Матвеев Language : Russian Default : No Forced : No

    Audio #6 ID : 7 Format : AC-3 Format/Info : Audio Coding 3 Mode extension : CM (complete main) Codec ID : A_AC3 Duration : 2h 3mn Bit rate mode : Constant Bit rate : 640 Kbps Channel(s) : 6 channels Channel positions : Front: L C R, Side: L R, LFE Sampling rate : 48.0 KHz Bit depth : 16 bits Compression mode : Lossy Stream size : 567 MiB (7%) Language : English Default : No Forced : No

    Text #1 ID : 8 Format : UTF-8 Codec ID : S_TEXT/UTF8 Codec ID/Info : UTF-8 Plain Text Title : Forced Language : Russian Default : Yes Forced : No

    Text #2 ID : 9 Format : UTF-8 Codec ID : S_TEXT/UTF8 Codec ID/Info : UTF-8 Plain Text Title : BD EUR Language : Russian Default : No Forced : No

    Text #3 ID : 10 Format : UTF-8 Codec ID : S_TEXT/UTF8 Codec ID/Info : UTF-8 Plain Text Title : Voronine Language : Russian Default : No Forced : No

    Text #4 ID : 11 Format : UTF-8 Codec ID : S_TEXT/UTF8 Codec ID/Info : UTF-8 Plain Text Title : Full Language : English Default : No Forced : No

    Text #5 ID : 12 Format : UTF-8 Codec ID : S_TEXT/UTF8 Codec ID/Info : UTF-8 Plain Text Title : SDH Language : English Default : No Forced : No

    Menu 00:00:00.000 : en:Chapter 1 00:05:13.146 : en:Chapter 2 00:07:44.881 : en:Chapter 3 00:11:31.524 : en:Chapter 4 00:15:09.784 : en:Chapter 5 00:20:04.912 : en:Chapter 6 00:22:32.810 : en:Chapter 7 00:27:43.120 : en:Chapter 8 00:31:57.833 : en:Chapter 9 00:34:10.840 : en:Chapter 10 00:37:53.229 : en:Chapter 11 00:40:45.360 : en:Chapter 12 00:45:49.330 : en:Chapter 13 00:48:47.925 : en:Chapter 14 00:50:23.062 : en:Chapter 15 00:53:56.400 : en:Chapter 16 00:56:32.222 : en:Chapter 17 00:59:31.610 : en:Chapter 18 01:01:29.185 : en:Chapter 19 01:04:17.562 : en:Chapter 20 01:06:01.457 : en:Chapter 21 01:08:57.884 : en:Chapter 22 01:11:13.519 : en:Chapter 23 01:15:10.631 : en:Chapter 24 01:17:06.038 : en:Chapter 25 01:25:02.306 : en:Chapter 26 01:27:09.349 : en:Chapter 27 01:30:10.363 : en:Chapter 28 01:32:43.725 : en:Chapter 29 01:35:23.134 : en:Chapter 30 01:37:46.861 : en:Chapter 31 01:40:46.374 : en:Chapter 32 01:43:46.220 : en:Chapter 33 01:48:28.794 : en:Chapter 34 01:52:08.096 : en:Chapter 35 01:58:06.288 : en:Chapter 36

    main-rutor.org

    rutor.org :: Прометей / Prometheus (2012) BDRip 720p от Ash61 | Расширенная Фан-версия

    Прометей (Расширенная Фан-версия)Prometheus (Extended Fan Cut)

    «Они искали колыбель человечества, но нашли его погибель»

    Год выпуска: 2012Страна: США, Великобритания (20th Century Fox, Dune Entertainment, Scott Free Productions, Brandywine Productions Ltd.)Жанр: Фантастика, Детектив, Приключения

    Продолжительность: 02:35:01

    Перевод: Профессиональный дублированный + Любительский одноголосый закадровый (в добавленных и альтернативных сценах)

    Режиссер и продюсер: Ридли Скотт / Ridley ScottСценаристы: Джон Спэйтс / Jon Spaihts, Дэймон Линделоф / Damon Lindelof, Дэн О’Бэннон / Dan O'Bannon, Рональд Шусетт / Ronald ShusettКомпозитор: Марк Стрейтенфелд / Marc StreitenfeldРоли исполняли (дублировали):

    Элизабет Шоу - Нуми Рапас (Ольга Сирина)Дэвид - Майкл Фассбендер (Илья Исаев)Мередит Викерс - Шарлиз Терон (Татьяна Шитова)Джанек - Идрис Эльба (Александр Груздев)Питер Уэйлэнд - Гай Пирс (Александр Пожаров)Чарли Холоуэй - Логан Маршалл-Грин (Денис Шведов)Файфилд - Шон Харрис (Радик Мухаметзянов)Миллберн - Рейф Сполл (Михаил Тарабукин)Ченс - Иман Эллиотт (Даниил Эльдаров)Рейвел - Бенедикт Вонг (Дмитрий Поляновский)Форд - Кейт Дики (Ирина Киреева)Отец Элизабет - Патрик Уилсон (Даниил Эльдаров)Т. Э. Лоуренс, хроника - Питер О’Тул

    Описание: В поисках сакрального знания группа ученых отправляется в самые темные и неизведанные чертоги вселенной. Именно там, в отдаленных мирах, находясь на пределе своих умственных и физических возможностей, им предстоит вступить в безжалостную схватку за будущее всего человечества… В данном своём проекте Ридли Скотт, режиссёр фильмов "Чужой", "Гладиатор", "Бегущий по лезвию", вновь возвращается к жанру, который им же в своё время и был создан. "Прометей" предлагает зрителю принципиально новую мифологию о зарождении жизни на Земле.Доп. инфо: Официальная версия фильма была короче на 32 минуты 16 сек. Монтаж видео, аудио и субтитров - Ash61. Если заметите какие-либо недочёты - пишите (возможно подкорректирую). Чёрные полосы обрезать не стал, т.к. две добавленные сцены идут 16:9 (без полос). Все возможные сцены заменены на альтернативные, вставлены все вырезанные (только в Послании Прометея не стал вставлять то, что посчитал лишним):

    Карта добавленных и заменённых сцен

    00:03:05 - 00:03:33 - Прибытие Инженеров (альтернативная сцена) 00:05:22 - 00:12:16 - Конференция TED, 2023 (добавленная сцена) 00:14:39 - 00:17:11 - Послание Элизабет Шоу Вейланду (добавленная сцена) 00:17:11 - 00:19:34 - "Рождение" Дэвида (добавленная сцена) 00:19:34 - 00:20:12 - Послание Прометея Инженерам (отрывок 1) (добавленная сцена) 00:20:12 - 00:22:50 - Послание Прометея Инженерам (отрывок 2) (добавленная сцена) 00:22:50 - 00:23:22 - Послание Прометея Инженерам (отрывок 3) (добавленная сцена) 00:30:04 - 00:31:04 - Рождество (альтернативная расширенная сцена) 00:50:31 - 00:51:15 - Наш первый инопланетянин (добавленная сцена) 01:02:01 - 01:02:45 - Кожа (добавленная сцена) 01:03:38 - 01:05:03 - Мы больше не одни (добавленная сцена) 01:15:46 - 01:18:51 - Странные компаньоны (альтернативная сцена) 01:24:51 - 01:25:11 - Похмелье Холлоуэя (расширение сцены) 01:35:12 - 01:35:36 - Задача Дэвида (добавленная сцена) 01:40:43 - 01:44:19 - Дженек успокаивает Викерс (добавленная сцена) 01:48:41 - 01:50:48 - Файфилд атакует (альтернативная сцена) 01:56:23 - 02:00:13 - Король правит (альтернативная расширенная сцена) 02:04:14 - 02:06:38 - Инженер говорит (альтернативная расширенная сцена) 02:16:00 - 02:21:04 - Финальная битва (альтернативная расширенная сцена) 02:22:26 - 02:27:30 - Рай (альтернативная расширенная сцена)

    Знаете ли вы, что...

  • Логан Маршалл-Грин охарактеризовал свою роль Чарли Холлоуэя как специалиста по всемирным экстремальным играм с кабельного спортивного канала «ESPN», который смотрит, прежде чем прыгает.
  • Г. Р. Гигер создавший внешний вид ксеноморфа для «Чужого» (1979) был приглашен консультантом по дизайну чужих для этого фильма.
  • По слухам, Бен Фостер мог получить одну из ролей в фильме.
  • Продюсеры Уолтер Хилл и Дэвид Гайлер присоединились к Ридли Скотту впервые за последние 30 лет, с момента их первого сотрудничества, когда они работали над фильмом «Чужой» (1979).
  • Джемма Артертон, Кэри Маллиган, Оливия Уайлд, Энн Хэтэуэй, Эбби Корниш и Натали Портман рассматривались на роль доктора Элизабет Шоу.
  • Роль Чарли Холлоуэя могла достаться Джеймсу Франко.
  • Изначально, фильм должен был стать приквелом фильма «Чужой» (1979), режиссером которого также является Ридли Скотт. Но им же было принято решение сделать «Прометей» оригинальным фильмом с Нуми Рапас (она ещё тогда была заявлена на роль), которая в итоге стала исполнительницей одной из пяти главных ролей. Спустя время было утверждено, что, несмотря на то, что действие фильма будет происходить в той же вселенной, что и «Чужой» (1979) и во многом ссылаться на него, фактически это будет оригинальный фильм, не являющийся прямым приквелом.
  • Мишель Йео рассматривалась на роль Мередит Викерс.
  • Чтобы подчеркнуть загадочный характер Мередит Викерс, Ридли Скотт объяснял Шарлиз Терон как замирать, затаившись в углу, и скрытно передвигаться.
  • Ридли Скотт назвал фильм «Прометей», посчитав, что именно такое название полностью отражает его суть: «Это история создания; история о богах и человеке, который восстал против них». В древнегреческой мифологии слуга богов титан Прометей похитил огонь и передал его людям, что навсегда изменило жизнь человечества к лучшему и худшему одновременно.
  • В процессе создания фильма Ридли Скотт старался прибегать к помощи компьютерной графики как можно реже, используя ее главным образом в пространственных сценах. Скотт вспомнил совет специалиста по визуальным эффектам Дугласа Трамбалла, который тот дал ему во время съемок фильма «Бегущий по лезвию» (1982): «Если ты можешь сделать это в живую, делай это в живую», а также заявил, что реальные визуальные эффекты гораздо более рентабельны, чем цифровые.
  • Для раскрутки фильма была использована инновационная вирусная рекламная кампания, состоящая из нескольких видеороликов изображающих мир в ближайшем будущем из фильма. Первым был ролик с речью Питера Уэйланда (Гай Пирс) на конференции «TED», от 2028 года. Затем вышли две различные версии рекламы андроида «David 8» (Майкл Фассбендер). Эти видеоролики были придуманы Ридли Скоттом и Дэймоном Линделофом, а поставлены Люком Скоттом (сыном Ридли).
  • Ридли Скотт предложил актерам «пожить» в декорациях на съёмочной площадке, но этого не произошло из-за нарушений по технике безопасности и возможной угрозы здоровью актеров.
  • Шведская актриса Нуми Рапас много тренировалась для своей роли, чтобы говорить с британским акцентом.
  • Шарлиз Терон пришлось нелегко во время съёмок экшн-сцен из-за привычки к курению, особенно во время сцен, где ей нужно было бегать по песку в обуви весом четырнадцать килограмм.
  • Первоначально фильм должен был называться «Рай», так планировалось в декабре 2010 года.
  • Оператор Дариуш Вольски убедил Ридли Скотта, что фильм можно снять в 3D с той же легкостью и эффективностью, как и обычный фильм. Компания «3ality Technica» предоставила оборудование для облегчения 3D-съемки и обучала персонал работе с ним. Так как съёмки 3D-фильмов требуют более высокого освещения на съёмочной площадке, темная мрачная атмосфера, присущая фильмам о чужих, была добавлена на завершающем этапе.
  • В фильме содержится около 1300 кадров со спецэффектами.
  • Ридли Скотт заявил, что он снимал «самый агрессивный фильм, что мог» не думая о рейтингах MPAA, имея поддержку от главного исполнительного директора «20th Century Fox» Тома Ротмана, который обратился к поклонникам «Чужого»(1979), заявив, что он «очень хорошо понимает их озабоченность», и что «они могут быть уверены, что фильм не будет скомпрометирован. Так что, если это означает, что фильм получит рейтинг R, то это будет R. Если это будет PG-13, то PG-13, но фильм не пострадает от этого в любом случае». Скотт снял фильм, помня про оба рейтинга(R и PG-13), позволяя в случае необходимости урезать более «взрослые» моменты без ущерба для общего представления. В конце концов, фильм был отнесен к категории R за «научно-фантастическую» жестокость, наряду с откровенными кадрами и грубыми выражениями» и был выпущен без каких-либо сокращений.
  • 7 мая 2012 года, Гильермо дель Торо заявил, что его длинная запланированная подготовка для фильма «Хребты безумия» была отложена на неопределенный срок, как только он почувствовал, что подход в фильме Ридли Скотта был очень схож с тем, как он работал над повестью Лавкрафта, вплоть до того, что «были бы почти идентичные сцены, одинаковые ветви сюжета и точно такие же откровения в конце».
  • При подготовке к роли Дэвида Майкл Фассбендер посмотрел такие фильмы как: «Бегущий по лезвию» (1982), «Человек, который упал на Землю» (1976), «Слуга» (1963) и «Лоуренс Аравийский» (1962). Фассбендер также изучал олимпийского чемпиона по прыжкам в воду Грега Луганиса, черпая вдохновение в его физических качествах.
  • По словам Ридли Скотта, вдохновением к сюжету фильма послужили работы Эриха фон Дэникена о пребывании в далеком прошлом на Земле инопланетных космонавтов: «И NASA, и Ватикан согласны, что математически это почти невозможно, чтобы мы были там, где находимся сегодня, без наличия небольшой помощи на этом пути. Вот что нас интересует: мы говорим о богах и инженерах, инженерах пространства. Были ли чужие задуманы как форма биологического оружия, или как нечто, что придет и очистит планету?».
  • Сцена, которая открывает фильм, была отснята в Исландии. Вся съемка заняла две недели.
  • Во время полёта Дэвид смотрит картину Дэвида Лина «Лоуренс Аравийский» (1962) и пытается повторить прическу главного героя в исполнении Питера О`Тула.
  • Ридли Скотт обратился в Лондонский Университет по изучению стран Востока и Африки, чтобы найти специалистов, которые могли бы помочь в создании нового языка для фильма. В итоге Анил Бильту (Anil Biltoo), из языкового центра этого университета, взялся за работу по созданию языка, а так же письменности инопланетян, которую можно видеть на протяжении всего фильма. Самого Анила можно увидеть в сцене с Майклом Фассбендером.
  • Когда во время песчаной бури спасают доктора Элизабет Шоу, доктор Холлоуэй называет ее «Нуми».
  • Первые кадры наскальных рисунков в начале фильма, которые показывают лошадь в движении, взяты из пещеры Шове на юге Франции. Об этих рисунках Вернер Херцог снял документальный фильм «Пещера забытых снов» (2010) (кстати снят он тоже в 3D).
  • Это не единственная роль Йена Уайта (он играет последнего инженера) связанная с серией фильмов про «Чужих». Уайт так же играл Хищников в серии фильмов «Чужой против Хищника».
  • На конференции, когда Шоу обсуждает свои находки, на заднем плане можно увидеть надпись «Eilean a» Cheo». В переводе с шотландского (кельтского) это означает «Остров Туманов», этот остров так же называют Скай, и его название правильно писать «An t-Eilean Sgitheanach».
  • Три треугольника — логотип корпорации Вейланд (который визуально похож на логотип The Weinstein Company) на самом деле происходит от рисунка на стене на фоне в ранней картине Рона Кобба изображающей «Космического пилота» для оригинального фильма про «Чужих». Этот логотип можно видеть в отпечатках пальцев Дэвида.
  • Как упоминалось в фильме, Прометей — персонаж из греческой мифологии. Он был титаном (бессмертным), который подарил людям огонь. Прометей был наказан за это, он был привязан к скале в Колхиде, где каждый день прилетал орел (символ Зевса), чтобы клевать его печень. И только она успевала отрасти, как на следующий день орел прилетал и съедал ее вновь. В некоторых сказаниях, Прометея в конце концов освобождает Геракл (Геркулес). Среди древних греков Прометей почитался как божество. Прометей может происходить от греческого «forethinker» (предвидящий) или от прото-индо-европейского «thief» (вор). Прометей так же обманул богов, что имеет значимость для фильма.
  • Когда Викерс спрашивает Дэвида, как долго они были в гипер-сне, он отвечает: «2 года, 4 месяца, 18 дней, 36 часов, 15 минут». Непонятно почему день должен быть длиннее, чем стандартные 24 часа, и почему он не сказал «19 дней, 12 часов».
  • Расстояние до экзо-планеты, на которую они прилетают, как указано, порядка 10^14км. И так как им потребовалось чуть больше двух лет, чтобы попасть туда, то лететь они должны были на скорости в 10 раз превышающей скорость света.

    Осторожно! Дальнейший список содержит спойлеры!

  • Ридли Скотт решил не показывать ксеноморфов в фильме, потому как «сиквелы выжали из них максимум, и всё было отлично… но я никоим образом не собираюсь к ним возвращаться». Фильм всё же является косвенным приквелом к «Чужому» (1979), и Скотт решил показать предков чужих, родителей ксеноморфов.
  • Имена андроидов в фильмах о чужих идут в алфавитном порядке: Ash в «Чужом»; Bishop в «Чужих» и «Чужом 3»; Call в «Чужом 4: Воскрешение». В «Прометее» — David.
  • Когда капитан Янек заигрывает с Мередит Викерс, она утверждает, что находится на расстоянии «полмиллиарда миль» от других людей. Это расстояние едва-едва укладывается от Солнца до Юпитера, не говоря уже о других солнечных системах.
  • В фильме видно, что Элизабет Шоу может ходить, бегать, прыгать и выполнять тяжелую физическую работу, и это сразу после кесарева сечения, с грубыми швами на животе. Хотя, многократно показывают, как она употребляет наркотики, что могло бы объяснить то, что она не чувствует боли и набирает силу.
  • Ошибки в фильме (осторожно, содержатся спойлеры!)...

  • Дэвид спасает Элизабет и Чарли от песчаной бури «разрезающей скафандры», и в следующей же сцене в шлюзовой камере мы видим, что костюмы без единой царапины.
  • После того как на шлем Холлоуэйя попадает кровь «Чужого», она расплавляет пластик и капает ему на лицо оставляя огромный отпечаток. Позже, когда остальные члены команды выходят из корабля, чтобы спасти его, у него лишь небольшая пробоина в шлеме.
  • Вскоре после того, как команда впервые взошла на корабль, говорится, что температура -23°C, тем не менее никто из ученых (все из них сняли шлемы), по всей видимости, не страдает от холода.
  • Когда Дэвид снимает крест Шоу, цепь достаточно короткая, и Дэвиду приходится расстегивать зажим, чтобы ее снять. Однако, позже в фильме, когда она сама снимает его, длины цепи хватает, чтобы просто снять его через голову.
  • Скафандры экипажа Прометея сделаны очень странным образом: они могут выдержать свирепую песчаную бурю и на них не остается даже царапины, но они легко рвутся, когда несчастный астронавт ломает руку или когда от удара разбивается шлем.
  • Когда Шоу выходит из спасательной капсулы на ней надет шлем, но нет перчаток. В следующем кадре она в перчатках.
  • Момент, когда доктор Шоу хватает топор, происходит мгновенно, от кадра снятого из-за нее, к кадру перед ней.
  • Много раз во время начального исследования планеты показывают как шлемы персонажей очищают паром, и затем в следующем кадре они абсолютно прозрачные.
  • Когда доктор Шоу заходит на корабль, который совершил аварийную посадку на планету, можно видеть книги и вещи раскиданные повсюду, но бутылка водки стоит на барной стойке как ни в чем не бывало рядом со шлемом и неким контейнером.
  • Когда Викерс стоит перед Вейландом и говорит о том, почему она отправилась в путешествие, ее руки меняют положение несколько раз. В одном кадре они перед ней, а в следующем уже за ней.
  • Премьера: 30 мая 2012 (31 мая 2012)Релиз на Blu-Ray (DVD) (Россия): 4 октября 2012Бюджет: $130 000 000Кассовые сборы: $403 354 469

    Качество: BDRip (by Ash61)Контейнер: MKVВидео: AVC / 23,976 fps / 1280х720p / ~4.2 Mbps

    Аудио:#1 - Русский / AC3 / 48 KHz / 5.1 ch / 640 Kbps (Дубляж [BD Eur] + VO)#2 - Английский / AC3 / 48 KHz / 5.1 ch / 640 Kbps (Original - BD Eur)

    Субтитры (SRT):Вшитые (softsub):#1 - Русские Форсированные (включены по умолчанию)#2 - Русские Полные#3 - English Full

    Внешние (UTF-8):#1 - Русские Форсированные (включены по умолчанию)

    MediaInfo

    General Unique ID : 207454933069558810745024997342886818287 (0x9C125DE4B37903D1AC95BA9EAD5CF1EF) Complete name : E:Prometheus(2012)(ExtendedFanCut)BDRip.720p(Ash61)Prometheus(2012)(ExtendedFanCut)BDRip.720p(Ash61).mkv Format : Matroska Format version : Version 2 File size : 6.03 GiB Duration : 2h 35mn Overall bit rate : 5 568 Kbps Encoded date : UTC 2015-07-11 13:10:52 Writing application : mkvmerge v5.8.0 ('No Sleep / Pillow') built on Sep 2 2012 15:37:04 Writing library : libebml v1.2.3 + libmatroska v1.3.0

    Video ID : 1 Format : AVC Format/Info : Advanced Video Codec Format profile : [email protected] Format settings, CABAC : Yes Format settings, ReFrames : 4 frames Codec ID : V_MPEG4/ISO/AVC Duration : 2h 35mn Bit rate : 4 177 Kbps Width : 1 280 pixels Height : 720 pixels Display aspect ratio : 16:9 Frame rate mode : Constant Frame rate : 23.976 fps Color space : YUV Chroma subsampling : 4:2:0 Bit depth : 8 bits Scan type : Progressive Bits/(Pixel*Frame) : 0.189 Stream size : 4.52 GiB (75%) Title : BDRip and Montage by Ash61 Writing library : x264 core 138 r2358 9e941d1 Encoding settings : cabac=1 / ref=4 / deblock=1:-3:-3 / analyse=0x3:0x113 / me=umh / subme=10 / psy=1 / psy_rd=1.00:0.00 / mixed_ref=1 / me_range=32 / chroma_me=1 / trellis=2 / 8x8dct=1 / cqm=0 / deadzone=21,11 / fast_pskip=1 / chroma_qp_offset=-2 / threads=12 / lookahead_threads=3 / sliced_threads=0 / nr=0 / decimate=1 / interlaced=0 / bluray_compat=0 / constrained_intra=0 / bframes=11 / b_pyramid=2 / b_adapt=2 / b_bias=0 / direct=3 / weightb=1 / open_gop=0 / weightp=2 / keyint=250 / keyint_min=23 / scenecut=40 / intra_refresh=0 / rc_lookahead=60 / rc=crf / mbtree=1 / crf=15.0 / qcomp=0.70 / qpmin=10 / qpmax=51 / qpstep=4 / vbv_maxrate=40000 / vbv_bufsize=30000 / crf_max=0.0 / nal_hrd=none / ip_ratio=1.40 / aq=1:0.70 Language : English Default : Yes Forced : No

    Audio #1 ID : 2 Format : AC-3 Format/Info : Audio Coding 3 Mode extension : CM (complete main) Format settings, Endianness : Big Codec ID : A_AC3 Duration : 2h 35mn Bit rate mode : Constant Bit rate : 640 Kbps Channel(s) : 6 channels Channel positions : Front: L C R, Side: L R, LFE Sampling rate : 48.0 KHz Bit depth : 16 bits Compression mode : Lossy Stream size : 710 MiB (11%) Title : Дубляж (BD-5.1ch) + вставки одноголосого закадрового (Ash61) (2.1ch) (Montage by Ash61) Language : Russian Default : Yes Forced : No

    Audio #2 ID : 3 Format : AC-3 Format/Info : Audio Coding 3 Mode extension : CM (complete main) Format settings, Endianness : Big Codec ID : A_AC3 Duration : 2h 35mn Bit rate mode : Constant Bit rate : 640 Kbps Channel(s) : 6 channels Channel positions : Front: L C R, Side: L R, LFE Sampling rate : 48.0 KHz Bit depth : 16 bits Compression mode : Lossy Stream size : 710 MiB (11%) Title : Original (5.1ch) + Inserts (2ch) (Montage by Ash61) Language : English Default : No Forced : No

    Text #1 ID : 4 Format : UTF-8 Codec ID : S_TEXT/UTF8 Codec ID/Info : UTF-8 Plain Text Title : Форсированные Language : Russian Default : Yes Forced : No

    Text #2 ID : 5 Format : UTF-8 Codec ID : S_TEXT/UTF8 Codec ID/Info : UTF-8 Plain Text Title : Полные Language : Russian Default : No Forced : No

    Text #3 ID : 6 Format : UTF-8 Codec ID : S_TEXT/UTF8 Codec ID/Info : UTF-8 Plain Text Title : Full Language : English Default : No Forced : No

    Menu 00:00:00.000 : en:1. 00:03:05.230 : en:2. Прибытие Инженеров (альтернативная сцена) 00:03:33.006 : en:3. 00:05:22.742 : en:4. Конференция TED, 2023 (добавленная сцена) 00:12:15.720 : en:5. 00:14:39.170 : en:6. Послание Шоу Вейланду (добавленная сцена) 00:17:10.980 : en:7. "Рождение" Дэвида (добавленная сцена) 00:19:34.465 : en:8. Послание Прометея ч.1 (добавленная сцена) 00:20:12.160 : en:9. Послание Прометея ч.2 (добавленная сцена) 00:22:50.210 : en:10. Послание Прометея ч.3 (добавленная сцена) 00:23:21.939 : en:11. 00:27:16.856 : en:12. 00:30:03.540 : en:14. Рождество (альтернативная расширенная сцена) 00:31:04.079 : en:15. 00:36:25.122 : en:16. 00:38:53.039 : en:17. 00:44:03.330 : en:18. 00:48:18.049 : en:19. 00:50:31.040 : en:20. Наш первый инопланетянин (добавленная сцена) 00:51:15.104 : en:21. 00:54:57.478 : en:22. 00:57:49.609 : en:23. 01:02:00.765 : en:24. Кожа (добавленная сцена) 01:02:44.985 : en:25. 01:03:37.811 : en:26. Мы больше не одни (добавленная сцена) 01:05:03.268 : en:27. 01:08:01.852 : en:28. 01:09:36.977 : en:29. 01:13:10.310 : en:30. 01:15:46.145 : en:31. Странные компаньоны (альтернативная сцена) 01:18:50.643 : en:32. 01:20:48.229 : en:33. 01:23:36.606 : en:34. 01:24:51.167 : en:35. Похмелье Холлоуэя (расширение сцены) 01:25:10.832 : en:36. 01:28:36.624 : en:37. 01:30:52.248 : en:38. 01:35:11.719 : en:39. Задача Дэвида (добавленная сцена) 01:35:36.103 : en:40. 01:37:08.134 : en:41. 01:40:42.506 : en:42. Дженек успокаивает Викерс (добавленная сцена) 01:44:18.581 : en:43. 01:48:41.456 : en:44.Файфилд атакует (альтернативная сцена) 01:50:48.496 : en:45. 01:53:49.497 : en:46. 01:56:22.872 : en:47. Король правит (альтернативная расширенная сцена) 02:00:12.706 : en:48. 02:04:14.182 : en:49. Инженер говорит (альтернативная расширенная сцена) 02:06:38.475 : en:50. 02:10:40.380 : en:51. 02:15:59.964 : en:52. Финальная битва (альтернативная расширенная сцена) 02:21:03.672 : en:53. 02:22:25.989 : en:54. Рай (альтернативная расширенная сцена) 02:27:29.559 : en:55. 02:29:20.758 : en:56. Финальные титры

    Бонус фото

    Charlize Theron, Logan Marshall-Green, Noomi Rapace, Michael FassbenderNoomi Rapace, Charlize TheronNoomi Rapace, Charlize TheronGuy Pearce, Michael Fassbender, Charlize Theron, Noomi Rapace, Ridley Scott, Logan Marshall-GreenRidley Scott, Charlize Theron, Noomi Rapace, Michael FassbenderCharlize TheronCharlize TheronCharlize TheronCharlize TheronCharlize TheronRidley Scott

    main-rutor.org

    2-) / Prometheus (Extended Fan Cut with 2D-inserts) ( by Ash61) 1324

    General

    Unique ID : 213629127482952834579195036386065036611 (0xA0B7792E3455C3D28597D4F5721AB543)

    Complete name : E:Prometheus(ExtendedFanCut)(2012)3D-halfOU(BDRipAndMontageAsh61)(+Inserts2D)Prometheus(ExtendedFanCut)(2012)3D-halfOU(BDRipAndMontageAsh61)(+Inserts2D).mkv

    Format : Matroska

    Format version : Version 2

    File size : 10.7 GiB

    Duration : 2h 30mn

    Overall bit rate : 10.2 Mbps

    Movie name : / Prometheus (2012) (ExtendedFanCut) 3D

    Encoded date : UTC 2015-05-19 21:35:38

    Writing application : mkvmerge v5.8.0 ('No Sleep / Pillow') built on Sep 2 2012 15:37:04

    Writing library : libebml v1.2.3 + libmatroska v1.3.0

    Video

    ID : 1

    Format : AVC

    Format/Info : Advanced Video Codec

    Format profile : [email protected]

    Format settings, CABAC : Yes

    Format settings, ReFrames : 4 frames

    Codec ID : V_MPEG4/ISO/AVC

    Duration : 2h 30mn

    Bit rate : 8 714 Kbps

    Width : 1 920 pixels

    Height : 1 080 pixels

    Display aspect ratio : 16:9

    Frame rate mode : Constant

    Frame rate : 23.976 fps

    Color space : YUV

    Chroma subsampling : 4:2:0

    Bit depth : 8 bits

    Scan type : Progressive

    Bits/(Pixel*Frame) : 0.175

    Stream size : 9.13 GiB (85%)

    Title : BDRip by Ash61 ( 2 . Ash61)

    Writing library : x264 core 138 r2358 9e941d1

    Encoding settings : cabac=1 / ref=4 / deblock=1:-3:-3 / analyse=0x3:0x113 / me=umh / subme=10 / psy=1 / psy_rd=1.00:0.00 / mixed_ref=1 / me_range=32 / chroma_me=1 / trellis=2 / 8x8dct=1 / cqm=0 / deadzone=21,11 / fast_pskip=1 / chroma_qp_offset=-2 / threads=12 / lookahead_threads=2 / sliced_threads=0 / nr=0 / decimate=1 / interlaced=0 / bluray_compat=0 / constrained_intra=0 / bframes=9 / b_pyramid=2 / b_adapt=2 / b_bias=0 / direct=3 / weightb=1 / open_gop=0 / weightp=2 / keyint=250 / keyint_min=12 / scenecut=20 / intra_refresh=0 / rc_lookahead=60 / rc=crf / mbtree=1 / crf=15.0 / qcomp=0.70 / qpmin=0 / qpmax=51 / qpstep=4 / vbv_maxrate=40000 / vbv_bufsize=30000 / crf_max=0.0 / nal_hrd=none / frame-packing=4 / ip_ratio=1.40 / aq=1:0.70

    Language : English

    Default : Yes

    Forced : No

    Audio #1

    ID : 2

    Format : AC-3

    Format/Info : Audio Coding 3

    Mode extension : CM (complete main)

    Format settings, Endianness : Big

    Codec ID : A_AC3

    Duration : 2h 30mn

    Bit rate mode : Constant

    Bit rate : 640 Kbps

    Channel(s) : 6 channels

    Channel positions : Front: L C R, Side: L R, LFE

    Sampling rate : 48.0 KHz

    Bit depth : 16 bits

    Compression mode : Lossy

    Stream size : 687 MiB (6%)

    Title : (KEWE). Ash61

    Language : Russian

    Default : Yes

    Forced : No

    Audio #2

    ID : 3

    Format : AC-3

    Format/Info : Audio Coding 3

    Mode extension : CM (complete main)

    Format settings, Endianness : Big

    Codec ID : A_AC3

    Duration : 2h 30mn

    Bit rate mode : Constant

    Bit rate : 640 Kbps

    Channel(s) : 6 channels

    Channel positions : Front: L C R, Side: L R, LFE

    Sampling rate : 48.0 KHz

    Bit depth : 16 bits

    Compression mode : Lossy

    Stream size : 687 MiB (6%)

    Title : Original (BD 3D) with inserts (BD 2D Supplements). Montage Ash61

    Language : English

    Default : No

    Forced : No

    Text #1

    ID : 4

    Format : UTF-8

    Codec ID : S_TEXT/UTF8

    Codec ID/Info : UTF-8 Plain Text

    Title :

    Language : Russian

    Default : Yes

    Forced : No

    Text #2

    ID : 5

    Format : UTF-8

    Codec ID : S_TEXT/UTF8

    Codec ID/Info : UTF-8 Plain Text

    Title :

    Language : Russian

    Default : No

    Forced : No

    Text #3

    ID : 6

    Format : UTF-8

    Codec ID : S_TEXT/UTF8

    Codec ID/Info : UTF-8 Plain Text

    Title : Full

    Language : English

    Default : No

    Forced : No

    Menu

    00:00:00.000 : :1.

    00:03:05.230 : :2. ( )

    00:03:33.006 : :3.

    00:05:20.784 : :4. TED, 2023 ( )

    00:12:13.912 : :5.

    00:14:40.120 : :6. ( )

    00:17:11.110 : :7. "" ( )

    00:19:34.705 : :8. .1 ( )

    00:20:12.501 : :9. .2 ( )

    00:21:06.090 : :10. .3 ( )

    00:21:40.189 : :11.

    00:25:35.647 : :12.

    00:28:47.986 : :13. ( )

    00:29:08.622 : :14.

    00:34:29.663 : :15.

    00:36:57.580 : :16.

    00:42:07.872 : :17.

    00:46:22.580 : :18.

    00:48:35.591 : :19. ( )

    00:49:19.645 : :20.

    00:53:02.021 : :21.

    00:55:54.144 : :22.

    01:00:05.317 : :23. ( )

    01:00:49.556 : :24.

    01:01:42.360 : :25. ( )

    01:03:07.811 : :26.

    01:06:06.393 : :27.

    01:07:41.518 : :28.

    01:11:14.894 : :29.

    01:13:50.685 : :30.

    01:16:50.102 : :31.

    01:18:47.643 : :32.

    01:21:36.019 : :33.

    01:22:50.563 : :34. ( )

    01:23:10.249 : :35.

    01:23:39.623 : :36.

    01:26:36.040 : :37.

    01:28:51.665 : :38.

    01:32:48.790 : :39.

    01:33:11.134 : :40. ( )

    01:33:35.519 : :41.

    01:35:07.519 : :42.

    01:38:41.923 : :43. ( )

    01:42:17.997 : :44.

    01:46:40.872 : :45.

    01:48:47.913 : :46.

    01:51:48.913 : :47.

    01:54:22.288 : :48.

    01:57:01.705 : :49.

    01:59:23.538 : :50.

    02:01:02.515 : :51. ( )

    02:01:49.724 : :52.

    02:03:12.171 : :53.

    02:06:12.004 : :54.

    02:10:54.588 : :55.

    02:12:05.029 : :56. .1 ( )

    02:12:49.017 : :57.

    02:13:35.716 : :58. .2 ( )

    02:16:17.246 : :59.

    02:17:32.111 : :60.

    02:19:04.708 : :61. ( )

    02:19:57.095 : :62.

    02:24:21.220 : :63.

    stereotraker.ru

    rutor.org :: Прометей / Prometheus (2012) BDRip-AVC

    Информация о фильмеНазвание: ПрометейОригинальное название: PrometheusГод выхода: 2012Жанр: фантастика, детектив, приключенияРежиссер: Ридли СкоттВ ролях: Нуми Рапас, Майкл Фассбендер, Шарлиз Терон, Идрис Эльба, Гай Пирс, Логан Маршалл-Грин, Шон Харрис, Рейф Сполл, Иман Эллиотт, Бенедикт Вонг

    О фильме: В поисках сакрального знания группа ученых отправляется в самые темные и неизведанные чертоги вселенной. Именно там, в отдаленных мирах, находясь на пределе своих умственных и физических возможностей, им предстоит вступить в безжалостную схватку за будущее всего человечества…

    Страна: США, ВеликобританияПродолжительность: 02:03:46Перевод: Профессиональный (полное дублирование)

    ФайлКодек: x264Качество: BDRip-AVC (исх. BDRemux @ hdclub)Видео: 864x360 (2.4:1), 1429 kbps, 23.976 fpsАудио 1: Russian, AAC-LC, 2ch, 48 kHz, ~139 kbps (Дубляж)Аудио 2: English, AAC-LC, 2ch, 48 kHz, ~140 kbps (Оригинал)Субтитры: русские, английские

    MediaInfo

    Format : Matroska Format version : Version 2 File size : 1.46 GiB Duration : 2h 3mn Overall bit rate : 1 686 Kbps Movie name : Prometheus (2012) BDRip Encoded date : UTC 2012-10-01 14:31:41 Writing application : mkvmerge v5.8.0 ('No Sleep / Pillow') built on Sep 2 2012 15:37:04 Writing library : libebml v1.2.3 + libmatroska v1.3.0 Attachment : Yes

    Video ID : 1 Format : AVC Format/Info : Advanced Video Codec Format profile : [email protected] Format settings, CABAC : Yes Format settings, ReFrames : 15 frames Codec ID : V_MPEG4/ISO/AVC Duration : 2h 3mn Width : 864 pixels Height : 360 pixels Display aspect ratio : 2.40:1 Frame rate : 23.976 fps Color space : YUV Chroma subsampling : 4:2:0 Bit depth : 8 bits Scan type : Progressive Writing library : x264 core 128 r2216kMod 198a7ea Encoding settings : cabac=1 / ref=15 / deblock=1:-2:-1 / analyse=0x3:0x133 / me=umh / subme=11 / psy=1 / fade_compensate=0.00 / psy_rd=1.00:0.03 / mixed_ref=1 / me_range=48 / chroma_me=1 / trellis=2 / 8x8dct=1 / cqm=0 / deadzone=21,11 / fast_pskip=0 / chroma_qp_offset=-3 / threads=6 / lookahead_threads=1 / sliced_threads=0 / nr=0 / decimate=1 / interlaced=0 / bluray_compat=0 / constrained_intra=0 / bframes=16 / b_pyramid=2 / b_adapt=2 / b_bias=0 / direct=1 / weightb=1 / open_gop=0 / weightp=2 / keyint=250 / keyint_min=23 / scenecut=40 / intra_refresh=0 / rc_lookahead=40 / rc=crf / mbtree=0 / crf=18.9000 / qcomp=0.70 / qpmin=0 / qpmax=69 / qpstep=4 / vbv_maxrate=50000 / vbv_bufsize=62500 / crf_max=0.0 / nal_hrd=none / ip_ratio=1.40 / pb_ratio=1.20 / aq=3:1.00 Language : English Default : Yes Forced : No Matrix coefficients : BT.709-5, BT.1361, IEC 61966-2-4 709, SMPTE RP177

    Audio #1 ID : 2 Format : AAC Format/Info : Advanced Audio Codec Format profile : LC Codec ID : A_AAC Duration : 2h 3mn Channel(s) : 2 channels Channel positions : Front: L R Sampling rate : 48.0 KHz Compression mode : Lossy Delay relative to video : 9ms Title : Dub Language : Russian Default : Yes Forced : No

    Audio #2 ID : 3 Format : AAC Format/Info : Advanced Audio Codec Format profile : LC Codec ID : A_AAC Duration : 2h 3mn Channel(s) : 2 channels Channel positions : Front: L R Sampling rate : 48.0 KHz Compression mode : Lossy Delay relative to video : 9ms Title : Original Language : English Default : No Forced : No

    Text #1 ID : 4 Format : UTF-8 Codec ID : S_TEXT/UTF8 Codec ID/Info : UTF-8 Plain Text Language : Russian Default : No Forced : No

    Text #2 ID : 5 Format : UTF-8 Codec ID : S_TEXT/UTF8 Codec ID/Info : UTF-8 Plain Text Language : English Default : No Forced : No

    Text #3 ID : 6 Format : UTF-8 Codec ID : S_TEXT/UTF8 Codec ID/Info : UTF-8 Plain Text Title : Commentary (director/producer Ridley Scott) Language : Russian Default : No Forced : No

    Text #4 ID : 7 Format : UTF-8 Codec ID : S_TEXT/UTF8 Codec ID/Info : UTF-8 Plain Text Title : Commentary (writer Jon Spaihts, writer/executive producer Damon Lindelof) Language : Russian Default : No Forced : No

    Menu 00:00:00.000 : en:Chapter 1 00:05:13.146 : en:Chapter 2 00:07:44.881 : en:Chapter 3 00:11:31.524 : en:Chapter 4 00:15:09.784 : en:Chapter 5 00:20:04.912 : en:Chapter 6 00:22:32.810 : en:Chapter 7 00:27:43.120 : en:Chapter 8 00:31:57.833 : en:Chapter 9 00:34:10.840 : en:Chapter 10 00:37:53.229 : en:Chapter 11 00:40:45.360 : en:Chapter 12 00:45:49.330 : en:Chapter 13 00:48:47.925 : en:Chapter 14 00:50:23.062 : en:Chapter 15 00:53:56.400 : en:Chapter 16 00:56:32.222 : en:Chapter 17 00:59:31.610 : en:Chapter 18 01:01:29.185 : en:Chapter 19 01:04:17.562 : en:Chapter 20 01:06:01.457 : en:Chapter 21 01:08:57.884 : en:Chapter 22 01:11:13.519 : en:Chapter 23 01:15:10.631 : en:Chapter 24 01:17:06.038 : en:Chapter 25 01:25:02.306 : en:Chapter 26 01:27:09.349 : en:Chapter 27 01:30:10.363 : en:Chapter 28 01:32:43.725 : en:Chapter 29 01:35:23.134 : en:Chapter 30 01:37:46.861 : en:Chapter 31 01:40:46.374 : en:Chapter 32 01:43:46.220 : en:Chapter 33 01:48:28.794 : en:Chapter 34 01:52:08.096 : en:Chapter 35 01:58:06.288 : en:Chapter 36

    main-rutor.org

    Прометей / Prometheus (2012/BDRip) 1080p от Ash61, 3D-Video, halfOU, Расширенная Фан-версия

    Информация о фильме Название: Прометей Оригинальное название: Prometheus Год выхода: 2012 Жанр: фантастика, детектив, приключения Режиссер: Ридли Скотт В ролях: Нуми Рапас, Майкл Фассбендер, Шарлиз Терон, Идрис Эльба, Гай Пирс, Логан Маршалл-Грин, Шон Харрис, Рейф Сполл, Иман Эллиотт, Бенедикт Вонг, Кейт Дики, Патрик Уилсон, Люси Хатчинсон

    Описание: Исследователи неожиданно для себя обнаружили ключ, ведущий к разгадке происхождения жизни на нашей планете. Все это привело их к путешествию в самые отдаленные места Вселенной. Там, чтобы спасти будущий человеческий род, герои кинофильма «Прометей» должны будут вступить в жесточайший бой.

    [kinopoisk]467099[/kinopoisk]

    Страна: США, Великобритания (20th Century Fox, Dune Entertainment, Scott Free Productions, Brandywine Productions Ltd.) Продолжительность: 02:30:03 Перевод: Профессиональный дублированный + Любительский одноголосый закадровый (KEWE) (в добавленных сценах)

    Файл Качество: BDRip Контейнер: MKV Формат 3D: Half OverUnder / Вертикальная анаморфная стереопара Порядок ракурсов: левый ракурс первый Видео: AVC / 23,976 fps / 1920х1080p / ~8.7 Mbps Аудио: #1 - Русский / AC3 / 48 KHz / 5.1 ch / 640 Kbps (Дубляж [BD 3D] + VO [KEWE]) #2 - Английский / AC3 / 48 KHz / 5.1 ch / 640 Kbps (Original - BD 3D) Субтитры (SRT): Вшитые (softsub): #1 - Русские Форсированные (включены по умолчанию) #2 - Русские Полные #3 - English Full Внешние (UTF-8): #1 - Русские Форсированные (включены по умолчанию)

    Логан Маршалл-Грин охарактеризовал свою роль Чарли Холлоуэя как специалиста по всемирным экстремальным играм с кабельного спортивного канала «ESPN», который смотрит, прежде чем прыгает. Г. Р. Гигер создавший внешний вид ксеноморфа для «Чужого» (1979) был приглашен консультантом по дизайну чужих для этого фильма. По слухам, Бен Фостер мог получить одну из ролей в фильме. Продюсеры Уолтер Хилл и Дэвид Гайлер присоединились к Ридли Скотту впервые за последние 30 лет, с момента их первого сотрудничества, когда они работали над фильмом «Чужой» (1979). Джемма Артертон, Кэри Маллиган, Оливия Уайлд, Энн Хэтэуэй, Эбби Корниш и Натали Портман рассматривались на роль доктора Элизабет Шоу. Роль Чарли Холлоуэя могла достаться Джеймсу Франко. Изначально, фильм должен был стать приквелом фильма «Чужой» (1979), режиссером которого также является Ридли Скотт. Но им же было принято решение сделать «Прометей» оригинальным фильмом с Нуми Рапас (она ещё тогда была заявлена на роль), которая в итоге стала исполнительницей одной из пяти главных ролей. Спустя время было утверждено, что, несмотря на то, что действие фильма будет происходить в той же вселенной, что и «Чужой» (1979) и во многом ссылаться на него, фактически это будет оригинальный фильм, не являющийся прямым приквелом. Мишель Йео рассматривалась на роль Мередит Викерс. Чтобы подчеркнуть загадочный характер Мередит Викерс, Ридли Скотт объяснял Шарлиз Терон как замирать, затаившись в углу, и скрытно передвигаться. Ридли Скотт назвал фильм «Прометей», посчитав, что именно такое название полностью отражает его суть: «Это история создания; история о богах и человеке, который восстал против них». В древнегреческой мифологии слуга богов титан Прометей похитил огонь и передал его людям, что навсегда изменило жизнь человечества к лучшему и худшему одновременно. В процессе создания фильма Ридли Скотт старался прибегать к помощи компьютерной графики как можно реже, используя ее главным образом в пространственных сценах. Скотт вспомнил совет специалиста по визуальным эффектам Дугласа Трамбалла, который тот дал ему во время съемок фильма «Бегущий по лезвию» (1982): «Если ты можешь сделать это в живую, делай это в живую», а также заявил, что реальные визуальные эффекты гораздо более рентабельны, чем цифровые. Для раскрутки фильма была использована инновационная вирусная рекламная кампания, состоящая из нескольких видеороликов изображающих мир в ближайшем будущем из фильма. Первым был ролик с речью Питера Уэйланда (Гай Пирс) на конференции «TED», от 2028 года. Затем вышли две различные версии рекламы андроида «David 8» (Майкл Фассбендер). Эти видеоролики были придуманы Ридли Скоттом и Дэймоном Линделофом, а поставлены Люком Скоттом (сыном Ридли). Ридли Скотт предложил актерам «пожить» в декорациях на съёмочной площадке, но этого не произошло из-за нарушений по технике безопасности и возможной угрозы здоровью актеров. Шведская актриса Нуми Рапас много тренировалась для своей роли, чтобы говорить с британским акцентом. Шарлиз Терон пришлось нелегко во время съёмок экшн-сцен из-за привычки к курению, особенно во время сцен, где ей нужно было бегать по песку в обуви весом четырнадцать килограмм. Первоначально фильм должен был называться «Рай», так планировалось в декабре 2010 года. Оператор Дариуш Вольски убедил Ридли Скотта, что фильм можно снять в 3D с той же легкостью и эффективностью, как и обычный фильм. Компания «3ality Technica» предоставила оборудование для облегчения 3D-съемки и обучала персонал работе с ним. Так как съёмки 3D-фильмов требуют более высокого освещения на съёмочной площадке, темная мрачная атмосфера, присущая фильмам о чужих, была добавлена на завершающем этапе. В фильме содержится около 1300 кадров со спецэффектами. Ридли Скотт заявил, что он снимал «самый агрессивный фильм, что мог» не думая о рейтингах MPAA, имея поддержку от главного исполнительного директора «20th Century Fox» Тома Ротмана, который обратился к поклонникам «Чужого»(1979), заявив, что он «очень хорошо понимает их озабоченность», и что «они могут быть уверены, что фильм не будет скомпрометирован. Так что, если это означает, что фильм получит рейтинг R, то это будет R. Если это будет PG-13, то PG-13, но фильм не пострадает от этого в любом случае». Скотт снял фильм, помня про оба рейтинга(R и PG-13), позволяя в случае необходимости урезать более «взрослые» моменты без ущерба для общего представления. В конце концов, фильм был отнесен к категории R за «научно-фантастическую» жестокость, наряду с откровенными кадрами и грубыми выражениями» и был выпущен без каких-либо сокращений. 7 мая 2012 года, Гильермо дель Торо заявил, что его длинная запланированная подготовка для фильма «Хребты безумия» была отложена на неопределенный срок, как только он почувствовал, что подход в фильме Ридли Скотта был очень схож с тем, как он работал над повестью Лавкрафта, вплоть до того, что «были бы почти идентичные сцены, одинаковые ветви сюжета и точно такие же откровения в конце». При подготовке к роли Дэвида Майкл Фассбендер посмотрел такие фильмы как: «Бегущий по лезвию» (1982), «Человек, который упал на Землю» (1976), «Слуга» (1963) и «Лоуренс Аравийский» (1962). Фассбендер также изучал олимпийского чемпиона по прыжкам в воду Грега Луганиса, черпая вдохновение в его физических качествах. По словам Ридли Скотта, вдохновением к сюжету фильма послужили работы Эриха фон Дэникена о пребывании в далеком прошлом на Земле инопланетных космонавтов: «И NASA, и Ватикан согласны, что математически это почти невозможно, чтобы мы были там, где находимся сегодня, без наличия небольшой помощи на этом пути. Вот что нас интересует: мы говорим о богах и инженерах, инженерах пространства. Были ли чужие задуманы как форма биологического оружия, или как нечто, что придет и очистит планету?». Сцена, которая открывает фильм, была отснята в Исландии. Вся съемка заняла две недели. Во время полёта Дэвид смотрит картину Дэвида Лина «Лоуренс Аравийский» (1962) и пытается повторить прическу главного героя в исполнении Питера О`Тула. Ридли Скотт обратился в Лондонский Университет по изучению стран Востока и Африки, чтобы найти специалистов, которые могли бы помочь в создании нового языка для фильма. В итоге Анил Бильту (Anil Biltoo), из языкового центра этого университета, взялся за работу по созданию языка, а так же письменности инопланетян, которую можно видеть на протяжении всего фильма. Самого Анила можно увидеть в сцене с Майклом Фассбендером. Когда во время песчаной бури спасают доктора Элизабет Шоу, доктор Холлоуэй называет ее «Нуми». Первые кадры наскальных рисунков в начале фильма, которые показывают лошадь в движении, взяты из пещеры Шове на юге Франции. Об этих рисунках Вернер Херцог снял документальный фильм «Пещера забытых снов» (2010) (кстати снят он тоже в 3D). Это не единственная роль Йена Уайта (он играет последнего инженера) связанная с серией фильмов про «Чужих». Уайт так же играл Хищников в серии фильмов «Чужой против Хищника». На конференции, когда Шоу обсуждает свои находки, на заднем плане можно увидеть надпись «Eilean a» Cheo». В переводе с шотландского (кельтского) это означает «Остров Туманов», этот остров так же называют Скай, и его название правильно писать «An t-Eilean Sgitheanach». Три треугольника — логотип корпорации Вейланд (который визуально похож на логотип The Weinstein Company) на самом деле происходит от рисунка на стене на фоне в ранней картине Рона Кобба изображающей «Космического пилота» для оригинального фильма про «Чужих». Этот логотип можно видеть в отпечатках пальцев Дэвида. Как упоминалось в фильме, Прометей — персонаж из греческой мифологии. Он был титаном (бессмертным), который подарил людям огонь. Прометей был наказан за это, он был привязан к скале в Колхиде, где каждый день прилетал орел (символ Зевса), чтобы клевать его печень. И только она успевала отрасти, как на следующий день орел прилетал и съедал ее вновь. В некоторых сказаниях, Прометея в конце концов освобождает Геракл (Геркулес). Среди древних греков Прометей почитался как божество. Прометей может происходить от греческого «forethinker» (предвидящий) или от прото-индо-европейского «thief» (вор). Прометей так же обманул богов, что имеет значимость для фильма. Когда Викерс спрашивает Дэвида, как долго они были в гипер-сне, он отвечает: «2 года, 4 месяца, 18 дней, 36 часов, 15 минут». Непонятно почему день должен быть длиннее, чем стандартные 24 часа, и почему он не сказал «19 дней, 12 часов». Расстояние до экзо-планеты, на которую они прилетают, как указано, порядка 10^14км. И так как им потребовалось чуть больше двух лет, чтобы попасть туда, то лететь они должны были на скорости в 10 раз превышающей скорость света.

    Дэвид спасает Элизабет и Чарли от песчаной бури «разрезающей скафандры», и в следующей же сцене в шлюзовой камере мы видим, что костюмы без единой царапины. После того как на шлем Холлоуэйя попадает кровь «Чужого», она расплавляет пластик и капает ему на лицо оставляя огромный отпечаток. Позже, когда остальные члены команды выходят из корабля, чтобы спасти его, у него лишь небольшая пробоина в шлеме. Вскоре после того, как команда впервые взошла на корабль, говорится, что температура -23°C, тем не менее никто из ученых (все из них сняли шлемы), по всей видимости, не страдает от холода. Когда Дэвид снимает крест Шоу, цепь достаточно короткая, и Дэвиду приходится расстегивать зажим, чтобы ее снять. Однако, позже в фильме, когда она сама снимает его, длины цепи хватает, чтобы просто снять его через голову. Скафандры экипажа Прометея сделаны очень странным образом: они могут выдержать свирепую песчаную бурю и на них не остается даже царапины, но они легко рвутся, когда несчастный астронавт ломает руку или когда от удара разбивается шлем. Когда Шоу выходит из спасательной капсулы на ней надет шлем, но нет перчаток. В следующем кадре она в перчатках. Момент, когда доктор Шоу хватает топор, происходит мгновенно, от кадра снятого из-за нее, к кадру перед ней. Много раз во время начального исследования планеты показывают как шлемы персонажей очищают паром, и затем в следующем кадре они абсолютно прозрачные. Когда доктор Шоу заходит на корабль, который совершил аварийную посадку на планету, можно видеть книги и вещи раскиданные повсюду, но бутылка водки стоит на барной стойке как ни в чем не бывало рядом со шлемом и неким контейнером. Когда Викерс стоит перед Вейландом и говорит о том, почему она отправилась в путешествие, ее руки меняют положение несколько раз. В одном кадре они перед ней, а в следующем уже за ней.

    n-torrents.ru


    Смотрите также