Скачать бэтмен против супермена режиссерская версия торрент


Скачать торрент Бэтмен против Супермена: На заре справедливости / Batman v Superman: Dawn of Justice (2016) HDRip-AVC | Расширенная версия | D

krutor.org

«Who will win?» "Кто победит?"Информация о фильмеНазвание: Бэтмен против Супермена: На заре справедливостиОригинальное название: Batman v Superman: Dawn of JusticeГод выхода: 2016Жанр: Фантастика, фэнтези, боевик, приключенияРежиссер: Зак СнайдерВ ролях: Генри Кавилл, Бен Аффлек, Галь Гадот, Эми Адамс, Джесси Айзенберг, Джереми Айронс, Дайан Лэйн, Лоренс Фишбёрн, Холли Хантер, Скут МакНэйри, Каллэн Мулвей, Тао Окамото, Брэндон Спинк, Лорен Коэн, Алан Д. Первин, Марк Эдвард Тейлор, Хью Магвайр, Майкл Шеннон, Ханна Дворкин, Тиффани Л. Эддисон

О фильме: Битва между Кал-Элом и генералом Зодом наносит множество разрушений Метрополису и соседнему Готэм Сити. Башня Уэйн-тауэр - уничтожена вместе с сотнями невинных людей. Это становится началом конфликта между Последним Сыном Криптона и Темным Рыцарем Готэма, богом и человеком. Тем временем, сумасшедший гений Лекс Лютор готовит оружие Судного дня, способное уничтожить не только богоподобного Супермена, но и все человечество. Страна: СШАПродолжительность: 03:02:31Перевод: Дублированный | Лицензия | Полный перевод [со вставками FocusStudio]Субтитры: Русские (форсированные, Полные), Английские (полные) Отключаемые (UTF-8)Дополнительно: ULTIMATE EXTENDED CUT - расширенная версия, длиннее театральной на 31 минуту! На расширенных местах, многоголосое закадровое озвучивание.

ФайлКодек: x264Качество: HDRip-AVC (Исх | BDRip 1080p)Видео: 720x300 (2.40:1), 23.976 fps, x264 ~515 kbps avg, 0.099 bit/pixelАудио: 48.0 KHz, AAC-HE, 2 ch, 56 Kbps avgРелиз от: Автор рипа: Sergei91 (Student05)

MediaInfo ▼

Общее Уникальный идентификатор : 209767837113464773007652319963711637442 (0x9DCFD0DDF1FF860A8E62BE6F49C987C2) Полное имя : D:Бэтмен.против.Супермена.На заре.справедливости.[Расширенная.версия].(2016).HDRip-AVC.mkv Формат : Matroska Версия формата : Version 4 / Version 2 Размер файла : 747 Мбайт Продолжительность : 3 ч. 2 м. Общий поток : 572 Кбит/сек Название фильма : -=rip by Sergei91=- Дата кодирования : UTC 2016-07-15 10:23:48 Программа кодирования : mkvmerge v9.1.0 ('Little Earthquakes') 32bit Библиотека кодирования : libebml v1.3.3 + libmatroska v1.4.4 Обложка : Yes Attachments : cover.jpg

Видео Идентификатор : 1 Формат : AVC Формат/Информация : Advanced Video Codec Профиль формата : [email protected] Параметр CABAC формата : Да Параметр ReFrames формата : 13 кадров Идентификатор кодека : V_MPEG4/ISO/AVC Продолжительность : 3 ч. 2 м. Битрейт : 515 Кбит/сек Ширина : 720 пикселей Высота : 300 пикселей Соотношение сторон : 2,40:1 Режим частоты кадров : Постоянный Частота кадров : 23,976 (24000/1001) кадра/сек Частота кадров в оригинале : 23,976 (23976/1000) кадра/сек Цветовое пространство : YUV Субдискретизация насыщенности : 4:2:0 Битовая глубина : 8 бит Тип развёртки : Прогрессивная Бит/(Пиксели*Кадры) : 0.099 Размер потока : 671 Мбайт (90%) Заголовок : Batman v Superman:Dawn of Justice Библиотека кодирования : x264 core 146 r2538 121396c Настройки программы : cabac=1 / ref=13 / deblock=1:-3:-3 / analyse=0x3:0x113 / me=umh / subme=10 / psy=1 / psy_rd=1.00:0.15 / mixed_ref=1 / me_range=32 / chroma_me=1 / trellis=2 / 8x8dct=1 / cqm=0 / deadzone=21,11 / fast_pskip=1 / chroma_qp_offset=-3 / threads=2 / lookahead_threads=1 / sliced_threads=0 / nr=0 / decimate=0 / interlaced=0 / bluray_compat=0 / constrained_intra=0 / bframes=12 / b_pyramid=2 / b_adapt=2 / b_bias=0 / direct=3 / weightb=1 / open_gop=0 / weightp=2 / keyint=240 / keyint_min=23 / scenecut=40 / intra_refresh=0 / rc_lookahead=40 / rc=2pass / mbtree=0 / bitrate=515 / ratetol=1.0 / qcomp=0.60 / qpmin=0 / qpmax=69 / qpstep=4 / cplxblur=20.0 / qblur=0.5 / vbv_maxrate=14000 / vbv_bufsize=14000 / nal_hrd=none / filler=0 / ip_ratio=1.40 / pb_ratio=1.30 / aq=1:1.00 Язык : English Default : Да Forced : Нет

Аудио Идентификатор : 2 Формат : AAC Формат/Информация : Advanced Audio Codec Профиль формата : HE-AAC / LC Идентификатор кодека : A_AAC Продолжительность : 3 ч. 2 м. Битрейт : 56,0 Кбит/сек Каналы : 2 канала Расположение каналов : Front: L R Частота : 48,0 КГц / 24,0 КГц Частота кадров : 23,438 кадра/сек (1024 spf) Метод сжатия : С потерями Задержка видео : 31 мс. Размер потока : 73,1 Мбайт (10%) Заголовок : Дубляж (56,0 Кбит/сек) Язык : Russian Default : Да Forced : Нет

Текст #1 Идентификатор : 3 Формат : UTF-8 Идентификатор кодека : S_TEXT/UTF8 Идентификатор кодека/Информация : UTF-8 Plain Text Продолжительность : 2 ч. 53 м. Битрейт : 19 бит/сек Count of elements : 431 Размер потока : 24,5 Кбайт (0%) Заголовок : Форсированные Язык : Russian Default : Да Forced : Нет

Текст #2 Идентификатор : 4 Формат : UTF-8 Идентификатор кодека : S_TEXT/UTF8 Идентификатор кодека/Информация : UTF-8 Plain Text Продолжительность : 2 ч. 53 м. Битрейт : 66 бит/сек Count of elements : 1588 Размер потока : 84,7 Кбайт (0%) Заголовок : Полные Язык : Russian Default : Нет Forced : Нет

Текст #3 Идентификатор : 5 Формат : UTF-8 Идентификатор кодека : S_TEXT/UTF8 Идентификатор кодека/Информация : UTF-8 Plain Text Продолжительность : 2 ч. 53 м. Битрейт : 39 бит/сек Count of elements : 1538 Размер потока : 50,4 Кбайт (0%) Заголовок : full Язык : English Default : Нет Forced : Нет

Меню 00:00:00.000 : en:Chapter 01 00:03:33.338 : en:Chapter 02 00:08:00.688 : en:Chapter 03 00:10:28.628 : en:Chapter 04 00:13:58.045 : en:Chapter 05 00:17:02.021 : en:Chapter 06 00:20:16.089 : en:Chapter 07 00:22:11.330 : en:Chapter 08 00:26:37.887 : en:Chapter 09 00:30:32.038 : en:Chapter 10 00:34:29.776 : en:Chapter 11 00:36:00.992 : en:Chapter 12 00:38:18.087 : en:Chapter 13 00:40:37.101 : en:Chapter 14 00:45:53.792 : en:Chapter 15 00:48:53.847 : en:Chapter 16 00:51:58.156 : en:Chapter 17 00:54:43.113 : en:Chapter 18 00:57:51.426 : en:Chapter 19 01:00:48.186 : en:Chapter 20 01:03:26.594 : en:Chapter 21 01:07:09.567 : en:Chapter 22 01:09:43.596 : en:Chapter 23 01:13:11.470 : en:Chapter 24 01:15:31.860 : en:Chapter 25 01:17:27.726 : en:Chapter 26 01:19:30.098 : en:Chapter 27 01:24:50.710 : en:Chapter 28 01:26:58.254 : en:Chapter 29 01:31:04.250 : en:Chapter 30 01:34:03.679 : en:Chapter 31 01:37:33.180 : en:Chapter 32 01:41:54.817 : en:Chapter 33 01:44:52.995 : en:Chapter 34 01:47:19.808 : en:Chapter 35 01:51:29.766 : en:Chapter 36 01:56:42.745 : en:Chapter 37 02:00:12.413 : en:Chapter 38 02:02:34.972 : en:Chapter 39 02:10:31.907 : en:Chapter 40 02:11:35.360 : en:Chapter 41 02:13:35.360 : en:Chapter 42 02:15:35.360 : en:Chapter 43 02:18:35.360 : en:Chapter 44 02:20:35.360 : en:Chapter 45 02:22:35.360 : en:Chapter 46 02:25:35.360 : en:Chapter 47 02:27:35.360 : en:Chapter 48 02:29:35.360 : en:Chapter 49 02:32:35.360 : en:Chapter 50 02:35:35.360 : en:Chapter 51 02:37:35.360 : en:Chapter 52 02:40:35.360 : en:Chapter 53 02:42:35.360 : en:Chapter 54 02:44:35.360 : en:Chapter 55 02:46:35.360 : en:Chapter 56 02:48:35.360 : en:Chapter 57 02:53:35.360 : en:Chapter 58 02:55:35.360 : en:Chapter 59 02:57:35.360 : en:Chapter 60

Log x264 ▼

avs [info]: 720x300p 1:1 @ 2997/125 fps (cfr) x264 [info]: using SAR=1/1 x264 [info]: using cpu capabilities: MMX2 SSE2 SSE3 Cache64 x264 [info]: profile High, level 4.1

x264 [info]: frame I:1927 Avg QP:19.46 size: 21189 x264 [info]: frame P:62107 Avg QP:24.42 size: 5541 x264 [info]: frame B:198591 Avg QP:26.18 size: 1606 x264 [info]: consecutive B-frames: 3.3% 5.3% 8.6% 24.4% 16.3% 24.1% 5.8% 6.0% 2.3% 0.9% 1.0% 1.4% 0.5% x264 [info]: mb I I16..4: 11.9% 65.9% 22.2% x264 [info]: mb P I16..4: 2.7% 10.3% 1.5% P16..4: 42.2% 18.4% 9.9% 0.0% 0.0% skip:15.1% x264 [info]: mb B I16..4: 0.2% 0.6% 0.1% B16..8: 41.3% 7.0% 1.6% direct: 2.8% skip:46.5% L0:43.0% L1:50.1% BI: 6.9% x264 [info]: 8x8 transform intra:70.3% inter:67.7% x264 [info]: direct mvs spatial:94.8% temporal:5.2% x264 [info]: coded y,uvDC,uvAC intra: 63.6% 53.2% 20.7% inter: 12.5% 7.3% 1.4% x264 [info]: i16 v,h,dc,p: 22% 20% 11% 47% x264 [info]: i8 v,h,dc,ddl,ddr,vr,hd,vl,hu: 8% 7% 10% 9% 14% 13% 14% 10% 13% x264 [info]: i4 v,h,dc,ddl,ddr,vr,hd,vl,hu: 11% 8% 6% 9% 14% 13% 14% 11% 14% x264 [info]: i8c dc,h,v,p: 40% 28% 17% 15% x264 [info]: Weighted P-Frames: Y:7.7% UV:4.6% x264 [info]: ref P L0: 48.5% 11.9% 15.5% 5.7% 4.5% 3.4% 2.7% 1.5% 1.5% 1.2% 1.2% 1.0% 1.0% 0.3% 0.0% x264 [info]: ref B L0: 76.0% 10.1% 4.9% 2.4% 1.7% 1.4% 1.1% 0.7% 0.6% 0.6% 0.3% 0.2% x264 [info]: ref B L1: 93.0% 7.0% x264 [info]: kb/s:514.06

x264 [total]: encoded 262625 frames, 4.30 fps, 514.06 kb/s

Скачать торрент Бэтмен против Супермена: На заре справедливости / Batman v Superman: Dawn of Justice (2016) BDRip 720p от Scarabey | Расширенная версия

Расширенная версия

Год выпуска: 2016Страна: СШАЖанр: фантастика, боевик, приключенияПродолжительность: 03:02:31Перевод: Профессиональный (полное дублирование) [Лицензия] + Проф. многоголоска [FocusStudio, на расширенные моменты]Субтитры: русские (форс. + полные) + оригинал (полные + SDH)

Режиссер: Зак Снайдер / Zack Snyder

В ролях: Генри Кавилл, Бен Аффлек, Галь Гадот, Эми Адамс, Джесси Айзенберг,Джереми Айронс, Дайан Лэйн, Лоренс Фишбёрн, Холли Хантер, Скут МакНэри

Описание: Опасаясь, что действия богоподобного супергероя так и останутся бесконтрольными, грозный и могущественный страж Готэм Сити бросает вызов самому почитаемому в наши дни спасителю Метрополиса, в то время как весь остальной мир решает, какой герой ему по-настоящему нужен. И пока Бэтмен и Супермен пребывают в состоянии войны друг с другом, возникает новая угроза, которая ставит человечество под самую большую опасность, с которой оно когда-либо сталкивалось.

Качество видео: BDRip 720pФормат видео: MKV

Видео: 1280Х534, 23.976 fps, AVC ~5553 kbps avgАудио: 48 kHz, AC3 Dolby Digital, 3/2 (L,C,R,l,r) + LFE ch, ~448 kbps - дубляжАудио: 48 kHz, AC3 Dolby Digital, 3/2 (L,C,R,l,r) + LFE ch, ~640 kbps - оригинал

Релиз от:

АНОНСЫ МОИХ РАЗДАЧ!

МедиаИнфо

Бэтмен против Супермена расширеннаяBatman_vs_Superman_Dawn_of_Justice_2016._Ext_720p_BDRip_[scarabey.org].mkv Формат : Matroska Версия формата : Version 4 / Version 2 Размер файла : 8,64 Гбайт Продолжительность : 3 ч. 2 м. Общий поток : 6775 Кбит/сек Дата кодирования : UTC 2016-08-27 19:17:42 Программа кодирования : mkvmerge v6.1.0 ('Old Devil') built on Mar 4 2013 09:10:42 Библиотека кодирования : libebml v1.3.0 + libmatroska v1.4.0

Видео Идентификатор : 1 Формат : AVC Формат/Информация : Advanced Video Codec Профиль формата : [email protected] Параметр CABAC формата : Да Параметр ReFrames формата : 8 кадров Идентификатор кодека : V_MPEG4/ISO/AVC Продолжительность : 3 ч. 2 м. Битрейт : 5552 Кбит/сек Ширина : 1280 пикселей Высота : 534 пикселя Соотношение сторон : 2,40:1 Режим частоты кадров : Постоянный Частота кадров : 23,976 (24000/1001) кадра/сек Цветовое пространство : YUV Субдискретизация насыщенности : 4:2:0 Битовая глубина : 8 бит Тип развёртки : Прогрессивная Бит/(Пиксели*Кадры) : 0.339 Размер потока : 7,08 Гбайт (82%) Библиотека кодирования : x264 core 148 r2638 7599210 Настройки программы : cabac=1 / ref=8 / deblock=1:-3:-3 / analyse=0x3:0x133 / me=tesa / subme=11 / psy=1 / psy_rd=1.05:0.00 / mixed_ref=1 / me_range=16 / chroma_me=1 / trellis=2 / 8x8dct=1 / cqm=0 / deadzone=21,11 / fast_pskip=1 / chroma_qp_offset=-2 / threads=12 / lookahead_threads=3 / sliced_threads=0 / nr=0 / decimate=1 / interlaced=0 / bluray_compat=0 / constrained_intra=0 / bframes=11 / b_pyramid=2 / b_adapt=2 / b_bias=0 / direct=3 / weightb=1 / open_gop=0 / weightp=2 / keyint=250 / keyint_min=23 / scenecut=40 / intra_refresh=0 / rc=crf / mbtree=0 / crf=18.0 / qcomp=0.70 / qpmin=0 / qpmax=69 / qpstep=4 / ip_ratio=1.40 / pb_ratio=1.30 / aq=1:0.70 Язык : English Default : Да Forced : Нет Цветовой диапазон : Limited Коэффициенты матрицы : BT.709

Аудио #1 Идентификатор : 2 Формат : AC-3 Формат/Информация : Audio Coding 3 Расширение режима : CM (complete main) Параметр Endianness формата : Big Идентификатор кодека : A_AC3 Продолжительность : 3 ч. 2 м. Вид битрейта : Постоянный Битрейт : 448 Кбит/сек Каналы : 6 каналов Расположение каналов : Front: L C R, Side: L R, LFE Частота : 48,0 КГц Частота кадров : 31,250 кадров/сек (1536 spf) Метод сжатия : С потерями Размер потока : 585 Мбайт (7%) Заголовок : Дубляж + FocusStudio Язык : Russian Default : Да Forced : Нет

Аудио #2 Идентификатор : 3 Формат : AC-3 Формат/Информация : Audio Coding 3 Расширение режима : CM (complete main) Параметр Endianness формата : Big Идентификатор кодека : A_AC3 Продолжительность : 3 ч. 2 м. Вид битрейта : Постоянный Битрейт : 640 Кбит/сек Каналы : 6 каналов Расположение каналов : Front: L C R, Side: L R, LFE Частота : 48,0 КГц Частота кадров : 31,250 кадров/сек (1536 spf) Метод сжатия : С потерями Размер потока : 836 Мбайт (9%) Заголовок : Оригинал Язык : English Default : Нет Forced : Нет

Текст #1 Идентификатор : 4 Формат : UTF-8 Идентификатор кодека : S_TEXT/UTF8 Идентификатор кодека/Информация : UTF-8 Plain Text Заголовок : Русские, форсированные Язык : Russian Default : Да Forced : Нет

Текст #2 Идентификатор : 5 Формат : UTF-8 Идентификатор кодека : S_TEXT/UTF8 Идентификатор кодека/Информация : UTF-8 Plain Text Заголовок : Русские, полные (Матвеев) Язык : Russian Default : Нет Forced : Нет

Текст #3 Идентификатор : 6 Формат : UTF-8 Идентификатор кодека : S_TEXT/UTF8 Идентификатор кодека/Информация : UTF-8 Plain Text Заголовок : Оригинал Язык : English Default : Нет Forced : Нет

Текст #4 Идентификатор : 7 Формат : UTF-8 Идентификатор кодека : S_TEXT/UTF8 Идентификатор кодека/Информация : UTF-8 Plain Text Заголовок : Оригинал, SDH Язык : English Default : Нет Forced : Нет

Меню 00:00:00.000 : en:00:00:00.000 00:10:10.652 : en:00:10:10.652 00:27:00.661 : en:00:27:00.661 00:37:49.225 : en:00:37:49.225 00:46:54.520 : en:00:46:54.520 01:02:04.971 : en:01:02:04.971 01:14:10.613 : en:01:14:10.613 01:28:07.115 : en:01:28:07.115 01:41:46.642 : en:01:41:46.642 01:53:52.617 : en:01:53:52.617 02:02:58.079 : en:02:02:58.079 02:15:04.054 : en:02:15:04.054 02:27:55.075 : en:02:27:55.075 02:36:51.444 : en:02:36:51.444 02:48:27.514 : en:02:48:27.514 02:54:43.765 : en:02:54:43.765

На расширенные места профессиональная многоголоска.

Аудиодорожка сделана из TrueHD основы оригинальной Atmos дорожки и дублированной дорожки (AC3 5.1 448 kbps) посредством замены фрагментов с английской речью (с соотв. эхом, отголосками и пр.) из оригинальной дорожки соответствующими им фрагментами с русской речью (с соотв. эхом, отголосками и пр.) из дублированной дорожки во всех каналах. СПС Sergesha и ресурсу RussianDUB HD, а так же HQ-Video.

krutor.org

На заре справедливости (2016) скачать торрент в хорошем качестве hd

Название: Бэтмен против Супермена: На заре справедливости 

Оригинальное название: Batman v Superman: Dawn of Justice 

Год выпуска: 2016 

Жанр: Фантастика, фэнтези, боевик, приключения 

Режиссер: Зак Снайдер 

В ролях: Генри Кавилл, Бен Аффлек, Галь Гадот, Эми Адамс, Джесси Айзенберг, Джереми Айронс, Дайан Лэйн, Лоренс Фишбёрн, Холли Хантер, Скут МакНэйри, Каллэн Мулвей, Тао Окамото, Брэндон Спинк, Лорен Коэн, Алан Д. Первин, Марк Эдвард Тейлор, Хью Магвайр, Майкл Шеннон, Ханна Дворкин, Тиффани Л. Эддисон 

Захватывающее столкновение двух супер-героев. Фанаты Бэтмена и Супермена затаили дыхание в ожидании этой фантастической картины. Чем нас поразят в этой картине? В этом экшене режиссер картины столкнул лбами этих непобедимых героев. Борьба стального человека и черного рыцаря приведет к масштабным разрушениям. Бен Афлек с радостью принял приглашение на роль Бэтмена. 

Конечно, актер понимал, что внимание зрителей сосредоточится на его фигуре, поэтому моментально возобновил физические упражнения в тренажерном зале. Упорные изнуряющие тренировки привели к отличному результату, в котором мы сможем удостовериться в следующем году. Всегда интересно смотреть как две супер-личности борются друг с другом, разрушая всех и вся. Традиционно фильм снят с применением передовых технологий в сфере кинематографа. 

Бэтменопасается, что богоподобный Супермен очень много взял на себя и решил, что он есть высшая сила. Поэтому он задумывает вступить с ним в противостояние, и остановить зарвавшегося Супермена. Сценаристы и режиссер картины задумали донести до зрителя одну нехитрую мысль: против каждой силы всегда выступит другая сила. Противостояние двух сверхлюдей обещает быть очень зрелищным и захватывающим.

Страна: США 

Студия: Atlas Entertainment, DC Comics, DC Entertainment, RatPac-Dune Entertainment, Warner Bros. Pictures 

Продолжительность: 03:02:31 

Перевод: Дублированный | iTunes

Примечание: Расширенные места без русского перевода. Переведены русскими полными субтитрами. Включены по умолчанию 

Формат: MKV 

Качество: WEB-DL (1080p) 

Видео: MPEG-4 AVC, 4492 Кбит/с, 1916x796 

Аудио: Русский, английский (AC3, 6 ch, 384 Кбит/с) 

Субтитры: Русские [NotaBenoid], английские 

Поиск торрент раздач, пожалуйста подождите!

Информация о торрент файле

Скачать торрент Торрент: Зарегистрирован Статус: v Проверено Просмотров: 2 104 Категория: фантастика Общий размер: 6.71 GB

Поделитесь ссылкой на наш сайт с друзьями в соц.сетях ↓

mega-torrent.co

Скачать торрент Бэтмен против Супермена: На заре справедливости / Batman v Superman: Dawn of Justice (2016) BDRip 1080p | Расширенная версия

krutor.org

Бэтмен против Супермена: На заре справедливости / Batman v Superman: Dawn of Justice

Страна: США Производство: Warner Bros. Pictures, DC Entertainment, Cruel & Unusual Films, Atlas EntertainmentГод выпуска: 2016Жанр: фантастика, фэнтези, боевик, приключенияПродолжительность: 03:02:34

Режиссер: Зак СнайдерАвтор сценария: Крис Террио, Дэвид С. Гойер, Боб Кейн

В ролях: Генри Кавилл, Бен Аффлек, Галь Гадот, Эми Адамс, Джесси Айзенберг, Джереми Айронс, Дайан Лэйн, Лоренс Фишбёрн

Описание: Опасаясь, что действия богоподобного супергероя так и останутся бесконтрольными, грозный и могущественный страж Готэм Сити бросает вызов самому почитаемому в наши дни спасителю Метрополиса, в то время как весь остальной мир решает, какой герой ему по-настоящему нужен. И пока Бэтмен и Супермен пребывают в состоянии войны друг с другом, возникает новая угроза, которая ставит человечество под самую большую опасность, с которой оно когда-либо сталкивалось...

Перевод: Профессиональный (дублированный) | iTunesСубтитры: русские (NotaBenoid - вшитые на места без перевода и на надписи), английские

Качество: BDRip 1080pФормат: МКVВидео кодек: AVCАудио кодек: АС3Видео: 1920x800 (2.40:1), 23.976 fps, MPEG-4 AVC ~8 791 kbps avgАудио №1: 48 kHz, AC3 Dolby Digital, 3/2 (L,C,R,l,r) + LFE ch, ~384 kbps | RUSАудио №2: 48 kHz, AC3 Dolby Digital, 3/2 (L,C,R,l,r) + LFE ch, ~640 kbps | ENGФормат субтитров: UTF-8 Plain Text

Дата премьеры (мир): 12 марта 2016Дата премьеры (РФ): 24 марта 2016, «Каро-Премьер»

Media Info

General Unique ID : 252627842578565104505915653017054724863 (0xBE0E5A4949F75461B7B0F2059D53C2FF) Complete name : Batman.v.Superman.Dawn.of.Justice.2016.EXTENDED.1080p.BluRay.x264-NNMCLUB.mkv Format : Matroska Format version : Version 4 / Version 2 File size : 12.5 GiB Duration : 3h 2mn Overall bit rate : 9 813 Kbps Encoded date : UTC 2016-07-05 03:12:09 Writing application : mkvmerge v9.2.0 ('Photograph') 64bit Writing library : libebml v1.3.3 + libmatroska v1.4.4

Video ID : 1 Format : AVC Format/Info : Advanced Video Codec Format profile : [email protected] Format settings, CABAC : Yes Format settings, ReFrames : 5 frames Codec ID : V_MPEG4/ISO/AVC Duration : 3h 2mn Bit rate : 8 791 Kbps Width : 1 920 pixels Height : 800 pixels Display aspect ratio : 2.40:1 Frame rate mode : Constant Frame rate : 23.976 fps Color space : YUV Chroma subsampling : 4:2:0 Bit depth : 8 bits Scan type : Progressive Bits/(Pixel*Frame) : 0.239 Stream size : 11.2 GiB (90%) Title : NNMCLUB Writing library : x264 core 148 r2692 64f4e24 Encoding settings : cabac=1 / ref=5 / deblock=1:0:0 / analyse=0x3:0x133 / me=umh / subme=7 / psy=1 / psy_rd=1.00:0.00 / mixed_ref=1 / me_range=16 / chroma_me=1 / trellis=1 / 8x8dct=1 / cqm=0 / deadzone=21,11 / fast_pskip=0 / chroma_qp_offset=-2 / threads=18 / lookahead_threads=3 / sliced_threads=0 / nr=0 / decimate=1 / interlaced=0 / bluray_compat=0 / constrained_intra=0 / bframes=3 / b_pyramid=2 / b_adapt=1 / b_bias=0 / direct=1 / weightb=1 / open_gop=0 / weightp=2 / keyint=250 / keyint_min=23 / scenecut=40 / intra_refresh=0 / rc_lookahead=40 / rc=2pass / mbtree=1 / bitrate=8791 / ratetol=1.0 / qcomp=0.60 / qpmin=0 / qpmax=69 / qpstep=4 / cplxblur=20.0 / qblur=0.5 / ip_ratio=1.40 / aq=1:1.00 Language : English Default : Yes Forced : No

Audio #1 ID : 2 Format : AC-3 Format/Info : Audio Coding 3 Mode extension : CM (complete main) Format settings, Endianness : Big Codec ID : A_AC3 Duration : 3h 2mn Bit rate mode : Constant Bit rate : 384 Kbps Channel(s) : 6 channels Channel positions : Front: L C R, Side: L R, LFE Sampling rate : 48.0 KHz Frame rate : 31.250 fps (1536 spf) Compression mode : Lossy Stream size : 501 MiB (4%) Title : iTunes Language : Russian Default : Yes Forced : No

Audio #2 ID : 3 Format : AC-3 Format/Info : Audio Coding 3 Mode extension : CM (complete main) Format settings, Endianness : Big Codec ID : A_AC3 Duration : 3h 2mn Bit rate mode : Constant Bit rate : 640 Kbps Channel(s) : 6 channels Channel positions : Front: L C R, Side: L R, LFE Sampling rate : 48.0 KHz Frame rate : 31.250 fps (1536 spf) Compression mode : Lossy Stream size : 836 MiB (7%) Language : English Default : No Forced : No

Text #1 ID : 4 Format : UTF-8 Codec ID : S_TEXT/UTF8 Codec ID/Info : UTF-8 Plain Text Duration : 2h 53mn Bit rate : 66 bps Count of elements : 1588 Stream size : 84.7 KiB (0%) Title : NotaBenoid Language : Russian Default : Yes Forced : Yes

Text #2 ID : 5 Format : UTF-8 Codec ID : S_TEXT/UTF8 Codec ID/Info : UTF-8 Plain Text Duration : 2h 53mn Bit rate : 42 bps Count of elements : 1584 Stream size : 53.9 KiB (0%) Language : English Default : No Forced : No

Menu 00:00:00.000 : en:00:00:00.000 00:10:10.652 : en:00:10:10.652 00:27:00.661 : en:00:27:00.661 00:37:49.225 : en:00:37:49.225 00:46:54.520 : en:00:46:54.520 01:02:04.971 : en:01:02:04.971 01:14:10.613 : en:01:14:10.613 01:28:07.115 : en:01:28:07.115 01:41:46.642 : en:01:41:46.642 01:53:52.617 : en:01:53:52.617 02:02:58.079 : en:02:02:58.079 02:15:04.054 : en:02:15:04.054 02:27:55.075 : en:02:27:55.075 02:36:51.444 : en:02:36:51.444 02:48:27.514 : en:02:48:27.514 02:54:43.765 : en:02:54:43.765

Скачать торрент Бэтмен против Супермена: На заре справедливости / Batman v Superman: Dawn of Justice (2016) HDRip | Расширенная версия

krutor.org

Бэтмен против Супермена: На заре справедливости / Batman v Superman: Dawn of Justice

«Who will win?»

[size=2][font=Georgia]Год выпуска: 2016Страна: СШАЖанр: фантастика, боевик, приключенияПродолжительность: 03:02:33Перевод: Профессиональный (полное дублирование) [Лицензия] + Проф. многоголоска [FocusStudio, на расширенные моменты]Субтитры: русские (на текст и прочее) - вшитые

Режиссер: Зак Снайдер / Zack SnyderВ ролях: Генри Кавилл (Clark Kent / Superman), Бен Аффлек (Bruce Wayne / Batman), Галь Гадот (Diana Prince / Wonder Woman), Эми Адамс (Lois), Джесси Айзенберг (Lex Luthor), Джереми Айронс (Alfred), Дайан Лэйн (Martha Kent), Лоренс Фишбёрн (Perry White), Холли Хантер (Senator Finch), Скут МакНэри (Wallace Keefe), Каллэн Мулвей (Anatoli Knyazev), Тао Окамото (Mercy Graves)Описание: Опасаясь, что действия богоподобного супергероя так и останутся бесконтрольными, грозный и могущественный страж Готэм Сити бросает вызов самому почитаемому в наши дни спасителю Метрополиса, в то время как весь остальной мир решает, какой герой ему по-настоящему нужен. И пока Бэтмен и Супермен пребывают в состоянии войны друг с другом, возникает новая угроза, которая ставит человечество под самую большую опасность, с которой оно когда-либо сталкивалось.Рейтинг:

MPAA: PG-13 - Детям до 13 лет просмотр не желателен

Качество: HDRipФормат: AVIВидео: 720x304 (2.37:1), 23.976 fps, XviD build 73 ~1262 kbps avg, 0.24 bit/pixelАудио: 48 kHz, AC3 Dolby Digital, 3/2 (L,C,R,l,r) + LFE ch, ~448 kbps

Mediainfo:

Формат : AVI Формат/Информация : Audio Video Interleave Профиль формата : OpenDML Размер файла : 2,19 Гбайт Продолжительность : 3 ч. 2 м. Общий поток : 1717 Кбит/сек Программа кодирования : VirtualDubMod 1.5.10.3 | www.virtualdub-fr.org || (build 2550/release) Библиотека кодирования : VirtualDubMod build 2550/release

Видео Идентификатор : 0 Формат : MPEG-4 Visual Профиль формата : Advanced [email protected] Параметр BVOP формата : 1 Параметр QPel формата : Нет Параметр GMC формата : Без точки перехода Параметр матрицы формата : Выборочная Идентификатор кодека : XVID Идентификатор кодека/Подсказка : XviD Продолжительность : 3 ч. 2 м. Битрейт : 1257 Кбит/сек Ширина : 720 пикселей Высота : 304 пикселя Соотношение сторон : 2,35:1 Частота кадров : 23,976 (24000/1001) кадра/сек Цветовое пространство : YUV Субдискретизация насыщенности : 4:2:0 Битовая глубина : 8 бит Тип развёртки : Прогрессивная Метод сжатия : С потерями Бит/(Пиксели*Кадры) : 0.240 Размер потока : 1,60 Гбайт (73%) Библиотека кодирования : XviD 73

Аудио Идентификатор : 1 Формат : AC-3 Формат/Информация : Audio Coding 3 Расширение режима : CM (complete main) Параметр Endianness формата : Big Идентификатор кодека : 2000 Продолжительность : 3 ч. 2 м. Вид битрейта : Постоянный Битрейт : 448 Кбит/сек Каналы : 6 каналов Расположение каналов : Front: L C R, Side: L R, LFE Частота : 48,0 КГц Частота кадров : 31,250 кадров/сек (1536 spf) Битовая глубина : 16 бит Метод сжатия : С потерями Размер потока : 585 Мбайт (26%) Выравнивание : Разделение по промежуткам Продолжительность промежутка : 42 мс. (1,00 видеокадр) Время предзагрузки промежутка : 500 мс.

Скриншоты:

Скачать торрент Бэтмен против Супермена: На заре справедливости / Batman v Superman:Dawn of Just. (2016) BDRemux 1080p от ExKinoRay | Расширенная версия

Информация о фильмеНазвание: Бэтмен против Супермена: На заре справедливостиОригинальное название: Batman v Superman: Dawn of JusticeГод выхода: 2016Жанр: Фантастика, фэнтези, боевик, приключенияРежиссер: Зак СнайдерВ ролях: Генри Кавилл, Бен Аффлек, Галь Гадот, Эми Адамс, Джесси Айзенберг, Джереми Айронс, Дайан Лэйн, Лоренс Фишбёрн, Холли Хантер, Скут МакНэйри, Каллэн Мулвей, Тао Окамото, Брэндон Спинк, Лорен Коэн, Алан Д. Первин, Марк Эдвард Тейлор, Хью Магвайр, Майкл Шеннон, Ханна Дворкин, Тиффани Л. Эддисон

О фильме: Битва между Кал-Элом и генералом Зодом наносит множество разрушений Метрополису и соседнему Готэм Сити. Башня Уэйн-тауэр - уничтожена вместе с сотнями невинных людей. Это становится началом конфликта между Последним Сыном Криптона и Темным Рыцарем Готэма, богом и человеком. Тем временем, сумасшедший гений Лекс Лютор готовит оружие Судного дня, способное уничтожить не только богоподобного Супермена, но и все человечество.

Страна: СШАСтудия: Atlas Entertainment, DC Comics, DC Entertainment, Warner Bros. PicturesПродолжительность: 03:02:31Перевод: Дублированный | iTunes

ФайлКодек: x264Качество: BDRemux 1080pВидео: 1920x1080, 24.0 Mbit/s, 23.976 fpsЗвук: Аудио #01: 48 kHz, AC3, 5.1, 384 Kbps | Дублированный, iTunes | Аудио #02: 48 kHz, TrueHD, 7.1, 4967 kbps | Оригинал | Субтитры: Русские (forced,full), английские (srt,SDH)

Релиз от: Автор релиза:

MI

General Unique ID : 175629226435269575254763965091042552439 (0x8420F568C8ACB0399E246D61E3FBEA77) Complete name : F:VideoBatman.v.Superman.Dawn.of.Justice.2016.Extended.Ultimate.Edition.BDREMUX.1080p.ExKinoRay.mkv Format : Matroska Format version : Version 4 / Version 2 File size : 37.5 GiB Duration : 3h 2mn Overall bit rate mode : Variable Overall bit rate : 29.4 Mbps Movie name : Batman.v.Superman.Dawn.of.Justice.2016.Extended.Ultimate.Edition.BDREMUX.1080p.ExKinoRay Encoded date : UTC 2016-07-07 21:54:34 Writing application : mkvmerge v8.3.0 ('Over the Horizon') 64bit Writing library : libebml v1.3.1 + libmatroska v1.4.2

Video ID : 1 Format : AVC Format/Info : Advanced Video Codec Format profile : [email protected] Format settings, CABAC : Yes Format settings, ReFrames : 2 frames Codec ID : V_MPEG4/ISO/AVC Duration : 3h 2mn Bit rate mode : Variable Bit rate : 24.0 Mbps Width : 1 920 pixels Height : 1 080 pixels Display aspect ratio : 16:9 Frame rate mode : Constant Frame rate : 23.976 (24000/1001) fps Color space : YUV Chroma subsampling : 4:2:0 Bit depth : 8 bits Scan type : Progressive Bits/(Pixel*Frame) : 0.482 Stream size : 30.6 GiB (82%) Language : English Default : Yes Forced : No

Audio #1 ID : 2 Format : AC-3 Format/Info : Audio Coding 3 Mode extension : CM (complete main) Format settings, Endianness : Big Codec ID : A_AC3 Duration : 3h 2mn Bit rate mode : Constant Bit rate : 384 Kbps Channel(s) : 6 channels Channel positions : Front: L C R, Side: L R, LFE Sampling rate : 48.0 KHz Frame rate : 31.250 fps (1536 spf) Compression mode : Lossy Delay relative to video : 1s 0ms Stream size : 501 MiB (1%) Language : Russian Default : Yes Forced : No

Audio #2 ID : 3 Format : Atmos / TrueHD Codec ID : A_TRUEHD Duration : 3h 2mn Bit rate mode : Variable Bit rate : 4 967 Kbps Maximum bit rate : 8 199 Kbps Channel(s) : Object Based / 8 channels Channel positions : Object Based / Front: L C R, Side: L R, Back: L R, LFE Sampling rate : / 48.0 KHz Frame rate : 1 200.000 fps (40 spf) Compression mode : Lossless Stream size : 6.33 GiB (17%) Language : English Default : No Forced : No

Text #1 ID : 4 Format : UTF-8 Codec ID : S_TEXT/UTF8 Codec ID/Info : UTF-8 Plain Text Duration : 2h 53mn Bit rate : 19 bps Count of elements : 431 Stream size : 24.5 KiB (0%) Title : Forced Language : Russian Default : Yes Forced : No

Text #2 ID : 5 Format : UTF-8 Codec ID : S_TEXT/UTF8 Codec ID/Info : UTF-8 Plain Text Duration : 2h 53mn Bit rate : 66 bps Count of elements : 1588 Stream size : 84.8 KiB (0%) Title : [NotaBenoid] Language : Russian Default : No Forced : No

Text #3 ID : 6 Format : UTF-8 Codec ID : S_TEXT/UTF8 Codec ID/Info : UTF-8 Plain Text Duration : 3h 2mn Bit rate : 43 bps Count of elements : 1914 Stream size : 58.7 KiB (0%) Title : Full Language : English Default : No Forced : No

Text #4 ID : 7 Format : UTF-8 Codec ID : S_TEXT/UTF8 Codec ID/Info : UTF-8 Plain Text Duration : 2h 53mn Bit rate : 46 bps Count of elements : 1913 Stream size : 58.5 KiB (0%) Title : SDH Language : English Default : No Forced : No

Menu 00:00:00.000 : en:00:00:00.000 00:10:10.652 : en:00:10:10.652 00:27:00.661 : en:00:27:00.661 00:37:49.225 : en:00:37:49.225 00:46:54.520 : en:00:46:54.520 01:02:04.971 : en:01:02:04.971 01:14:10.613 : en:01:14:10.613 01:28:07.115 : en:01:28:07.115 01:41:46.642 : en:01:41:46.642 01:53:52.617 : en:01:53:52.617 02:02:58.079 : en:02:02:58.079 02:15:04.054 : en:02:15:04.054 02:27:55.075 : en:02:27:55.075 02:36:51.444 : en:02:36:51.444 02:48:27.514 : en:02:48:27.514 02:54:43.765 : en:02:54:43.765

Примечание

Расширенные места без русского озвучивания. Переведены русскими форсированными субтитрами. Включены по умолчанию.

mrutor.org

Бэтмен против Супермена торрент скачать

Бэтмен против Супермена: На заре справедливости / Batman v Superman: Dawn of Justice (2016) WEB-DLRip от ExKinoRay | ULTIMATE EDITION| D2.19 GBБэтмен против Супермена: На заре справедливости / Batman v Superman: Dawn of Justice (2016) WEB-DL 1080p | iTunes5.58 GBБэтмен против Супермена: На заре справедливости / Batman v Superman: Dawn of Justice (2016) WEB-DL 1080p | Sub | ULTIMATE EDITION6.22 GBБэтмен против Супермена: На заре справедливости / Batman v Superman: Dawn of Justice (2016) BDRip 1080p | Расширенная версия | iTunes12.51 GBБэтмен против Супермена: На заре справедливости / Batman v Superman: Dawn of Justice (2016) BDRip 1080p | iTunes13.86 GBБэтмен против Супермена: На заре справедливости / Batman v Superman: Dawn of Justice (Зак Снайдер / Zack Snyder) [2016 г., фантастика, фэнтези, боевик, приключения, HDRip] [Ultimate Edition] Dub/MVO + Sub (Rus)1.45 GBБэтмен против Супермена: На заре справедливости / Batman v Superman: Dawn of Justice (2016) BDRip от ExKinoRay | Theatrical Cut | Лицензия1.46 GBБэтмен против Супермена: На заре справедливости / Batman v Superman: Dawn of Justice (2016) BDRip от HQCLUB | Theatrical Cut2.91 GBБэтмен против Супермена: На заре справедливости / Batman v Superman: Dawn of Justice (2016) BDRip 720p от ExKinoRay | Расширенная версия | D10.05 GBБэтмен против Супермена: На заре справедливости / Batman v Superman: Dawn of Justice (2016) WEB-DLRip-AVC от Scarabey | iTunes3.05 GBБэтмен против Супермена: На заре справедливости / Batman v Superman: Dawn of Justice (2016) WEB-DL 1080p | D | Line5.38 GBБэтмен против Супермена: На заре справедливости / Batman v Superman: Dawn of Justice (2016) BDRip 1080p | Theatrical Cut | Лицензия11.54 GBБэтмен против Супермена: На заре справедливости / Batman v Superman: Dawn of Justice (2016) BDRip 720p от NNNB | 60 fps | Theatrical Cut | Лицензия6.95 GBБэтмен против Супермена: На заре справедливости / Batman v Superman: Dawn of Justice (2016) BDRip 720p от Scarabey | Расширенная версия8.56 GBБэтмен против Супермена: На заре справедливости / Batman v Superman:Dawn of Justice (2016) BDRip 1080p от ExKinoRay | Расширенная версия | D16.23 GBБэтмен против Супермена: На заре справедливости / Batman v Superman: Dawn of Justice (2016) BDRip 720 от HELLYWOOD | Расширенная версия | A, D11.04 GBБэтмен против Супермена: На заре справедливости / Batman v Superman: Dawn of Justice (Зак Снайдер / Zack Snyder) [2016 г., фантастика, фэнтези, боевик, приключения, HDRip] [Ultimate Edition] Dub/MVO + hardsub (Rus)2.18 GBБэтмен против Супермена: На заре справедливости / Batman v Superman: Dawn of Justice (2016) BDRip 1080p от NNNB | Ultimate Edition | D, P, A24.56 GBБэтмен против Супермена: На заре справедливости / Batman v Superman: Dawn of Justice (2016) WEBRip 1080p | Трейлер#3283.33 MBБэтмен против Супермена: На заре справедливости / Batman v Superman: Dawn of Justice (2016) BDRip-AVC от ExKinoRay | Расширенная версия | iTunes2.79 GBБэтмен против Супермена: На заре справедливости / Batman v Superman: Dawn of Justice (Зак Снайдер / Zack Snyder) [2016 г., фантастика, фэнтези, боевик, приключения, BDRip] [Theatrical Cut] Dub + hardsub (Rus)1.46 GBБэтмен против Супермена: На заре справедливости / Batman v Superman: Dawn of Justice (2016) WEB-DLRip | iTunes747.37 MBБэтмен против Супермена: На заре справедливости / Batman v Superman: Dawn of Justice (2016) BDRip-AVC от HELLYWOOD | Расширенная версия | iTunes2.18 GBБэтмен против Супермена: На заре справедливости / Batman v Superman: Dawn of Justice (2016) BDRip 1080p от Ash61 | 3D-Video | hOU | iTunes18.42 GBБэтмен против Супермена: На заре справедливости / Batman v Superman: Dawn of Justice (2016) HDRip от Scarabey | Театральная версия | iTunes2.18 GBБэтмен против Супермена: На заре справедливости / Batman v Superman: Dawn of Justice / 2016 / ДБ / BDRip / 2.11 ГБ2.11 GBБэтмен против Супермена: На заре справедливости / Batman v Superman:Dawn of Just. (2016) BDRip 1080p от ExKinoRay | Расширенная версия | P, A19.33 GBБэтмен против Супермена: На заре справедливости / Batman v Superman: Dawn of Justice (2016) WEB-DLRip от Scarabey | ULTIMATE EDITION | D1.45 GBБэтмен против Супермена: На заре справедливости / Batman v Superman: Dawn of Justice (2016) WEB-DLRip от Scarabey | ULTIMATE EDITION | D1.45 GBБэтмен против Супермена: На заре справедливости / Batman v Superman: Dawn of Justice TS 1080p | Line5.68 GBБэтмен против Супермена: На заре справедливости / Batman v Superman: Dawn of Justice (2016) WEBRip 1080p | Трейлер470.61 MBБэтмен против Супермена: На заре справедливости / Batman v Superman: Dawn of Justice (2016) WEB-DLRip | D | Line1.37 GBБэтмен против Супермена: На заре справедливости / Batman v Superman: Dawn of Justice (2016) WEB-DLRip-AVC от ExKinoRay | iTunes Russia1.46 GBБэтмен против Супермена: На заре справедливости / Batman v Superman: Dawn of Justice (2016) HDRip от Scarabey | Расширенная версия | iTunes2.88 GBБэтмен против Супермена: На заре справедливости / Batman v Superman: Dawn of Justice (2016) BDRip-AVC от New-Team | Театральная версия | Лицензия4.37 GBБэтмен против Супермена: На заре справедливости / Batman v Superman: Dawn of Justice (2016) BDRip 720p от NNNB | Ultimate Edition | D, A11.36 GBБэтмен против Супермена: На заре справедливости / Batman v Superman: Dawn of Justice (2016) WEB-DLRip от Scarabey | iTunes1.46 GBБэтмен против Супермена: На заре справедливости / Batman v Superman: Dawn of Justice (Зак Снайдер / Zack Snyder) [2016, США, Фантастика, боевик, приключения, BDRip-AVC] [Расширенная версия / Ultimate Edition] Dub + (Вставки VO)1.45 GBБэтмен против Супермена: На заре справедливости / Batman v Superman: Dawn of Justice (2016) BDRip-AVC New-Team Театральная версия | Лицензия1.46 GBБэтмен против Супермена: На заре справедливости / Batman v Superman:Dawn of Just. (2016) BDRemux 1080p от ExKinoRay | Расширенная версия | D37.46 GBБэтмен против Супермена: На заре справедливости / Batman v Superman: Dawn of Justice (2016) BDRip 1080p | 3D-Video | HSBS | Theatrical Cut | Лицензия18.78 GBБэтмен против Супермена: На заре справедливости / Batman v Superman: Dawn of Justice (Зак Снайдер / Zack Snyder) [2016, США, фантастика, боевик, приключения, HDRip] [Расширенная версия / Ultimate Edition] (DUB + VO) + Original Eng + Sub Rus2.68 GBБэтмен против Супермена: На заре справедливости / Batman v Superman:Dawn of Justice (2016) HDRip-AVC | Расширенная версия | D747.17 MBБэтмен против Супермена: На заре справедливости / Batman v Superman: Dawn of Justice (2016) WEB-DLRip | КПК | iTunes685.08 MBБэтмен против Супермена: На заре справедливости / Batman v Superman: Dawn of Justice (Зак Снайдер / Zack Snyder) [2016 г., фантастика, фэнтези, боевик, приключения, BDRip 720p] [Ultimate Edition] Dub/MVO + Original (Eng) + Sub (Rus, Eng)8.64 GBБэтмен против Супермена: На заре справедливости / Batman v Superman: Dawn of Justice (2016) TC | D | звук с TS1.46 GBБэтмен против Супермена: На заре справедливости / Batman v Superman: Dawn of Justice (2016) BDRemux 1080p от ExKinoRay | iTunes26.96 GBБэтмен против Супермена: На заре справедливости / Batman v Superman:Dawn of Just. (2016) BDRip 720p от ExKinoRay | Расширенная версия | P, A13.15 GBБэтмен против Супермена: На заре справедливости / Batman v Superman: Dawn of Justice (Зак Снайдер / Zack Snyder) [2016, США, фантастика, боевик, приключения, BDRip-AVC] [Расширенная версия / Ultimate Edition] Dub + Original + Sub (rus, eng)6.4 GBБэтмен против Супермена: На заре справедливости / Batman v Superman: Dawn of Justice (2016) DVD5 | D4.37 GB tparser.org – торрент поисковик по популярным торрент трекерам. Находить и скачивать новинки кино в HDRip и BDRip качестве через tparser намного проще! Добро пожаловать на крупный торрент архив фильмов и игр tparser.org. Вам больше не придется искать торренты на основных торрент трекерах в поисках нужной раздачи – мы предлагаем найти и скачать фильмы в хорошем качестве прямо на нашем сайте. Наш сервис поиска торрентов в реальном времени собирает информацию с крупных торрент трекеров и сортирует полученные результаты в удобную таблицу. Скачивайте торренты без ограничений и без всяких регистраций на трекерах. Начните скачивать торрент Бэтмен против Супермена прямо сейчас!

tparser.org


Смотрите также