Скачать хоббит пустошь смауга режиссерская версия скачать торрент


rutor.org :: Хоббит: Пустошь Смауга / The Hobbit: The Desolation Of Smaug (2013) BDRip 1080p

main-rutor.org

Хоббит: Пустошь Смауга / The Hobbit: The Desolation Of Smaug (2013) BDRip 1080p | Extended Cut от HQCLUB

Информация о фильмеНазвание: Хоббит: Пустошь СмаугаОригинальное название: The Hobbit: The Desolation of SmaugГод выхода: 2013Жанр: Фэнтези, ПриключенияВ ролях: Мартин Фриман (Bilbo Baggins), Иэн МакКеллен (Gandalf), Ричард Армитедж (Thorin), Люк Эванс (Bard), Эванджелин Лилли (Tauriel), Ли Пейс (Thranduil), Орландо Блум (Legolas), Бенедикт Камбербэтч (Smaug / Necromancer, озвучка), Кен Стотт (Balin), Эйдан Тернер (Kili), Грэм МакТавиш (Dwalin), Уильям Кирчер (Bifur), Стивен Хантер (Bombur), Дин О’Горман (Fili), Кейт Бланшетт (Galadriel), Хьюго Уивинг (Elrond)Режиссёр: Питер Джексон / Peter Jackson

О фильме: Продолжение путешествия хоббита Бильбо Бэггинса, волшебника Гэндальфа и 13 отважных гномов. Их компания обязана завершить своё путешествие к Одинокой горе. Там они должны встретиться с величайшей опасностью из всех - созданием куда более ужасающим, чем все их прошлые противники, которое проверит на прочность не только их мужество, но крепость их дружбы и правильность выбранного пути, - драконом Смаугом.

«Beyond darkness... beyond desolation... lies the greatest danger of all»

Релиз от - Автор рипа: Rensler

Выпущено: Новая Зеландия | США Студия: Metro-Goldwyn-Mayer (MGM), New Line Cinema, WingNut FilmsПродолжительность: 03:06:35Перевод: • Профессиональный (полное дублирование) BD CEE • Авторский (одноголосый, закадровый) «Ю.Сербин» • Авторский (одноголосый, закадровый) «В.Горчаков»Оригинальная аудиодорожка: АнглийскаяСубтитры: Русские (форсированные - на речь эльфов и орков, полные), Английские (форсированные, полные, SDH, SDH цветные)Главы: Сохранены чаптеры с оригинального Blu-ray Disc

Файл:Формат: MKVКачество: BDRip 1080p (источник: BLUEBIRD / Blu-ray Remux [Extended Cut] / 1080p)Видео: 1920x800 (2,40:1) at 23.976 fps, [email protected] ~ 10657 kbps avg, 0.289 bit/pixelАудио#1: 48 kHz/24-bit, DTS, 3/2 (L,C,R,l,r) + LFE ch, ~ 1536.00 kbps avg | RUS BD CEEАудио#2: 48 kHz/24-bit, DTS, 3/2 (L,C,R,l,r) + LFE ch, ~ 1536.00 kbps avg | RUS, Y.Serbin Аудио#3: 48 kHz/24-bit, DTS, 3/2 (L,C,R,l,r) + LFE ch, ~ 1536.00 kbps avg | RUS, V.GorchakovАудио#4: 48 kHz/24-bit, DTS, 3/2 (L,C,R,l,r) + LFE ch, ~ 1536.00 kbps avg | ENGСкачать: Семпл

[email protected]

Цитатаlogx.264 писал:x264 [info]: frame I:2563 Avg QP:15.44 size:197647 x264 [info]: frame P:69798 Avg QP:16.48 size: 99475 x264 [info]: frame B:186819 Avg QP:17.88 size: 36697 x264 [info]: consecutive B-frames: 2.5% 4.6% 8.3% 18.6% 22.4% 4.2% 1.1% 0.1% x264 [info]: ref P L0: 65.6% 7.3% 19.7% 7.6% 4.8% 0.6% 0.0%ЦитатаMediaInfo писал:Уникальный идентификатор : 202622333150562902948457864692469011729 (0x986FA4525AB6449AA4D2B5F5F5DF1511) Полное имя : The.Hobbit.The.Desolation.of.Smaug.2013.Extended.BluRay.1080p.Rus.Eng.-HQCLUB.mkv Формат : Matroska Версия формата : Version 4 / Version 2 Размер файла : 21,8 Гбайт Продолжительность : 3 ч. 6 м. Общий поток : 16,7 Мбит/сек Название фильма : Хоббит: Пустошь Смауга / The Hobbit: The Desolation of Smaug (2013) BDRip 1080p Дата кодирования : UTC 2016-01-03 17:49:15 Программа кодирования : mkvmerge v8.3.0 ('Over the Horizon') 64bit Библиотека кодирования : libebml v1.3.1 + libmatroska v1.4.2 Attachements : Cover.Hobbit.png

Видео Идентификатор : 1 Формат : AVC Формат/Информация : Advanced Video Codec Профиль формата : [email protected] Параметр CABAC формата : Да Параметр ReFrames формата : 5 кадров Идентификатор кодека : V_MPEG4/ISO/AVC Продолжительность : 3 ч. 6 м. Битрейт : 10,7 Мбит/сек Ширина : 1920 пикселей Высота : 800 пикселей Соотношение сторон : 2,40:1 Режим частоты кадров : Постоянный Частота кадров : 23,976 кадра/сек Цветовое пространство : YUV Субдискретизация насыщенности : 4:2:0 Битовая глубина : 8 бит Тип развёртки : Прогрессивная Бит/(Пиксели*Кадры) : 0.289 Размер потока : 13,5 Гбайт (62%) Заголовок : Release by Rensler Библиотека кодирования : x264 core 148 r2638 7599210 Настройки программы : cabac=1 / ref=5 / deblock=1:-3:-3 / analyse=0x3:0x113 / me=umh / subme=11 / psy=1 / psy_rd=0.92:0.02 / mixed_ref=1 / me_range=32 / chroma_me=1 / trellis=2 / 8x8dct=1 / cqm=0 / deadzone=21,11 / fast_pskip=0 / chroma_qp_offset=-3 / threads=3 / lookahead_threads=1 / sliced_threads=0 / nr=0 / decimate=0 / interlaced=0 / bluray_compat=0 / constrained_intra=0 / bframes=7 / b_pyramid=2 / b_adapt=2 / b_bias=0 / direct=3 / weightb=1 / open_gop=0 / weightp=2 / keyint=230 / keyint_min=23 / scenecut=40 / intra_refresh=0 / rc_lookahead=60 / rc=2pass / mbtree=0 / bitrate=10657 / ratetol=1.0 / qcomp=0.80 / qpmin=0 / qpmax=69 / qpstep=4 / cplxblur=20.0 / qblur=0.5 / vbv_maxrate=50000 / vbv_bufsize=62500 / nal_hrd=none / filler=0 / ip_ratio=1.30 / pb_ratio=1.20 / aq=2:1.00 Язык : English Default : Да

Аудио #1 Идентификатор : 2 Формат : DTS Формат/Информация : Digital Theater Systems Режим : 16 Параметр Endianness формата : Big Идентификатор кодека : A_DTS Продолжительность : 3 ч. 6 м. Вид битрейта : Постоянный Битрейт : 1509 Кбит/сек Каналы : 6 каналов Расположение каналов : Front: L C R, Side: L R, LFE Частота : 48,0 КГц Битовая глубина : 24 бит Метод сжатия : С потерями Размер потока : 1,97 Гбайт (9%) Заголовок : BD CEE Язык : Russian Default : Да Forced : Нет

Аудио #2 Идентификатор : 3 Формат : DTS Формат/Информация : Digital Theater Systems Режим : 16 Параметр Endianness формата : Big Идентификатор кодека : A_DTS Продолжительность : 3 ч. 6 м. Вид битрейта : Постоянный Битрейт : 1509 Кбит/сек Каналы : 6 каналов Расположение каналов : Front: L C R, Side: L R, LFE Частота : 48,0 КГц Битовая глубина : 24 бит Метод сжатия : С потерями Размер потока : 1,97 Гбайт (9%) Заголовок : AVO Serbin Язык : Russian Default : Нет Forced : Нет

Аудио #3 Идентификатор : 4 Формат : DTS Формат/Информация : Digital Theater Systems Режим : 16 Параметр Endianness формата : Big Идентификатор кодека : A_DTS Продолжительность : 3 ч. 6 м. Вид битрейта : Постоянный Битрейт : 1509 Кбит/сек Каналы : 6 каналов Расположение каналов : Front: L C R, Side: L R, LFE Частота : 48,0 КГц Битовая глубина : 24 бит Метод сжатия : С потерями Размер потока : 1,97 Гбайт (9%) Заголовок : AVO Gorchakov Язык : Russian Default : Нет Forced : Нет

Аудио #4 Идентификатор : 5 Формат : DTS Формат/Информация : Digital Theater Systems Режим : 16 Параметр Endianness формата : Big Идентификатор кодека : A_DTS Продолжительность : 3 ч. 6 м. Вид битрейта : Постоянный Битрейт : 1509 Кбит/сек Каналы : 6 каналов Расположение каналов : Front: L C R, Side: L R, LFE Частота : 48,0 КГц Битовая глубина : 24 бит Метод сжатия : С потерями Размер потока : 1,97 Гбайт (9%) Заголовок : Original Язык : English Default : Нет Forced : Нет

Текст #1 Идентификатор : 6 Формат : UTF-8 Идентификатор кодека : S_TEXT/UTF8 Идентификатор кодека/Информация : UTF-8 Plain Text Заголовок : Forced Язык : Russian Default : Да Forced : Нет

Текст #2 Идентификатор : 7 Формат : UTF-8 Идентификатор кодека : S_TEXT/UTF8 Идентификатор кодека/Информация : UTF-8 Plain Text Заголовок : Full Язык : Russian Default : Нет Forced : Нет

Текст #3 Идентификатор : 8 Формат : UTF-8 Идентификатор кодека : S_TEXT/UTF8 Идентификатор кодека/Информация : UTF-8 Plain Text Заголовок : Full Язык : English Default : Нет Forced : Нет

Текст #4 Идентификатор : 9 Формат : UTF-8 Идентификатор кодека : S_TEXT/UTF8 Идентификатор кодека/Информация : UTF-8 Plain Text Заголовок : SDH Язык : English Default : Нет Forced : Нет

Текст #5 Идентификатор : 10 Формат : UTF-8 Идентификатор кодека : S_TEXT/UTF8 Идентификатор кодека/Информация : UTF-8 Plain Text Заголовок : SDH-Colored Язык : English Default : Нет Forced : Нет

Меню 00:00:00.000 : en:Chapter 01 00:07:33.000 : en:Chapter 02 00:12:00.000 : en:Chapter 03 00:12:59.000 : en:Chapter 04 00:15:55.000 : en:Chapter 05 00:20:56.000 : en:Chapter 06 00:23:15.000 : en:Chapter 07 00:25:52.000 : en:Chapter 08 00:29:59.000 : en:Chapter 09 00:38:14.000 : en:Chapter 10 00:46:43.000 : en:Chapter 11 00:49:46.000 : en:Chapter 12 00:53:19.000 : en:Chapter 13 00:55:10.000 : en:Chapter 14 00:58:07.000 : en:Chapter 15 01:08:42.000 : en:Chapter 16 01:12:22.000 : en:Chapter 17 01:15:45.000 : en:Chapter 18 01:19:10.000 : en:Chapter 19 01:22:46.000 : en:Chapter 20 01:25:09.000 : en:Chapter 21 01:28:07.000 : en:Chapter 22 01:31:15.000 : en:Chapter 23 01:36:02.000 : en:Chapter 24 01:37:35.000 : en:Chapter 25 01:40:35.000 : en:Chapter 26 01:45:16.000 : en:Chapter 27 01:48:44.000 : en:Chapter 28 01:50:31.000 : en:Chapter 29 01:52:36.000 : en:Chapter 30 01:53:08.000 : en:Chapter 31 01:59:16.000 : en:Chapter 32 02:07:11.000 : en:Chapter 33 02:07:39.000 : en:Chapter 34 02:09:22.000 : en:Chapter 35 02:12:48.000 : en:Chapter 36 02:22:00.000 : en:Chapter 37 02:22:43.000 : en:Chapter 38 02:23:17.000 : en:Chapter 39 02:24:56.000 : en:Chapter 40 02:26:45.000 : en:Chapter 41 02:29:18.000 : en:Chapter 42 02:33:12.000 : en:Chapter 43 02:34:57.000 : en:Chapter 44 02:36:13.000 : en:Chapter 45 02:37:45.000 : en:Chapter 46 02:39:08.000 : en:Chapter 47 02:41:39.000 : en:Chapter 48 02:44:06.000 : en:Chapter 49 02:51:16.000 : en:Chapter 50 02:56:05.000 : en:Chapter 51

ЦитатаКто-то писал:Дорога №1 получена из оригинальной DTS-HD MA дорожки и дублированной, путем замены всех участков с английской речью, её эхом и отголосками на аналогичные с дублированной дорожки, во всех каналах. За нее спасибо BLUEBIRD. Спонсоры появления дубляжа: Andresoff, goriathid, Mishanya40, UltraHD, ntktuf, nestor, The_EviL, PoHHaN, C_Vic, ZeRoNe, donttake, DaviD18_85, Michael0788, Vlamiver, tor30515, dunkin, ork2010, lex077, DoroshDan. За переводы Cербина и Горчакова спасибо ресурсу Е-180. Спонсоры: DB73, пуля, luka69, MyxAmoP, Daniel Rock, ultrajeka, ZeDOK, idalgo, tide, phaeton77, Andrey_Tula, xerman13, rammzez, Эдуард, Loki1982, ValK, zaq-qaz, Chistobaev, ANISKIN50, HPotter, carnivale, Gross1978, Iceman, Skazhutin, semargl, fryak, masta, Petro0999, urassiks, denis_mgn_1987, Foots, Roman Lee, Palmer Eldritch, matrox, Letyoha3, Bilko, Slimka, Tio, STONECOLD, dir, Ramis, Splinter, Foxlight, Hattori, Hanzo, фёдор Александрович, I_Am_Hell, Nadoelo, kinobbk, vik19662007, Daniel Rock, Gross1978, saenwert, User El, Capitai bla, _ Евгений_1, xerman13 +3000, luka69, ZeDOK, Эдуард, uchitel538, ultrajeka, dir, Диммон, Партизан, furria62, STONECOLD, MyxAmoP, masta.

Пустошь Смауга (2013) скачать торрент в хорошем качестве бесплатно

zona-film.com

Подробнее Проф. (полное дублирование) 1,37 ГиБ 24 мар. 2014 г.
Файл: hobbit.pustosh.smauga.2013.d.hdrip.1400mb..torrent Качество: HDRip [Рип с BDRip 720p]Видео: 1076 Kb/s, 720x304Аудио: AC3, 128 Kb/s (2 ch)Примечание: На Эльфийские, Оркские и т.д. диалоги вшиты русские субтитры!
Подробнее Проф. (полное дублирование) 2,05 ГиБ 24 мар. 2014 г.
Подробнее Проф. (полное дублирование) 2,73 ГиБ 24 мар. 2014 г.
Файл: hobbit.pustosh.smauga.2013.d.hdrip.2800mb..torrent Качество: HDRip [Рип с BDRip 720p]Видео: XviD,,2034 Kb/s, 720x304Аудио: AC3, 384 kb/s (6 ch)Примечание: На Эльфийские, Оркские и т.д. диалоги вшиты русские субтитры!
Подробнее Проф. (полное дублирование) 8,35 ГиБ 24 мар. 2014 г.
Файл: the.hobbit.the.desolation.of.smaug.2013.bluray.720p..torrent Качество: BDRip (720p)Видео: MPEG-4 AVC, 5522 Кбит/с, 1280x534Аудио: Русский (AC3, 6 ch, 384 Кбит/с), английский (DTS, 6 ch, 1509 Кбит/с)Примечание: На Эльфийские, Оркские и т.д. диалоги вшиты русские субтитры!
Подробнее Проф. (полное дублирование) 17,85 ГиБ 24 мар. 2014 г.
Файл: the.hobbit.the.desolation.of.smaug.2013.1080p..torrent Качество: BDRip (1080p)Видео: MPEG-4 AVC, 13.9 Мбит/с, 1920x800Аудио: Русский (AC3, 6 ch, 384 Кбит/с), английский (DTS, 6 ch, 1509 Кбит/с)Примечание: На Эльфийские, Оркские и т.д. диалоги вшиты русские субтитры!
Подробнее Проф. (чистый звук) 1,46 ГиБ 21 мар. 2014 г.
Файл: hobbit.pustosh.smauga.2013.d.hdrip.1400mb..torrent Качество: HDRip [Рип с BDRip 720p]Видео: XviD, 1156 Kb/s, 720x304Аудио: MP3, 128 Kb/s (2 ch)Примечание: На Эльфийские, Оркские и т.д. диалоги вшиты русские субтитры!
Подробнее Проф. (чистый звук) 2,05 ГиБ 21 мар. 2014 г.
Файл: hobbit.pustosh.smauga.2013.d.hdrip.2100mb..torrent Качество: HDRip [Рип с BDRip 720p]Видео: 1427 Kb/s, 720x304Аудио: AC3, 384 Kb/s (2 ch)Примечание: На Эльфийские, Оркские и т.д. диалоги вшиты русские субтитры!
Подробнее Проф. (чистый звук) 7,88 ГиБ 21 мар. 2014 г.
Файл: the.hobbit.the.desolation.of.smaug.2013.x264.bdrip.720p.torrent Качество: BDRip 720pВидео:MPEG4 AVC ,5038 Kb/s, 1280x534Аудио: Russian:AC3, 384 kb/s (2 ch) / English: DTS, 1509 kb/s (6 ch)Примечание: На Эльфийские, Оркские и т.д. диалоги вшиты русские субтитры!
Подробнее Проф. (чистый звук) 10,82 ГиБ 21 мар. 2014 г.
Файл: the.hobbit.the.desolation.of.smaug.2013.x264.bdrip.1080p..torrent Качество: BDRip (1080p)Видео данные: MPEG-4 AVC, 7900 Кбит/с, 1920x800, 23.976 кадр/сАудио данные: Русский (АС3, 2 ch, 384 Кбит/с), английский (DTS, 6 ch, 1509 Кбит/с)Примечание: На Эльфийские, Оркские и т.д. диалоги вшиты русские субтитры!
Подробнее Проф. (чистый звук) 29,42 ГиБ 21 мар. 2014 г.
Файл: the.hobbit.the.desolation.of.smaug.2013.bdremux.1080p..torrent Качество: Blu-Ray Remux (1080p)Видео: MPEG-4 AVC, 20879 Кбит/с, 1920x1080, 23.976 кадр/сАудио: Русский (АС3, 2 ch, 384 Кбит/с), английский (DTS-HD MA, 8 ch, 4851 Кбит/с)Примечание: На Эльфийские, Оркские и т.д. диалоги вшиты русские субтитры!
Подробнее Проф. (чистый звук) 2,74 ГиБ 20 мар. 2014 г.
Файл: hobbit.pustosh.smauga.2013.d.hdrip.2800mb..torrent Качество: HDRip [Рип с BDRip 720p]Видео: XviD, 2033 Kb/s, 720x304Аудио: AC3, 384 Kb/s (2 ch)Примечание: На Эльфийские, Оркские и т.д. диалоги вшиты русские субтитры!
Подробнее Проф. (полное дублирование) [звук из кинотеатра] 11,14 ГиБ 19 мар. 2014 г.
Файл: the.hobbit.the.desolation.of.smaug.2013.dt.1080p..torrent Качество: BDRip 1080pВидео: MPEG4 (AVC),8191 Kb/s, 1920x800Аудио: Russian: MP3, 192 Kb/s (2 ch) / English: DTS, 1509 kb/s (6 ch)Примечание: Эльфийские, Оркские и т.д. диалоги на вымышленном языке озвучены одноголосным переводом!
Подробнее Проф. (полное дублирование) [звук из кинотеатра] 1,38 ГиБ 19 мар. 2014 г.
Файл: the.hobbit.the.desolation.of.smaug.2013.dt.hdrip.1400mb..torrent Качество: HDRip [Рип с BDRip 720p]Видео: XviD,1086 Kb/s, 720x304Аудио: MP3, 128 Kb/s (2 ch)Примечание: Эльфийские, Оркские и т.д. диалоги на вымышленном языке озвучены одноголосным переводом!
Подробнее Проф. (полное дублирование) [звук из кинотеатра] 2,05 ГиБ 19 мар. 2014 г.
Файл: the.hobbit.the.desolation.of.smaug.2013.dt.hdrip.2100mb..torrent Качество: HDRip [Рип с BDRip 720p]Видео: 1616 Kb/s, 720x304Аудио: MP3, 192 Kb/s (2 ch)Примечание: Эльфийские, Оркские и т.д. диалоги на вымышленном языке озвучены одноголосным переводом!
Подробнее Проф. (полное дублирование) [звук из кинотеатра] 7,70 ГиБ 19 мар. 2014 г.
Файл: hobbit.pustosh.smauga.2013.dt.bdrip.720p..torrent Качество: BDRip 720pВидео:MPEG4 AVC ,5038 Kb/s, 1280x534Аудио: Russian: MP3, 192 Kb/s (2 ch) / English: DTS, 1509 kb/s (6 ch)Примечание: Эльфийские, Оркские и т.д. диалоги на вымышленном языке озвучены одноголосным переводом!
Подробнее Проф. (полное дублирование) [звук из кинотеатра] 2,74 ГиБ 19 мар. 2014 г.
Файл: hobbit.pustosh.smauga.2013.dt.hdrip.2800mb..torrent Качество: HDRipВидео данные: XviD, 1771 Кбит/с, 720x304Аудио данные: Русский (MP3, 2 ch, 192 Кбит/с), английский (AC3, 6 ch, 448 Кбит/с)
Подробнее Любительский (одноголосный) 1,35 ГиБ 19 февр. 2014 г.
Подробнее Проф. (полное дублирование) [звук из кинотеатра] 1,37 ГиБ 27 дек. 2013 г.
Подробнее Проф. (полное дублирование) 2,06 ГиБ 25 дек. 2013 г.
Файл: hobbit.2.2013.camrip.proper..torrent Кодек: XviDКачество: CAMRip *PROPER*Видео: 720x384, 23,976 fps, XviD ~ 1578 kbpsЗвук 1: 48 kHz, AC3 Dolby Digital, 2/0 (L,R) ch, ~192 kbps (RUS)Звук 2: 48 kHz, AC3 Dolby Digital, 2/0 (L,R) ch, ~192 kbps (ENG)
Подробнее Проф. (полное дублирование) 2,07 ГиБ 19 дек. 2013 г.
Подробнее Проф. (полное дублирование) 1,46 ГиБ 18 дек. 2013 г.
Подробнее Проф. (полное дублирование) 2,05 ГиБ 18 дек. 2013 г.

Пустошь Смауга через торрент в хорошем качестве бесплатно HDRip-AVC

GeneralUnique ID                                : 213830622589910020397076127055058014141 (0xA0DE47A801050C37A7096FEECB1B8FBD)Complete name                            : D:\рипы От R.G. PiratFilms\The.Hobbit.The.Desolation.of.Smaug.2013.EXTENDED.HDRip-AVC.by.White Smoke.R.G.PiratFilms.mkvFormat                                   : MatroskaFormat version                           : Version 4 / Version 2File size                                : 2.82 GiBDuration                                 : 3h 6mnOverall bit rate                         : 2 166 KbpsEncoded date                             : UTC 2014-10-26 20:16:45Writing application                      : mkvmerge v6.8.0 ('Theme for Great Cities') 64bit built on Mar  2 2014 21:34:26Writing library                          : libebml v1.3.0 + libmatroska v1.4.1

VideoID                                       : 1Format                                   : AVCFormat/Info                              : Advanced Video CodecFormat profile                           : [email protected] settings, CABAC                   : YesFormat settings, ReFrames                : 12 framesCodec ID                                 : V_MPEG4/ISO/AVCDuration                                 : 3h 6mnBit rate                                 : 1 781 KbpsWidth                                    : 1 024 pixelsHeight                                   : 426 pixelsDisplay aspect ratio                     : 2.40:1Frame rate                               : 23.976 fpsColor space                              : YUVChroma subsampling                       : 4:2:0Bit depth                                : 8 bitsScan type                                : ProgressiveBits/(Pixel*Frame)                       : 0.170Stream size                              : 2.27 GiB (80%)Writing library                          : x264 core 142 r2431 ac76440Encoding settings                        : cabac=1 / ref=12 / deblock=1:-3:-3 / analyse=0x3:0x113 / me=umh / subme=9 / psy=1 / psy_rd=1.00:0.00 / mixed_ref=1 / me_range=32 / chroma_me=1 / trellis=1 / 8x8dct=1 / cqm=0 / deadzone=21,11 / fast_pskip=1 / chroma_qp_offset=-2 / threads=12 / lookahead_threads=3 / sliced_threads=0 / nr=0 / decimate=1 / interlaced=0 / bluray_compat=0 / constrained_intra=0 / bframes=10 / b_pyramid=2 / b_adapt=2 / b_bias=10 / direct=1 / weightb=0 / open_gop=0 / weightp=2 / keyint=240 / keyint_min=23 / scenecut=40 / intra_refresh=0 / rc_lookahead=40 / rc=2pass / mbtree=1 / bitrate=1781 / ratetol=1.0 / qcomp=0.65 / qpmin=0 / qpmax=69 / qpstep=4 / cplxblur=20.0 / qblur=0.5 / ip_ratio=1.40 / aq=1:1.00Language                                 : EnglishDefault                                  : YesForced                                   : No

AudioID                                       : 2Format                                   : AC-3Format/Info                              : Audio Coding 3Mode extension                           : CM (complete main)Codec ID                                 : A_AC3Duration                                 : 3h 6mnBit rate mode                            : ConstantBit rate                                 : 384 KbpsChannel(s)                               : 6 channelsChannel positions                        : Front: L C R, Side: L R, LFESampling rate                            : 48.0 KHzBit depth                                : 16 bitsCompression mode                         : LossyStream size                              : 512 MiB (18%)Language                                 : RussianDefault                                  : NoForced                                   : No

TextID                                       : 3Format                                   : UTF-8Codec ID                                 : S_TEXT/UTF8Codec ID/Info                            : UTF-8 Plain TextLanguage                                 : RussianDefault                                  : YesForced                                   : No

piratbit.ru

Пустошь Смауга через торрент в хорошем качестве бесплатно WEB-DLRip

piratbit.ru

Раздают: 2 [ 0 KB/s ]
Размер: 2.73 GB | Добавлен: 3 года назад | Торрент скачан:1325 раз
Реклама Дарим 3000 рублей за регистрацию, не упусти свой шанс получить шикарный бонус!!!

21-10-2014 06:53 Хоббит: Пустошь Смауга Скачать торрент  

Хоббит: Пустошь Смауга / The Hobbit: The Desolation of Smaug Год выпуска: 2013Страна: США, Новая ЗеландияЖанр: фэнтези, приключенияПродолжительность: 03:06:32Перевод: Дубляж - [iTunes] Субтитры: Russian (forced) - вшиты только на речь Орков и ЭльфовРежиссер: Питер Джексон / Peter JacksonВ ролях: Мартин Фриман (Bilbo), Ричард Армитедж (Thorin), Иэн МакКеллен (Gandalf), Эванджелин Лилли (Tauriel), Орландо Блум (Legolas), Люк Эванс (Bard / Girion), Бенедикт Камбербэтч (Smaug / Necromancer), Ли Пейс (Thranduil), Кен Стотт (Balin), Эйдан Тернер (Kili), Грэм МакТавиш (Dwalin), Джеймс Несбитт (Bofur)Описание: Продолжение путешествия хоббита Бильбо Бэггинса, волшебника Гэндальфа и 13 отважных гномов. Их компания обязана завершить своё путешествие к Одинокой горе. Там они должны встретиться с величайшей опасностью из всех - созданием куда более ужасающим, чем все их прошлые противники, которое проверит на прочность не только их мужество, но крепость их дружбы и правильность выбранного пути, - драконом Смаугом.Рейтингkinopoisk.ru: 8.206 (109 751)imdb.com: 8.10 (326 137)MPAA: PG-13 - Детям до 13 лет просмотр не желателенПримечание: EXTENDED - Расширенная режиссерская версия, длиннее театральной на 25 минут! Полный лицензионный дублированный перевод!Качество: WEB-DLRipФормат: AVIВидео кодек: XviDАудио кодек:AC3Видео: 1706 Кбит/с, 720x304, 23,976 fpsАудио: AC3 / 5.1 / 48 kHz / 384 kbps / 16 bit Срочно! Нужна помощь! Жмите Скачать Хоббит: Пустошь Смауга через торрент http://pic.pb.wtf/images/7/9oca4.jpg Скачать фильм Хоббит: Пустошь Смауга через торрент бесплантно в хорошем качестве Описание: Продолжение путешествия хоббита Бильбо Бэггинса, волшебника Гэндальфа и 13 отважных гномов. Их компания обязана завершить своё ... 2014-10-21 06:53 9.7 10 44

Loading...

Loading...

% Раздел Тема Автор DL S | L
Фильмы (Blu-ray, BD-Remux, HDDVD) [ 40.43 GB ] Хоббит: Пустошь Смауга / The Hobbit: The Desolation of Smaug [2013 Новая Зеландия Blu-ray CEE 1080p] [Extended Edition] Dub + Sub Rus Eng + Original Eng voovaz Скачать
Фильмы [HD 720p, 1080p] (Хороший звук DUB, MVO) [ 10 GB ] Хоббит: Пустошь Смауга / The Hobbit: The Desolation of Smaug [2013 BDRip 720p] DUB+2xAVO _denis_100 Скачать
3D Фильмы [ 17.42 GB ] Хоббит: Пустошь Смауга / The Hobbit: The Desolation of Smaug [2013 BDrip 1080p] OverUnder / Вертикальная стереопара serega768 Скачать
Фильмы [HD 720p, 1080p] (Хороший звук DUB, MVO) [ 13.62 GB ] Хоббит: Пустошь Смауга / The Hobbit: The Desolation of Smaug [2013 BDRip 1080p DUB / EXTENDED - Расширенная режиссерская версия] Ворон Скачать
Фильмы (Blu-ray, BD-Remux, HDDVD) [ 64.79 GB ] Хоббит: Пустошь Смауга / The Hobbit: The Desolation of Smaug [Extrended Edition] [2013 Blu-Ray 3D] [] + Original + Sub Messa-fan Скачать
Фильмы (Blu-ray, BD-Remux, HDDVD) [ 36.38 GB ] Хоббит: Пустошь Смауга / The Hobbit: The Desolation of Smaug [2013 BDRemux DUB / EXTENDED - Расширенная режиссерская версия] Ворон Скачать
Фильмы 2013 [DVDrip, WEB-DLRip, HDrip] [ 2.82 GB ] Хоббит: Пустошь Смауга / The Hobbit: The Desolation of Smaug [2013 Новая Зеландия HDRip-AVC] ] / EXTENDED - Расширенная режиссерская версия] От R.G. PiratFilms White Smoke Скачать

Последний раз редактировалось: Ворон (2014-10-23 08:58), всего редактировалось 2 раз(а)

Рекламный пират

21-10-2014 08:13 Хоббит: Пустошь Смауга Скачать торрент  

Давно ждал!

21-10-2014 09:14 Хоббит: Пустошь Смауга Скачать торрент  

Молодцы, что есть дубляж и на расширенную версию тоже. Пусть также будет на 3 часть!)))

21-10-2014 09:57 Хоббит: Пустошь Смауга Скачать торрент  

Цитата:

Субтитры: ussian (forced)

Исправь пожалуйста на Russian (forced)
KRaven писал(а):

Спс

21-10-2014 11:23 Хоббит: Пустошь Смауга Скачать торрент  

Спасибо!!! А 720р будет??

21-10-2014 11:35 Хоббит: Пустошь Смауга Скачать торрент  

Спасибо! Будем ждать качество получше!

21-10-2014 11:39 Хоббит: Пустошь Смауга Скачать торрент  

21-10-2014 11:55 Хоббит: Пустошь Смауга Скачать торрент  

Спасибо!

23-10-2014 11:33 Хоббит: Пустошь Смауга Скачать торрент  

Raven писал(а):

[qpost=undefined]пока макс.качество что есть на эту версию, когда будет блюрей хз.

Уже есть рип 1080p с блюрея;)

Pекламный агент PB

Дорогой пользователь! Огромная просьба, поблагодарите релизера, оцените раздачу и оставьте свои комментарий, если Вы скачали Хоббит: Пустошь Смауга через торрент бесплатно! Внесите свою лепту в развитие PiratBit!

Комментировать посты могут только пользователи прошедшие не сложную регистрацию

Хоббит: Пустошь Смауга через торрент Скачать бесплатно Хоббит: Пустошь Смауга Хоббит: Пустошь Смауга скачать торрент Хоббит: Пустошь Смауга смотреть онлайн Cкачать фильм Хоббит: Пустошь Смауга бесплатно Хоббит: Пустошь Смауга скачать торрент в хорошем качестве Хоббит: Пустошь Смауга смотреть онлайн бесплатно в хорошем качестве

Вы не можете начинать темыВы не можете отвечать на сообщенияВы не можете редактировать свои сообщенияВы не можете удалять свои сообщенияВы не можете голосовать в опросахВы не можете прикреплять файлы к сообщениямВы можете скачивать файлы

rutor.org :: Хоббит: Пустошь Смауга / The Hobbit: The Desolation of Smaug (2013) | EXTENDED

main-rutor.org

Информация о фильмеНазвание: Хоббит: Пустошь СмаугаОригинальное название: The Hobbit: The Desolation of SmaugГод выхода: 2013Жанр: фэнтези, приключенияРежиссер: Питер ДжексонВ ролях: Мартин Фриман, Ричард Армитедж, Иэн МакКеллен, Эванджелин Лилли, Орландо Блум, Люк Эванс, Бенедикт Камбербэтч, Ли Пейс, Кен Стотт, Эйдан Тернер

О фильме: Продолжение путешествия хоббита Бильбо Бэггинса, волшебника Гэндальфа и 13 отважных гномов. Их компания обязана завершить своё путешествие к Одинокой горе. Там они должны встретиться с величайшей опасностью из всех — созданием куда более ужасающим, чем все их прошлые противники, которое проверит на прочность не только их мужество, но крепость их дружбы и правильность выбранного пути, — драконом Смаугом.

Страна: США, Новая ЗеландияПродолжительность: 03:06:32Перевод: Дубляж, лицензия

ФайлКодек: AVCКачество: BDRip 1080pВидео: 1920x800, 59.940 fps, 9513 KbpsЗвук: AC-3, 6 ch, 448 Kbps, 48000 Hz (Дубляж) AC-3, 6 ch, 640 Kbps, 48000 Hz (оригинал)Субтитры: Русские, английские, украинские

Семпл

х264

x264 [info]: frame I:3906 Avg QP:14.87 size:171488 x264 [info]: frame P:185979 Avg QP:17.50 size: 43082 x264 [info]: frame B:481193 Avg QP:20.46 size: 10237

MediaInfo

General Unique ID : 193846184650792107902436986862242947804 (0x91D56ACB27FD86E195583C3966B8E2DC) Complete name : J:60FPSThe Hobbit. The Desolation of SmaugThe Hobbit. The Desolation of Smaug [60FPS by ZHz].mkv Format : Matroska Format version : Version 4 / Version 2 File size : 14.1 GiB Duration : 3h 6mn Overall bit rate : 10.8 Mbps Movie name : The Hobbit: The Desolation of Smaug (2013) [Extended Edition] - BDRip 720p от Neofilm Encoded date : UTC 2014-12-08 09:03:09 Writing application : mkvmerge v7.3.0 ('Nouages') 64bit built on Oct 22 2014 18:53:34 Writing library : libebml v1.3.0 + libmatroska v1.4.1 DURATION : 03:05:29.762000000 NUMBER_OF_FRAMES : 2282 NUMBER_OF_BYTES : 71994 _STATISTICS_WRITING_APP : mkvmerge v7.3.0 ('Nouages') 64bit built on Oct 22 2014 18:53:34 _STATISTICS_WRITING_DATE_UTC : 2014-12-08 09:03:09 _STATISTICS_TAGS : BPS DURATION NUMBER_OF_FRAMES NUMBER_OF_BYTES

Video ID : 1 Format : AVC Format/Info : Advanced Video Codec Format profile : [email protected] Format settings, CABAC : Yes Format settings, ReFrames : 5 frames Codec ID : V_MPEG4/ISO/AVC Duration : 3h 6mn Bit rate : 9 513 Kbps Width : 1 920 pixels Height : 800 pixels Display aspect ratio : 2.40:1 Frame rate mode : Constant Frame rate : 59.880 fps Original frame rate : 59.940 fps Color space : YUV Chroma subsampling : 4:2:0 Bit depth : 8 bits Scan type : Progressive Bits/(Pixel*Frame) : 0.103 Stream size : 12.4 GiB (88%) Writing library : x264 core 130 r2273 b3065e6 Encoding settings : cabac=1 / ref=5 / deblock=1:-1:-1 / analyse=0x3:0x111 / me=esa / subme=6 / psy=1 / psy_rd=1.00:0.15 / mixed_ref=1 / me_range=4 / chroma_me=1 / trellis=2 / 8x8dct=1 / cqm=0 / deadzone=21,11 / fast_pskip=1 / chroma_qp_offset=-3 / threads=12 / lookahead_threads=3 / sliced_threads=0 / nr=0 / decimate=1 / interlaced=0 / bluray_compat=0 / constrained_intra=0 / bframes=4 / b_pyramid=2 / b_adapt=2 / b_bias=0 / direct=1 / weightb=1 / open_gop=0 / weightp=2 / keyint=250 / keyint_min=25 / scenecut=40 / intra_refresh=0 / rc_lookahead=50 / rc=crf / mbtree=1 / crf=16.0 / qcomp=0.60 / qpmin=0 / qpmax=69 / qpstep=4 / vbv_maxrate=50000 / vbv_bufsize=50000 / crf_max=0.0 / nal_hrd=none / ip_ratio=1.40 / aq=1:1.00 Language : English Default : Yes Forced : No DURATION : 03:06:35.829000000 NUMBER_OF_FRAMES : 671078 NUMBER_OF_BYTES : 13608041546 _STATISTICS_WRITING_APP : mkvmerge v7.3.0 ('Nouages') 64bit built on Oct 22 2014 18:53:34 _STATISTICS_WRITING_DATE_UTC : 2014-12-08 09:03:09 _STATISTICS_TAGS : BPS DURATION NUMBER_OF_FRAMES NUMBER_OF_BYTES

Audio #1 ID : 2 Format : AC-3 Format/Info : Audio Coding 3 Mode extension : CM (complete main) Format settings, Endianness : Big Codec ID : A_AC3 Duration : 3h 6mn Bit rate mode : Constant Bit rate : 448 Kbps Channel(s) : 6 channels Channel positions : Front: L C R, Side: L R, LFE Sampling rate : 48.0 KHz Bit depth : 16 bits Compression mode : Lossy Stream size : 598 MiB (4%) Title : Dub Language : Russian Default : Yes Forced : Yes

Audio #2 ID : 3 Format : AC-3 Format/Info : Audio Coding 3 Mode extension : CM (complete main) Format settings, Endianness : Big Codec ID : A_AC3 Duration : 3h 6mn Bit rate mode : Constant Bit rate : 640 Kbps Channel(s) : 6 channels Channel positions : Front: L C R, Side: L R, LFE Sampling rate : 48.0 KHz Bit depth : 16 bits Compression mode : Lossy Stream size : 854 MiB (6%) Language : English Default : No Forced : No

Text #1 ID : 4 Format : UTF-8 Codec ID : S_TEXT/UTF8 Codec ID/Info : UTF-8 Plain Text Title : Forced Language : Russian Default : Yes Forced : Yes

Text #2 ID : 5 Format : UTF-8 Codec ID : S_TEXT/UTF8 Codec ID/Info : UTF-8 Plain Text Language : Russian Default : No Forced : No

Text #3 ID : 6 Format : UTF-8 Codec ID : S_TEXT/UTF8 Codec ID/Info : UTF-8 Plain Text Language : Ukrainian Default : No Forced : No

Text #4 ID : 7 Format : UTF-8 Codec ID : S_TEXT/UTF8 Codec ID/Info : UTF-8 Plain Text Language : English Default : No Forced : No

Text #5 ID : 8 Format : UTF-8 Codec ID : S_TEXT/UTF8 Codec ID/Info : UTF-8 Plain Text Title : SDH Language : English Default : No Forced : No

Menu 00:00:00.000 : en:1 00:07:33.000 : en:2 00:12:00.000 : en:3 00:12:59.000 : en:4 00:15:55.000 : en:5 00:20:56.000 : en:6 00:23:15.000 : en:7 00:25:52.000 : en:8 00:29:59.000 : en:9 00:38:14.000 : en:10 00:46:43.000 : en:11 00:49:46.000 : en:12 00:53:19.000 : en:13 00:55:10.000 : en:14 00:58:07.000 : en:15 01:08:42.000 : en:16 01:12:22.000 : en:17 01:15:45.000 : en:18 01:19:10.000 : en:19 01:22:46.000 : en:20 01:25:09.000 : en:21 01:28:07.000 : en:22 01:31:15.000 : en:23 01:36:02.000 : en:24 01:37:35.000 : en:25 01:40:35.000 : en:26 01:45:16.000 : en:27 01:48:44.000 : en:28 01:50:31.000 : en:29 01:52:36.000 : en:30 01:53:08.000 : en:31 01:59:16.000 : en:32 02:07:11.000 : en:33 02:07:39.000 : en:34 02:09:22.000 : en:35 02:12:48.000 : en:36 02:22:00.000 : en:37 02:22:43.000 : en:38 02:23:17.000 : en:39 02:24:56.000 : en:40 02:26:45.000 : en:41 02:29:18.000 : en:42 02:33:12.000 : en:43 02:34:57.000 : en:44 02:36:13.000 : en:45 02:37:45.000 : en:46 02:39:08.000 : en:47 02:41:39.000 : en:48 02:44:06.000 : en:49 02:51:16.000 : en:50 02:56:05.000 : en:51

Bitrate Viewer

Релиз от:


Смотрите также