Скачать логан режиссерская версия торрент


rutor.org :: Логан / Logan (2017) BDRip 1080p

main-rutor.org

Информация о фильмеНазвание: ЛоганОригинальное название: LoganГод выхода: 2017Жанр: Фантастика, Боевик, Триллер, ДрамаРежиссер: Джеймс МэнголдВ ролях: Хью Джекман, Патрик Стюарт, Дафни Кин, Бойд Холбрук, Стивен Мерчант, Элизабет Родригес, Ричард Э. Грант, Эрик Ла Салль, Элиз Нил, Куинси Фаус

О фильме: В недалеком будущем уставший от жизни Логан заботится о больном профессоре Икс, который прячется неподалеку от мексиканской границы. Но Логан больше не сможет скрывать свое прошлое, когда встретится с юным мутантом, которого преследуют темные силы.

Страна: СШАПродолжительность: 02:17:23Перевод: Дублированный (iTunes)

ФайлИсточник: Blu-rayКачество: BDRip 1080pФормат: MKVВидео: AVC/H.264, 1920x808 (16:9), 59.940 fps, ~13.2 MbpsАудио 1: AC-3, 48.0 KHz, 6 ch, 384 Kbps | РусскийАудио 2: DTS-HD MA, 48.0 KHz, 8 ch, 4899 Kbps | АнглийскийСубтитры 1: Русский (форс., полные)Субтитры 2: Английский (regular, SDH)

MediaInfo

General Unique ID : 191270333842741232670793853192581472165 (0x8FE5538B275CCAE784B81A1EF958DFA5) Complete name : Логан.mkv Format : Matroska Format version : Version 4 / Version 2 File size : 12.7 GiB Duration : 2 h 17 min Overall bit rate : 13.2 Mb/s Movie name : Logan Encoded date : UTC 2017-05-30 04:14:52 Writing application : mkvmerge v10.0.0 ('To Drown In You') 64bit Writing library : libebml v1.3.4 + libmatroska v1.4.5 Cover : Yes Attachments : cover.png

Video ID : 1 Format : AVC Format/Info : Advanced Video Codec Format profile : [email protected] Format settings, CABAC : Yes Format settings, ReFrames : 4 frames Codec ID : V_MPEG4/ISO/AVC Duration : 2 h 17 min Bit rate : 8 000 kb/s Width : 1 920 pixels Height : 808 pixels Display aspect ratio : 2.40:1 Frame rate mode : Constant Frame rate : 59.940 (59940/1000) FPS Color space : YUV Chroma subsampling : 4:2:0 Bit depth : 8 bits Scan type : Progressive Bits/(Pixel*Frame) : 0.086 Stream size : 7.62 GiB (60%) Writing library : x264 core 146 r2538 121396c Encoding settings : cabac=1 / ref=3 / deblock=1:0:0 / analyse=0x3:0x113 / me=umh / subme=9 / psy=1 / psy_rd=1.00:0.20 / mixed_ref=1 / me_range=32 / chroma_me=1 / trellis=2 / 8x8dct=1 / cqm=0 / deadzone=21,11 / fast_pskip=0 / chroma_qp_offset=-3 / threads=12 / lookahead_threads=3 / sliced_threads=0 / nr=0 / decimate=0 / interlaced=0 / bluray_compat=0 / constrained_intra=0 / bframes=16 / b_pyramid=2 / b_adapt=2 / b_bias=0 / direct=3 / weightb=1 / open_gop=0 / weightp=2 / keyint=600 / keyint_min=59 / scenecut=40 / intra_refresh=0 / rc_lookahead=60 / rc=2pass / mbtree=1 / bitrate=8000 / ratetol=1.0 / qcomp=0.60 / qpmin=0 / qpmax=69 / qpstep=4 / cplxblur=20.0 / qblur=0.5 / vbv_maxrate=14000 / vbv_bufsize=14000 / nal_hrd=none / filler=0 / ip_ratio=1.40 / aq=1:1.00 Language : English Default : Yes Forced : No

Audio #1 ID : 2 Format : AC-3 Format/Info : Audio Coding 3 Format settings, Endianness : Big Codec ID : A_AC3 Duration : 2 h 17 min Bit rate mode : Constant Bit rate : 384 kb/s Channel(s) : 6 channels Channel positions : Front: L C R, Side: L R, LFE Sampling rate : 48.0 kHz Frame rate : 31.250 FPS (1536 spf) Bit depth : 16 bits Compression mode : Lossy Stream size : 377 MiB (3%) Title : Дублированный (iTunes) Language : Russian Service kind : Complete Main Default : Yes Forced : No

Audio #2 ID : 3 Format : DTS Format/Info : Digital Theater Systems Format profile : MA / Core Mode : 16 Format settings, Endianness : Big Codec ID : A_DTS Duration : 2 h 17 min Bit rate mode : Variable / Constant Bit rate : 4 899 kb/s / 1 509 kb/s Channel(s) : 8 channels / 6 channels Channel positions : Front: L C R, Side: L R, Back: L R, LFE / Front: L C R, Side: L R, LFE Sampling rate : 48.0 kHz Frame rate : 93.750 FPS (512 spf) Bit depth : 24 bits Compression mode : Lossless / Lossy Stream size : 4.70 GiB (37%) Language : English Default : No Forced : No

Text #1 ID : 4 Format : UTF-8 Codec ID : S_TEXT/UTF8 Codec ID/Info : UTF-8 Plain Text Duration : 2 h 15 min Bit rate : 0 b/s Count of elements : 4 Stream size : 153 Bytes (0%) Title : Форс. Language : Russian Default : Yes Forced : No

Text #2 ID : 5 Format : UTF-8 Codec ID : S_TEXT/UTF8 Codec ID/Info : UTF-8 Plain Text Duration : 2 h 16 min Bit rate : 60 b/s Count of elements : 1378 Stream size : 60.2 KiB (0%) Title : Полные Language : Russian Default : No Forced : No

Text #3 ID : 6 Format : UTF-8 Codec ID : S_TEXT/UTF8 Codec ID/Info : UTF-8 Plain Text Duration : 2 h 13 min Bit rate : 41 b/s Count of elements : 1555 Stream size : 40.8 KiB (0%) Language : English Default : No Forced : No

Text #4 ID : 7 Format : UTF-8 Codec ID : S_TEXT/UTF8 Codec ID/Info : UTF-8 Plain Text Duration : 2 h 13 min Bit rate : 49 b/s Count of elements : 1951 Stream size : 48.7 KiB (0%) Title : SDH Language : English Default : No Forced : No

Menu 00:00:00.000 : :Chapter 01 00:05:35.125 : :Chapter 02 00:09:18.557 : :Chapter 03 00:11:41.158 : :Chapter 04 00:16:23.231 : :Chapter 05 00:20:11.666 : :Chapter 06 00:24:26.714 : :Chapter 07 00:26:11.903 : :Chapter 08 00:30:13.310 : :Chapter 09 00:31:59.125 : :Chapter 10 00:34:56.885 : :Chapter 11 00:39:53.430 : :Chapter 12 00:42:55.572 : :Chapter 13 00:45:03.826 : :Chapter 14 00:47:53.411 : :Chapter 15 00:49:39.559 : :Chapter 16 00:52:14.421 : :Chapter 17 00:54:30.515 : :Chapter 18 00:57:44.210 : :Chapter 19 01:00:10.398 : :Chapter 20 01:03:53.829 : :Chapter 21 01:06:55.510 : :Chapter 22 01:09:54.773 : :Chapter 23 01:13:15.890 : :Chapter 24 01:18:43.591 : :Chapter 25 01:21:50.904 : :Chapter 26 01:25:52.188 : :Chapter 27 01:28:38.813 : :Chapter 28 01:32:41.430 : :Chapter 29 01:35:29.724 : :Chapter 30 01:41:03.431 : :Chapter 31 01:43:39.880 : :Chapter 32 01:49:38.988 : :Chapter 33 01:54:20.561 : :Chapter 34 01:57:00.430 : :Chapter 35 01:59:20.403 : :Chapter 36 02:01:14.432 : :Chapter 37 02:05:09.627 : :Chapter 38 02:06:40.551 : :Chapter 39 02:11:07.859 : :Chapter 40

Скачать торрент Логан / Logan (2017) BDRip 1080p | iTunes

krutor.org

Логан / Logan

Страна: США Производство: 20th Century Fox Film Corporation, Kinberg Genre, Marvel Entertainment, TSG EntertainmentГод выпуска: 2017Жанр: фантастика, боевик, триллер, драмаПродолжительность: 02:17:23

Режиссер: Джеймс МэнголдАвторы сценария: Джеймс Мэнголд, Скотт Фрэнк, Майкл Грин

В ролях: Хью Джекман, Патрик Стюарт, Дафни Кин, Бойд Холбрук, Стивен Мерчант, Элизабет Родригес, Ричард Э. Грант, Эрик Ла Салль

Описание: В недалёком будущем уставший от жизни Логан заботится о больном профессоре Икс, который прячется неподалеку от мексиканской границы. Но Логан больше не сможет скрывать своё прошлое, когда встретится с юным мутантом, которого преследуют тёмные силы...

Перевод: Профессиональный (полное дублирование) | iTunesСубтитры: русские (forced + full), английские, украинские

Качество: BDRip 1080pФормат: M4VВидео кодек: AVCАудио кодек: AAC | АС3Видео №1: 1920x800 (2.40:1), 23.976 fps, MPEG-4 AVC ~8 000 kbps avgВидео №2: 640x266 (2.40:1), 0.005 fps, MPEG-4 AVC ~1 546 bps avg

Аудио №1: 48.0 kHz, Advanced Audio Codec LC, 2/0 (L,R) ch, ~156 kbps | RUSАудио №2: 48.0 kHz, Advanced Audio Codec LC, 2/0 (L,R) ch, ~157 kbps | ENGАудио №3: 48.0 kHz, AC3 Dolby Digital, 3/2 (L,C,R,l,r) + LFE ch, ~384 kbps | RUSАудио №4: 48.0 kHz, AC3 Dolby Digital, 3/2 (L,C,R,l,r) + LFE ch, ~640 kbps | ENGФормат субтитров: Timed text, Apple text

Бюджет: $127 000 000Дата премьеры (мир): 17 февраля 2017Дата премьеры (РФ): 2 марта 2017, «Двадцатый Век Фокс СНГ»

Media Info

General Complete name : Logan (1080p HD).m4v Format : MPEG-4 Codec ID : M4V (M4V /M4A /mp42/isom) File size : 8.97 GiB Duration : 2h 17mn Overall bit rate mode : Variable Overall bit rate : 9 344 Kbps Encoded date : UTC 2017-05-28 09:00:04 Tagged date : UTC 2017-05-28 10:20:46 AppleStoreCatalogID : 1207483880 Vendor : Apple:vendor_id:2017-807682

Video #1 ID : 1 Format : AVC Format/Info : Advanced Video Codec Format profile : [email protected] Format settings, CABAC : Yes Format settings, ReFrames : 4 frames Codec ID : avc1 Codec ID/Info : Advanced Video Coding Duration : 2h 17mn Source duration : 2h 17mn Bit rate : 8 000 Kbps Width : 1 920 pixels Height : 800 pixels Display aspect ratio : 2.40:1 Frame rate mode : Variable Frame rate : 23.976 (24000/1001) fps Minimum frame rate : 23.974 fps Maximum frame rate : 23.981 fps Color space : YUV Chroma subsampling : 4:2:0 Bit depth : 8 bits Scan type : Progressive Bits/(Pixel*Frame) : 0.217 Stream size : 7.67 GiB (86%) Source stream size : 7.67 GiB (86%) Title : Main Program Writing library : x264 core 148 r2708 86b7198 Encoding settings : cabac=1 / ref=4 / deblock=1:-2:-2 / analyse=0x3:0x133 / me=umh / subme=10 / psy=1 / psy_rd=1.00:0.15 / mixed_ref=1 / me_range=32 / chroma_me=1 / trellis=2 / 8x8dct=1 / cqm=0 / deadzone=21,11 / fast_pskip=1 / chroma_qp_offset=-3 / threads=25 / lookahead_threads=6 / sliced_threads=0 / nr=0 / decimate=0 / interlaced=0 / bluray_compat=0 / constrained_intra=0 / bframes=16 / b_pyramid=2 / b_adapt=2 / b_bias=0 / direct=3 / weightb=1 / open_gop=0 / weightp=2 / keyint=240 / keyint_min=24 / scenecut=40 / intra_refresh=0 / rc_lookahead=40 / rc=2pass / mbtree=1 / bitrate=8000 / ratetol=1.0 / qcomp=0.70 / qpmin=0 / qpmax=69 / qpstep=4 / cplxblur=20.0 / qblur=0.5 / ip_ratio=1.40 / aq=1:1.00 Language : English Encoded date : UTC 2017-05-28 09:00:04 Tagged date : UTC 2017-05-28 09:00:37 Color range : Limited Color primaries : BT.709 Transfer characteristics : BT.709 Matrix coefficients : BT.709 Menus : 10,11

Video #2 ID : 11 Format : JPEG Codec ID : jpeg Duration : 2h 17mn Bit rate mode : Variable Bit rate : 1 546 bps Width : 640 pixels Height : 266 pixels Display aspect ratio : 2.40:1 Frame rate mode : Variable Frame rate : 0.005 fps Minimum frame rate : 0.003 fps Maximum frame rate : 0.011 fps Color space : YUV Chroma subsampling : 4:2:0 Bit depth : 8 bits Compression mode : Lossy Bits/(Pixel*Frame) : 1.816 Stream size : 1.47 MiB (0%) Title : Chapter Images Language : English Default : No Encoded date : UTC 2017-05-28 09:01:56 Tagged date : UTC 2017-05-28 09:01:57 Menu For : 1 Audio #1 ID : 2 Format : AAC Format/Info : Advanced Audio Codec Format profile : LC Codec ID : 40 Duration : 2h 17mn Bit rate mode : Variable Bit rate : 156 Kbps Maximum bit rate : 230 Kbps Channel(s) : 2 channels Channel positions : Front: L R Sampling rate : 48.0 KHz Frame rate : 46.875 fps (1024 spf) Compression mode : Lossy Stream size : 154 MiB (2%) Title : Russian Stereo Language : Russian Default : Yes Alternate group : 1 Encoded date : UTC 2017-05-28 09:00:04 Tagged date : UTC 2017-05-28 09:00:39 Fallback From : 4 Subtitles : 6,7 Menus : 10 Audio #2 ID : 3 Format : AAC Format/Info : Advanced Audio Codec Format profile : LC Codec ID : 40 Duration : 2h 17mn Bit rate mode : Variable Bit rate : 157 Kbps Maximum bit rate : 249 Kbps Channel(s) : 2 channels Channel positions : Front: L R Sampling rate : 48.0 KHz Frame rate : 46.875 fps (1024 spf) Compression mode : Lossy Stream size : 154 MiB (2%) Title : English Stereo Language : English Default : No Alternate group : 1 Encoded date : UTC 2017-05-28 09:00:04 Tagged date : UTC 2017-05-28 09:00:39 Fallback From : 5 Audio #3 ID : 4 Format : AC-3 Format/Info : Audio Coding 3 Format settings, Endianness : Big Codec ID : ac-3 Duration : 2h 17mn Bit rate mode : Constant Bit rate : 384 Kbps Channel(s) : 6 channels Channel positions : Front: L C R, Side: L R, LFE Sampling rate : 48.0 KHz Frame rate : 31.250 fps (1536 spf) Bit depth : 16 bits Compression mode : Lossy Stream size : 377 MiB (4%) Title : Russian DD 5.1 Language : Russian Service kind : Complete Main Default : Inherited From: 2 Alternate group : 1 Encoded date : UTC 2017-05-28 09:00:04 Tagged date : UTC 2017-05-28 09:00:11 Fallback To : 2 Subtitles : 6,7 Audio #4 ID : 5 Format : AC-3 Format/Info : Audio Coding 3 Format settings, Endianness : Big Codec ID : ac-3 Duration : 2h 17mn Bit rate mode : Constant Bit rate : 640 Kbps Channel(s) : 6 channels Channel positions : Front: L C R, Side: L R, LFE Sampling rate : 48.0 KHz Frame rate : 31.250 fps (1536 spf) Bit depth : 16 bits Compression mode : Lossy Stream size : 629 MiB (7%) Title : English DD 5.1 Language : English Service kind : Complete Main Default : No Alternate group : 1 Encoded date : UTC 2017-05-28 09:00:04 Tagged date : UTC 2017-05-28 09:00:11 Fallback To : 3 Text #1 ID : 6 Format : Timed Text Muxing mode : sbtl Codec ID : tx3g Duration : 1h 40mn Bit rate mode : Variable Bit rate : 0 bps Stream size : 148 Bytes (0%) Title : Russian forced Language : Russian Default : Yes Forced : Yes Alternate group : 2 Encoded date : UTC 2017-05-28 09:00:04 Tagged date : UTC 2017-05-28 09:01:39 Subtitles For : 2,4 Full Alternative : 7 Text #2 ID : 7 Format : Timed Text Muxing mode : sbtl Codec ID : tx3g Duration : 2h 11mn Bit rate mode : Variable Bit rate : 70 bps Stream size : 67.5 KiB (0%) Title : Russian full Language : Russian Default : No Forced : No Alternate group : 2 Encoded date : UTC 2017-05-28 09:00:04 Tagged date : UTC 2017-05-28 09:01:39 Subtitles For : 2,4 Forced Alternative : 6 Text #3 ID : 8 Format : Timed Text Muxing mode : sbtl Codec ID : tx3g Duration : 2h 14mn Bit rate mode : Variable Bit rate : 50 bps Stream size : 49.0 KiB (0%) Title : English full Language : English Default : No Forced : No Alternate group : 2 Encoded date : UTC 2017-05-28 09:00:04 Tagged date : UTC 2017-05-28 09:01:39 Text #4 ID : 9 Format : Timed Text Muxing mode : sbtl Codec ID : tx3g Duration : 2h 17mn Bit rate mode : Variable Bit rate : 64 bps Stream size : 64.7 KiB (0%) Title : Ukrainian full Language : Ukrainian Default : No Forced : No Alternate group : 2 Encoded date : UTC 2017-05-28 09:00:04 Tagged date : UTC 2017-05-28 09:00:04 Menu #1 00:00:00.000 : Chapter 1 00:05:35.126 : Chapter 2 00:09:18.558 : Chapter 3 00:11:41.159 : Chapter 4 00:16:23.232 : Chapter 5 00:20:11.669 : Chapter 6 00:24:26.090 : Chapter 7 00:26:11.904 : Chapter 8 00:30:12.436 : Chapter 9 00:31:59.126 : Chapter 10 00:34:56.886 : Chapter 11 00:39:53.433 : Chapter 12 00:42:55.573 : Chapter 13 00:45:03.826 : Chapter 14 00:47:53.412 : Chapter 15 00:49:39.560 : Chapter 16 00:52:14.423 : Chapter 17 00:54:30.517 : Chapter 18 00:57:44.211 : Chapter 19 01:00:10.398 : Chapter 20 01:03:53.830 : Chapter 21 01:06:55.512 : Chapter 22 01:09:54.774 : Chapter 23 01:13:15.892 : Chapter 24 01:18:43.093 : Chapter 25 01:21:50.197 : Chapter 26 01:25:52.189 : Chapter 27 01:28:38.814 : Chapter 28 01:32:41.431 : Chapter 29 01:35:29.724 : Chapter 30 01:41:03.432 : Chapter 31 01:43:39.880 : Chapter 32 01:49:38.989 : Chapter 33 01:54:19.895 : Chapter 34 01:57:00.430 : Chapter 35 01:59:20.403 : Chapter 36 02:01:13.600 : Chapter 37 02:05:09.627 : Chapter 38 02:06:40.551 : Chapter 39 02:11:07.860 : Chapter 40 Menu #2 ID : 10 Codec ID : text Duration : 2h 17mn Language : English Encoded date : UTC 2017-05-28 09:01:39 Tagged date : UTC 2017-05-28 09:01:39 Menu For : 2,1 00:00:00.000 : Chapter 1 00:05:35.126 : Chapter 2 00:09:18.558 : Chapter 3 00:11:41.159 : Chapter 4 00:16:23.232 : Chapter 5 00:20:11.669 : Chapter 6 00:24:26.090 : Chapter 7 00:26:11.904 : Chapter 8 00:30:12.436 : Chapter 9 00:31:59.126 : Chapter 10 00:34:56.886 : Chapter 11 00:39:53.433 : Chapter 12 00:42:55.573 : Chapter 13 00:45:03.826 : Chapter 14 00:47:53.412 : Chapter 15 00:49:39.560 : Chapter 16 00:52:14.423 : Chapter 17 00:54:30.517 : Chapter 18 00:57:44.211 : Chapter 19 01:00:10.398 : Chapter 20 01:03:53.830 : Chapter 21 01:06:55.512 : Chapter 22 01:09:54.774 : Chapter 23 01:13:15.892 : Chapter 24 01:18:43.093 : Chapter 25 01:21:50.197 : Chapter 26 01:25:52.189 : Chapter 27 01:28:38.814 : Chapter 28 01:32:41.431 : Chapter 29 01:35:29.724 : Chapter 30 01:41:03.432 : Chapter 31 01:43:39.880 : Chapter 32 01:49:38.989 : Chapter 33 01:54:19.895 : Chapter 34 01:57:00.430 : Chapter 35 01:59:20.403 : Chapter 36 02:01:13.600 : Chapter 37 02:05:09.627 : Chapter 38 02:06:40.551 : Chapter 39 02:11:07.860 : Chapter 40 Bit rate mode : VBR

Дополнительная информация: релиз подготовлен для просмотра на Apple TV, iPad, iPhone, iPod Touch. Для просмотра данного релиза на компьютере с ОС Windows рекомендуется использовать VLC media player

Скачать торрент Логан (2017) бесплатно в хорошем качестве HD 1080

Скачал сам?! Дай скачать другим, не уходи с раздачи!!!

Информация о фильмеНазвание: ЛоганОригинальное название: LoganГод выхода: 2017Жанр: Фантастика, боевик, триллер, драмаРежиссер: Джеймс МэнголдВ ролях: Хью Джекман, Патрик Стюарт, Дафни Кин, Бойд Холбрук, Стивен Мерчант, Элизабет Родригес, Ричард Э. Грант, Эрик Ла Салль, Элиз Нил, Куинси Фаус

О фильме: Логан - сюжет картины разворачивается в отдаленном будущем, в котором Логан и профессор Ксавьер остались без команды Людей Икс. Отныне только они могут дать отпор известной корпорации под руководством Натаниэла Эссекса, в планы которой входит уничтожение мира. Но героев настигли свои напасти, с возрастом Логан начинает заметно терять способность к регенерации, а профессор Ксавьер теряет память из-за прогрессирующей болезни Альцгеймера. Остается последняя надежда на клона Росомахи.

Страна: СШАСтудия: 20th Century Fox Film Corporation, Marvel EntertainmentПродолжительность: 02:17:45Перевод(ы): #1: Дублированный | iTunes#2: Авторский | Дмитрий Есарев#3: Любительский многоголосый | Paradox&Omskbird Records #4: Авторский | Михаил Чадов

ФайлКачество: BDRip 1080pВидео: MPEG-4 AVC, 1920x806, 8916 Kbit/s, 23.976 fpsЗвук: Аудио #01: 48 kHz, AC3, 5.1, 384 Kbps | iTunes | RUS |Аудио #02: 48 kHz, AC3, 5.1, 640 Kbps | Авторский | RUS |Аудио #03: 48 kHz, DTS, 5.1, 1510 Kbps | Paradox&Omskbird Records | RUS |Аудио #04: 48 kHz, DTS, 5.1, 1510 Kbps | Авторский | RUS |Аудио #05: 48 kHz, DTS, 5.1, 1510 Kbps | Оригинал | ENG |Субтитры: Русские (forced, full), украинские, английские

GeneralUnique ID : 172775768497129252550108080022754376835 (0x81FB671230BF7A15B2C101B892EF3C83)Complete name : F:VideoLogan.2017.D.AVO.MVO.BDRip.1080p.ExKinoRay.mkvFormat : MatroskaFormat version : Version 4 / Version 2File size : 13.9 GiBDuration : 2 h 17 minOverall bit rate : 14.5 Mb/sEncoded date : UTC 2017-05-30 14:48:26Writing application : mkvmerge v12.0.0 ('Trust / Lust') 64bitWriting library : libebml v1.3.4 + libmatroska v1.4.5

VideoID : 1Format : AVCFormat/Info : Advanced Video CodecFormat profile : [email protected] settings, CABAC : YesFormat settings, ReFrames : 5 framesCodec ID : V_MPEG4/ISO/AVCDuration : 2 h 17 minBit rate : 8 916 kb/sWidth : 1 920 pixelsHeight : 806 pixelsDisplay aspect ratio : 2.40:1Frame rate mode : ConstantFrame rate : 23.976 FPSColor space : YUVChroma subsampling : 4:2:0Bit depth : 8 bitsScan type : ProgressiveBits/(Pixel*Frame) : 0.240Stream size : 8.55 GiB (62%)Writing library : x264 core 146 r2538 121396cEncoding settings : cabac=1 / ref=5 / deblock=1:-3:-3 / analyse=0x3:0x133 / me=umh / subme=11 / psy=1 / psy_rd=1.05:0.05 / mixed_ref=1 / me_range=64 / chroma_me=1 / trellis=2 / 8x8dct=1 / cqm=0 / deadzone=21,11 / fast_pskip=0 / chroma_qp_offset=-3 / threads=6 / lookahead_threads=1 / sliced_threads=0 / nr=0 / decimate=0 / interlaced=0 / bluray_compat=0 / constrained_intra=0 / bframes=8 / b_pyramid=2 / b_adapt=2 / b_bias=0 / direct=3 / weightb=1 / open_gop=0 / weightp=2 / keyint=240 / keyint_min=23 / scenecut=40 / intra_refresh=0 / rc_lookahead=50 / rc=2pass / mbtree=0 / bitrate=8916 / ratetol=1.0 / qcomp=0.60 / qpmin=0 / qpmax=69 / qpstep=4 / cplxblur=20.0 / qblur=0.5 / vbv_maxrate=50000 / vbv_bufsize=62500 / nal_hrd=none / filler=0 / ip_ratio=1.40 / pb_ratio=1.30 / aq=1:0.80Language : EnglishDefault : YesForced : No

Audio #1ID : 2Format : AC-3Format/Info : Audio Coding 3Format settings, Endianness : BigCodec ID : A_AC3Duration : 2 h 17 minBit rate mode : ConstantBit rate : 384 kb/sChannel(s) : 6 channelsChannel positions : Front: L C R, Side: L R, LFESampling rate : 48.0 kHzFrame rate : 31.250 FPS (1536 spf)Bit depth : 16 bitsCompression mode : LossyStream size : 377 MiB (3%)Title : iTunesLanguage : RussianService kind : Complete MainDefault : YesForced : No

Audio #2ID : 3Format : AC-3Format/Info : Audio Coding 3Format settings, Endianness : BigCodec ID : A_AC3Duration : 2 h 17 minBit rate mode : ConstantBit rate : 640 kb/sChannel(s) : 6 channelsChannel positions : Front: L C R, Side: L R, LFESampling rate : 48.0 kHzFrame rate : 31.250 FPS (1536 spf)Bit depth : 16 bitsCompression mode : LossyStream size : 629 MiB (4%)Title : AVO [Yesarev]Language : RussianService kind : Complete MainDefault : NoForced : No

Audio #3ID : 4Format : DTSFormat/Info : Digital Theater SystemsMode : 16Format settings, Endianness : BigCodec ID : A_DTSDuration : 2 h 17 minBit rate mode : ConstantBit rate : 1 510 kb/sChannel(s) : 6 channelsChannel positions : Front: L C R, Side: L R, LFESampling rate : 48.0 kHzFrame rate : 93.750 FPS (512 spf)Bit depth : 24 bitsCompression mode : LossyStream size : 1.45 GiB (10%)Title : MVOLanguage : RussianDefault : NoForced : No

Audio #4ID : 5Format : DTSFormat/Info : Digital Theater SystemsMode : 16Format settings, Endianness : BigCodec ID : A_DTSDuration : 2 h 17 minBit rate mode : ConstantBit rate : 1 510 kb/sChannel(s) : 6 channelsChannel positions : Front: L C R, Side: L R, LFESampling rate : 48.0 kHzFrame rate : 93.750 FPS (512 spf)Bit depth : 24 bitsCompression mode : LossyStream size : 1.45 GiB (10%)Title : AVO [Chadov]Language : RussianDefault : NoForced : No

Audio #5ID : 6Format : DTSFormat/Info : Digital Theater SystemsMode : 16Format settings, Endianness : BigCodec ID : A_DTSDuration : 2 h 17 minBit rate mode : ConstantBit rate : 1 509 kb/sChannel(s) : 6 channelsChannel positions : Front: L C R, Side: L R, LFESampling rate : 48.0 kHzFrame rate : 93.750 FPS (512 spf)Bit depth : 24 bitsCompression mode : LossyStream size : 1.45 GiB (10%)Title : OriginalLanguage : EnglishDefault : NoForced : No

Text #1ID : 7Format : UTF-8Codec ID : S_TEXT/UTF8Codec ID/Info : UTF-8 Plain TextDuration : 2 h 15 minBit rate : 0 b/sCount of elements : 4Stream size : 153 Bytes (0%)Title : ForcedLanguage : RussianDefault : YesForced : No

Text #2ID : 8Format : UTF-8Codec ID : S_TEXT/UTF8Codec ID/Info : UTF-8 Plain TextDuration : 2 h 16 minBit rate : 60 b/sCount of elements : 1378Stream size : 60.2 KiB (0%)Title : FullLanguage : RussianDefault : NoForced : No

Text #3ID : 9Format : UTF-8Codec ID : S_TEXT/UTF8Codec ID/Info : UTF-8 Plain TextDuration : 2 h 16 minBit rate : 59 b/sCount of elements : 1385Stream size : 59.5 KiB (0%)Title : FullLanguage : UkrainianDefault : NoForced : No

Text #4ID : 10Format : UTF-8Codec ID : S_TEXT/UTF8Codec ID/Info : UTF-8 Plain TextDuration : 2 h 13 minBit rate : 41 b/sCount of elements : 1555Stream size : 40.8 KiB (0%)Title : FullLanguage : EnglishDefault : NoForced : No

Text #5ID : 11Format : UTF-8Codec ID : S_TEXT/UTF8Codec ID/Info : UTF-8 Plain TextDuration : 2 h 13 minBit rate : 49 b/sCount of elements : 1951Stream size : 48.7 KiB (0%)Title : SDHLanguage : EnglishDefault : NoForced : No

Menu00:00:00.000 : en:00:00:00.00000:05:35.126 : en:00:05:35.12600:09:18.558 : en:00:09:18.55800:11:41.159 : en:00:11:41.15900:16:23.232 : en:00:16:23.23200:20:11.669 : en:00:20:11.66900:24:26.715 : en:00:24:26.71500:26:11.904 : en:00:26:11.90400:30:13.311 : en:00:30:13.31100:31:59.126 : en:00:31:59.12600:34:56.886 : en:00:34:56.88600:39:53.433 : en:00:39:53.43300:42:55.573 : en:00:42:55.57300:45:03.826 : en:00:45:03.82600:47:53.412 : en:00:47:53.41200:49:39.560 : en:00:49:39.56000:52:14.423 : en:00:52:14.42300:54:30.517 : en:00:54:30.51700:57:44.211 : en:00:57:44.21101:00:10.398 : en:01:00:10.39801:03:53.830 : en:01:03:53.83001:06:55.511 : en:01:06:55.51101:09:54.774 : en:01:09:54.77401:13:15.891 : en:01:13:15.89101:18:43.594 : en:01:18:43.59401:21:50.906 : en:01:21:50.90601:25:52.189 : en:01:25:52.18901:28:38.813 : en:01:28:38.81301:32:41.431 : en:01:32:41.43101:35:29.724 : en:01:35:29.72401:41:03.432 : en:01:41:03.43201:43:39.880 : en:01:43:39.88001:49:38.989 : en:01:49:38.98901:54:20.562 : en:01:54:20.56201:57:00.430 : en:01:57:00.43001:59:20.403 : en:01:59:20.40302:01:14.434 : en:02:01:14.43402:05:09.627 : en:02:05:09.62702:06:40.551 : en:02:06:40.55102:11:07.860 : en:02:11:07.860

В авторской и многоголосой озвучке присутствует ненормативная лексика

Поиск торрент раздач, пожалуйста подождите!

ufreetorrent.ru

Скачать торрент Логан / Logan (2017) BDRip 1080p от ExKinoRay | NOIR Edition | D, L, A

Информация о фильмеНазвание: ЛоганОригинальное название: LoganГод выхода: 2017Жанр: Фантастика, боевик, триллер, драмаРежиссер: Джеймс МэнголдВ ролях: Хью Джекман, Патрик Стюарт, Дафни Кин, Бойд Холбрук, Стивен Мерчант, Элизабет Родригес, Ричард Э. Грант, Эрик Ла Салль, Элиз Нил, Куинси Фаус

О фильме:2029 год. Немногие выжившие мутанты объявлены вне закона и ведут тайный образ жизни в тяжких условиях подполья. Постаревший Логан работает извозчиком на лимузине в каких-то потных подмышках мексиканской глубинки, а профессор Чарльз Ксавьер так вообще живет в ржавой цистерне и смотрит "Суперняню" по вечерам. Мирный быт мутантов на пенсии внезапно нарушает маленькая девочка, за которой охотятся бритоголовые молодчики из глубоко законспирированной ячейки американских нацистов. Демонстрируя чудеса глубокого гуманизма в борьбе против гнета и кабалы эксплуататорских классов, Логан должен перевезти свалившееся на голову счастье в безопасное место, остановить генетический геноцид и проложить новый путь в истории всего прогрессивного человечества

Страна: СШАСтудия: 20th Century Fox Film Corporation, Marvel EntertainmentПродолжительность: 02:17:45Перевод(ы): #1: Дублированный | iTunes #2: Любительский многоголосый | Paradox&Omskbird Records #3: Авторский | Михаил Чадов

ФайлКачество: BDRip 1080p | NOIR Edition (черно-белая версия фильма)Видео: MPEG-4 AVC, 1920x804, 15.0 Мbit/s, 23.976 fpsЗвук: Аудио #01: 48 kHz, AC3, 5.1, 384 Kbps | iTunes | RUS |Аудио #02: 48 kHz, DTS, 5.1, 1510 Kbps | Paradox&Omskbird Records | RUS |Аудио #03: 48 kHz, DTS, 5.1, 1510 Kbps | Авторский | RUS |Аудио #04: 48 kHz, DTS, 5.1, 1510 Kbps | Оригинал | ENG |Субтитры: Русские (forced, full), украинские, английские

MI

General Unique ID : 234783413410649000703722077507154550448 (0xB0A1A4008B475F78BE76A01B66DB1EB0) Complete name : F:VideoLogan.2017.NOIR.Edition.BDRip.1080p.ExKinoRay.mkv Format : Matroska Format version : Version 4 / Version 2 File size : 18.3 GiB Duration : 2 h 17 min Overall bit rate : 19.0 Mb/s Encoded date : UTC 2017-05-26 17:00:25 Writing application : mkvmerge v12.0.0 ('Trust / Lust') 64bit Writing library : libebml v1.3.4 + libmatroska v1.4.5

Video ID : 1 Format : AVC Format/Info : Advanced Video Codec Format profile : [email protected] Format settings, CABAC : Yes Format settings, ReFrames : 5 frames Codec ID : V_MPEG4/ISO/AVC Duration : 2 h 17 min Bit rate : 15.0 Mb/s Width : 1 920 pixels Height : 804 pixels Display aspect ratio : 2.40:1 Frame rate mode : Constant Frame rate : 23.976 (24000/1001) FPS Color space : YUV Chroma subsampling : 4:2:0 Bit depth : 8 bits Scan type : Progressive Bits/(Pixel*Frame) : 0.405 Stream size : 14.4 GiB (79%) Writing library : x264 core 148 r2665kMod a01e339 Encoding settings : cabac=1 / ref=5 / deblock=1:-3:-3 / analyse=0x3:0x133 / me=umh / subme=11 / psy=1 / fade_compensate=0.00 / psy_rd=0.85:0.00 / mixed_ref=1 / me_range=48 / chroma_me=1 / trellis=2 / 8x8dct=1 / cqm=0 / deadzone=21,11 / fast_pskip=0 / chroma_qp_offset=-2 / threads=24 / lookahead_threads=4 / sliced_threads=0 / nr=0 / decimate=0 / interlaced=0 / bluray_compat=0 / constrained_intra=0 / fgo=0 / bframes=8 / b_pyramid=2 / b_adapt=2 / b_bias=0 / direct=3 / weightb=1 / open_gop=0 / weightp=2 / keyint=240 / keyint_min=24 / scenecut=40 / intra_refresh=0 / rc=2pass / mbtree=0 / bitrate=15000 / ratetol=1.0 / qcomp=0.70 / qpmin=0 / qpmax=69 / qpstep=4 / cplxblur=20.0 / qblur=0.5 / ip_ratio=1.20 / pb_ratio=1.20 / aq=3:0.80 Language : English Default : Yes Forced : No

Audio #1 ID : 2 Format : AC-3 Format/Info : Audio Coding 3 Format settings, Endianness : Big Codec ID : A_AC3 Duration : 2 h 17 min Bit rate mode : Constant Bit rate : 384 kb/s Channel(s) : 6 channels Channel positions : Front: L C R, Side: L R, LFE Sampling rate : 48.0 kHz Frame rate : 31.250 FPS (1536 spf) Bit depth : 16 bits Compression mode : Lossy Stream size : 377 MiB (2%) Title : Dub [iTunes] Language : Russian Service kind : Complete Main Default : Yes Forced : No

Audio #2 ID : 3 Format : DTS Format/Info : Digital Theater Systems Mode : 16 Format settings, Endianness : Big Codec ID : A_DTS Duration : 2 h 17 min Bit rate mode : Constant Bit rate : 1 510 kb/s Channel(s) : 6 channels Channel positions : Front: L C R, Side: L R, LFE Sampling rate : 48.0 kHz Frame rate : 93.750 FPS (512 spf) Bit depth : 24 bits Compression mode : Lossy Stream size : 1.45 GiB (8%) Title : MVO Language : Russian Default : No Forced : No

Audio #3 ID : 4 Format : DTS Format/Info : Digital Theater Systems Mode : 16 Format settings, Endianness : Big Codec ID : A_DTS Duration : 2 h 17 min Bit rate mode : Constant Bit rate : 1 510 kb/s Channel(s) : 6 channels Channel positions : Front: L C R, Side: L R, LFE Sampling rate : 48.0 kHz Frame rate : 93.750 FPS (512 spf) Bit depth : 24 bits Compression mode : Lossy Stream size : 1.45 GiB (8%) Title : AVO Language : Russian Default : No Forced : No

Audio #4 ID : 5 Format : AC-3 Format/Info : Audio Coding 3 Format settings, Endianness : Big Codec ID : A_AC3 Duration : 2 h 17 min Bit rate mode : Constant Bit rate : 640 kb/s Channel(s) : 6 channels Channel positions : Front: L C R, Side: L R, LFE Sampling rate : 48.0 kHz Frame rate : 31.250 FPS (1536 spf) Bit depth : 16 bits Compression mode : Lossy Stream size : 629 MiB (3%) Title : Original Language : English Service kind : Complete Main Default : No Forced : No

Text #1 ID : 6 Format : UTF-8 Codec ID : S_TEXT/UTF8 Codec ID/Info : UTF-8 Plain Text Duration : 2 h 15 min Bit rate : 0 b/s Count of elements : 4 Stream size : 153 Bytes (0%) Title : forced Language : Russian Default : Yes Forced : No

Text #2 ID : 7 Format : UTF-8 Codec ID : S_TEXT/UTF8 Codec ID/Info : UTF-8 Plain Text Duration : 2 h 16 min Bit rate : 60 b/s Count of elements : 1378 Stream size : 60.2 KiB (0%) Title : Full Language : Russian Default : No Forced : No

Text #3 ID : 8 Format : UTF-8 Codec ID : S_TEXT/UTF8 Codec ID/Info : UTF-8 Plain Text Duration : 2 h 16 min Bit rate : 59 b/s Count of elements : 1385 Stream size : 59.5 KiB (0%) Title : Full Language : Ukrainian Default : No Forced : No

Text #4 ID : 9 Format : UTF-8 Codec ID : S_TEXT/UTF8 Codec ID/Info : UTF-8 Plain Text Duration : 2 h 13 min Bit rate : 41 b/s Count of elements : 1555 Stream size : 40.8 KiB (0%) Title : Full Language : English Default : No Forced : No

Text #5 ID : 10 Format : UTF-8 Codec ID : S_TEXT/UTF8 Codec ID/Info : UTF-8 Plain Text Duration : 2 h 13 min Bit rate : 49 b/s Count of elements : 1951 Stream size : 48.7 KiB (0%) Title : SDH Language : English Default : No Forced : No

Menu 00:00:00.000 : en:00:00:00.000 00:05:35.126 : en:00:05:35.126 00:09:18.558 : en:00:09:18.558 00:11:41.159 : en:00:11:41.159 00:16:23.232 : en:00:16:23.232 00:20:11.669 : en:00:20:11.669 00:24:26.715 : en:00:24:26.715 00:26:11.904 : en:00:26:11.904 00:30:13.311 : en:00:30:13.311 00:31:59.126 : en:00:31:59.126 00:34:56.886 : en:00:34:56.886 00:39:53.433 : en:00:39:53.433 00:42:55.573 : en:00:42:55.573 00:45:03.826 : en:00:45:03.826 00:47:53.412 : en:00:47:53.412 00:49:39.560 : en:00:49:39.560 00:52:14.423 : en:00:52:14.423 00:54:30.517 : en:00:54:30.517 00:57:44.211 : en:00:57:44.211 01:00:10.398 : en:01:00:10.398 01:03:53.830 : en:01:03:53.830 01:06:55.511 : en:01:06:55.511 01:09:54.774 : en:01:09:54.774 01:13:15.891 : en:01:13:15.891 01:18:43.594 : en:01:18:43.594 01:21:50.906 : en:01:21:50.906 01:25:52.189 : en:01:25:52.189 01:28:38.813 : en:01:28:38.813 01:32:41.431 : en:01:32:41.431 01:35:29.724 : en:01:35:29.724 01:41:03.432 : en:01:41:03.432 01:43:39.880 : en:01:43:39.880 01:49:38.989 : en:01:49:38.989 01:54:20.562 : en:01:54:20.562 01:57:00.430 : en:01:57:00.430 01:59:20.403 : en:01:59:20.403 02:01:14.434 : en:02:01:14.434 02:05:09.627 : en:02:05:09.627 02:06:40.551 : en:02:06:40.551 02:11:07.860 : en:02:11:07.860

Примечание

NOIR Edition (черно-белая версия фильма). В авторской и многоголосой озвучке присутствует ненормативная лексика

Релиз от: Автор релиза: Подпишись на меня:

mrutor.org

rutor.org :: Логан / Logan (2017) BDRip 1080p | iTunes

main-rutor.org

Логан / Logan

Страна: США Производство: 20th Century Fox Film Corporation, Kinberg Genre, Marvel Entertainment, TSG EntertainmentГод выпуска: 2017Жанр: фантастика, боевик, триллер, драмаПродолжительность: 02:17:23

Режиссер: Джеймс МэнголдАвторы сценария: Джеймс Мэнголд, Скотт Фрэнк, Майкл Грин

В ролях: Хью Джекман, Патрик Стюарт, Дафни Кин, Бойд Холбрук, Стивен Мерчант, Элизабет Родригес, Ричард Э. Грант, Эрик Ла Салль

Описание: В недалёком будущем уставший от жизни Логан заботится о больном профессоре Икс, который прячется неподалеку от мексиканской границы. Но Логан больше не сможет скрывать своё прошлое, когда встретится с юным мутантом, которого преследуют тёмные силы...

Перевод: Профессиональный (полное дублирование) | iTunesСубтитры: русские (forced + full), английские, украинские

Качество: BDRip 1080pФормат: M4VВидео кодек: AVCАудио кодек: AAC | АС3Видео №1: 1920x800 (2.40:1), 23.976 fps, MPEG-4 AVC ~8 000 kbps avgВидео №2: 640x266 (2.40:1), 0.005 fps, MPEG-4 AVC ~1 546 bps avg

Аудио №1: 48.0 kHz, Advanced Audio Codec LC, 2/0 (L,R) ch, ~156 kbps | RUSАудио №2: 48.0 kHz, Advanced Audio Codec LC, 2/0 (L,R) ch, ~157 kbps | ENGАудио №3: 48.0 kHz, AC3 Dolby Digital, 3/2 (L,C,R,l,r) + LFE ch, ~384 kbps | RUSАудио №4: 48.0 kHz, AC3 Dolby Digital, 3/2 (L,C,R,l,r) + LFE ch, ~640 kbps | ENGФормат субтитров: Timed text, Apple text

Бюджет: $127 000 000Дата премьеры (мир): 17 февраля 2017Дата премьеры (РФ): 2 марта 2017, «Двадцатый Век Фокс СНГ»

Media Info

General Complete name : Logan (1080p HD).m4v Format : MPEG-4 Codec ID : M4V (M4V /M4A /mp42/isom) File size : 8.97 GiB Duration : 2h 17mn Overall bit rate mode : Variable Overall bit rate : 9 344 Kbps Encoded date : UTC 2017-05-28 09:00:04 Tagged date : UTC 2017-05-28 10:20:46 AppleStoreCatalogID : 1207483880 Vendor : Apple:vendor_id:2017-807682

Video #1 ID : 1 Format : AVC Format/Info : Advanced Video Codec Format profile : [email protected] Format settings, CABAC : Yes Format settings, ReFrames : 4 frames Codec ID : avc1 Codec ID/Info : Advanced Video Coding Duration : 2h 17mn Source duration : 2h 17mn Bit rate : 8 000 Kbps Width : 1 920 pixels Height : 800 pixels Display aspect ratio : 2.40:1 Frame rate mode : Variable Frame rate : 23.976 (24000/1001) fps Minimum frame rate : 23.974 fps Maximum frame rate : 23.981 fps Color space : YUV Chroma subsampling : 4:2:0 Bit depth : 8 bits Scan type : Progressive Bits/(Pixel*Frame) : 0.217 Stream size : 7.67 GiB (86%) Source stream size : 7.67 GiB (86%) Title : Main Program Writing library : x264 core 148 r2708 86b7198 Encoding settings : cabac=1 / ref=4 / deblock=1:-2:-2 / analyse=0x3:0x133 / me=umh / subme=10 / psy=1 / psy_rd=1.00:0.15 / mixed_ref=1 / me_range=32 / chroma_me=1 / trellis=2 / 8x8dct=1 / cqm=0 / deadzone=21,11 / fast_pskip=1 / chroma_qp_offset=-3 / threads=25 / lookahead_threads=6 / sliced_threads=0 / nr=0 / decimate=0 / interlaced=0 / bluray_compat=0 / constrained_intra=0 / bframes=16 / b_pyramid=2 / b_adapt=2 / b_bias=0 / direct=3 / weightb=1 / open_gop=0 / weightp=2 / keyint=240 / keyint_min=24 / scenecut=40 / intra_refresh=0 / rc_lookahead=40 / rc=2pass / mbtree=1 / bitrate=8000 / ratetol=1.0 / qcomp=0.70 / qpmin=0 / qpmax=69 / qpstep=4 / cplxblur=20.0 / qblur=0.5 / ip_ratio=1.40 / aq=1:1.00 Language : English Encoded date : UTC 2017-05-28 09:00:04 Tagged date : UTC 2017-05-28 09:00:37 Color range : Limited Color primaries : BT.709 Transfer characteristics : BT.709 Matrix coefficients : BT.709 Menus : 10,11

Video #2 ID : 11 Format : JPEG Codec ID : jpeg Duration : 2h 17mn Bit rate mode : Variable Bit rate : 1 546 bps Width : 640 pixels Height : 266 pixels Display aspect ratio : 2.40:1 Frame rate mode : Variable Frame rate : 0.005 fps Minimum frame rate : 0.003 fps Maximum frame rate : 0.011 fps Color space : YUV Chroma subsampling : 4:2:0 Bit depth : 8 bits Compression mode : Lossy Bits/(Pixel*Frame) : 1.816 Stream size : 1.47 MiB (0%) Title : Chapter Images Language : English Default : No Encoded date : UTC 2017-05-28 09:01:56 Tagged date : UTC 2017-05-28 09:01:57 Menu For : 1 Audio #1 ID : 2 Format : AAC Format/Info : Advanced Audio Codec Format profile : LC Codec ID : 40 Duration : 2h 17mn Bit rate mode : Variable Bit rate : 156 Kbps Maximum bit rate : 230 Kbps Channel(s) : 2 channels Channel positions : Front: L R Sampling rate : 48.0 KHz Frame rate : 46.875 fps (1024 spf) Compression mode : Lossy Stream size : 154 MiB (2%) Title : Russian Stereo Language : Russian Default : Yes Alternate group : 1 Encoded date : UTC 2017-05-28 09:00:04 Tagged date : UTC 2017-05-28 09:00:39 Fallback From : 4 Subtitles : 6,7 Menus : 10 Audio #2 ID : 3 Format : AAC Format/Info : Advanced Audio Codec Format profile : LC Codec ID : 40 Duration : 2h 17mn Bit rate mode : Variable Bit rate : 157 Kbps Maximum bit rate : 249 Kbps Channel(s) : 2 channels Channel positions : Front: L R Sampling rate : 48.0 KHz Frame rate : 46.875 fps (1024 spf) Compression mode : Lossy Stream size : 154 MiB (2%) Title : English Stereo Language : English Default : No Alternate group : 1 Encoded date : UTC 2017-05-28 09:00:04 Tagged date : UTC 2017-05-28 09:00:39 Fallback From : 5 Audio #3 ID : 4 Format : AC-3 Format/Info : Audio Coding 3 Format settings, Endianness : Big Codec ID : ac-3 Duration : 2h 17mn Bit rate mode : Constant Bit rate : 384 Kbps Channel(s) : 6 channels Channel positions : Front: L C R, Side: L R, LFE Sampling rate : 48.0 KHz Frame rate : 31.250 fps (1536 spf) Bit depth : 16 bits Compression mode : Lossy Stream size : 377 MiB (4%) Title : Russian DD 5.1 Language : Russian Service kind : Complete Main Default : Inherited From: 2 Alternate group : 1 Encoded date : UTC 2017-05-28 09:00:04 Tagged date : UTC 2017-05-28 09:00:11 Fallback To : 2 Subtitles : 6,7 Audio #4 ID : 5 Format : AC-3 Format/Info : Audio Coding 3 Format settings, Endianness : Big Codec ID : ac-3 Duration : 2h 17mn Bit rate mode : Constant Bit rate : 640 Kbps Channel(s) : 6 channels Channel positions : Front: L C R, Side: L R, LFE Sampling rate : 48.0 KHz Frame rate : 31.250 fps (1536 spf) Bit depth : 16 bits Compression mode : Lossy Stream size : 629 MiB (7%) Title : English DD 5.1 Language : English Service kind : Complete Main Default : No Alternate group : 1 Encoded date : UTC 2017-05-28 09:00:04 Tagged date : UTC 2017-05-28 09:00:11 Fallback To : 3 Text #1 ID : 6 Format : Timed Text Muxing mode : sbtl Codec ID : tx3g Duration : 1h 40mn Bit rate mode : Variable Bit rate : 0 bps Stream size : 148 Bytes (0%) Title : Russian forced Language : Russian Default : Yes Forced : Yes Alternate group : 2 Encoded date : UTC 2017-05-28 09:00:04 Tagged date : UTC 2017-05-28 09:01:39 Subtitles For : 2,4 Full Alternative : 7 Text #2 ID : 7 Format : Timed Text Muxing mode : sbtl Codec ID : tx3g Duration : 2h 11mn Bit rate mode : Variable Bit rate : 70 bps Stream size : 67.5 KiB (0%) Title : Russian full Language : Russian Default : No Forced : No Alternate group : 2 Encoded date : UTC 2017-05-28 09:00:04 Tagged date : UTC 2017-05-28 09:01:39 Subtitles For : 2,4 Forced Alternative : 6 Text #3 ID : 8 Format : Timed Text Muxing mode : sbtl Codec ID : tx3g Duration : 2h 14mn Bit rate mode : Variable Bit rate : 50 bps Stream size : 49.0 KiB (0%) Title : English full Language : English Default : No Forced : No Alternate group : 2 Encoded date : UTC 2017-05-28 09:00:04 Tagged date : UTC 2017-05-28 09:01:39 Text #4 ID : 9 Format : Timed Text Muxing mode : sbtl Codec ID : tx3g Duration : 2h 17mn Bit rate mode : Variable Bit rate : 64 bps Stream size : 64.7 KiB (0%) Title : Ukrainian full Language : Ukrainian Default : No Forced : No Alternate group : 2 Encoded date : UTC 2017-05-28 09:00:04 Tagged date : UTC 2017-05-28 09:00:04 Menu #1 00:00:00.000 : Chapter 1 00:05:35.126 : Chapter 2 00:09:18.558 : Chapter 3 00:11:41.159 : Chapter 4 00:16:23.232 : Chapter 5 00:20:11.669 : Chapter 6 00:24:26.090 : Chapter 7 00:26:11.904 : Chapter 8 00:30:12.436 : Chapter 9 00:31:59.126 : Chapter 10 00:34:56.886 : Chapter 11 00:39:53.433 : Chapter 12 00:42:55.573 : Chapter 13 00:45:03.826 : Chapter 14 00:47:53.412 : Chapter 15 00:49:39.560 : Chapter 16 00:52:14.423 : Chapter 17 00:54:30.517 : Chapter 18 00:57:44.211 : Chapter 19 01:00:10.398 : Chapter 20 01:03:53.830 : Chapter 21 01:06:55.512 : Chapter 22 01:09:54.774 : Chapter 23 01:13:15.892 : Chapter 24 01:18:43.093 : Chapter 25 01:21:50.197 : Chapter 26 01:25:52.189 : Chapter 27 01:28:38.814 : Chapter 28 01:32:41.431 : Chapter 29 01:35:29.724 : Chapter 30 01:41:03.432 : Chapter 31 01:43:39.880 : Chapter 32 01:49:38.989 : Chapter 33 01:54:19.895 : Chapter 34 01:57:00.430 : Chapter 35 01:59:20.403 : Chapter 36 02:01:13.600 : Chapter 37 02:05:09.627 : Chapter 38 02:06:40.551 : Chapter 39 02:11:07.860 : Chapter 40 Menu #2 ID : 10 Codec ID : text Duration : 2h 17mn Language : English Encoded date : UTC 2017-05-28 09:01:39 Tagged date : UTC 2017-05-28 09:01:39 Menu For : 2,1 00:00:00.000 : Chapter 1 00:05:35.126 : Chapter 2 00:09:18.558 : Chapter 3 00:11:41.159 : Chapter 4 00:16:23.232 : Chapter 5 00:20:11.669 : Chapter 6 00:24:26.090 : Chapter 7 00:26:11.904 : Chapter 8 00:30:12.436 : Chapter 9 00:31:59.126 : Chapter 10 00:34:56.886 : Chapter 11 00:39:53.433 : Chapter 12 00:42:55.573 : Chapter 13 00:45:03.826 : Chapter 14 00:47:53.412 : Chapter 15 00:49:39.560 : Chapter 16 00:52:14.423 : Chapter 17 00:54:30.517 : Chapter 18 00:57:44.211 : Chapter 19 01:00:10.398 : Chapter 20 01:03:53.830 : Chapter 21 01:06:55.512 : Chapter 22 01:09:54.774 : Chapter 23 01:13:15.892 : Chapter 24 01:18:43.093 : Chapter 25 01:21:50.197 : Chapter 26 01:25:52.189 : Chapter 27 01:28:38.814 : Chapter 28 01:32:41.431 : Chapter 29 01:35:29.724 : Chapter 30 01:41:03.432 : Chapter 31 01:43:39.880 : Chapter 32 01:49:38.989 : Chapter 33 01:54:19.895 : Chapter 34 01:57:00.430 : Chapter 35 01:59:20.403 : Chapter 36 02:01:13.600 : Chapter 37 02:05:09.627 : Chapter 38 02:06:40.551 : Chapter 39 02:11:07.860 : Chapter 40 Bit rate mode : VBR

Дополнительная информация: релиз подготовлен для просмотра на Apple TV, iPad, iPhone, iPod Touch. Для просмотра данного релиза на компьютере с ОС Windows рекомендуется использовать VLC media player

Скачать торрент Логан / Logan (2017) BDRip 1080p от New-Team & qqss44

Мы "В КОНТАКТЕ"

Информация о фильмеНазвание: ЛоганОригинальное название: LoganГод выхода: 2017Жанр: Фантастика, боевик, триллер, драмаРежиссер: Джеймс МэнголдВ ролях: Хью Джекман, Патрик Стюарт, Дафни Кин, Бойд Холбрук, Стивен Мерчант, Элизабет Родригес, Ричард Э. Грант, Эрик Ла Салль, Элиз Нил, Куинси Фаус

О фильме: В недалеком будущем уставший от жизни Логан заботится о больном профессоре Икс, который прячется неподалеку от мексиканской границы. Но Логан больше не сможет скрывать свое прошлое, когда встретится с юным мутантом, которого преследуют темные силы.

Страна: СШАСтудия: 20th Century Fox Film Corporation, Marvel EntertainmentПродолжительность: 02:17:23Перевод: Профессиональный (дублированный) || Лицензия ||

ФайлФормат: MKV, BDRip 1080pВидео: MPEG-4 AVC, 7500 Кбит/с, 1920x804Aудио#1: [RUS] AC3 | 48 KHz | 5.1 (Front: L С R Side: L R) + LFE | ~448 kbpsСубтитры: русские форсированныеРелиз от:

МИ

Общее Уникальный идентификатор : 170922574536122538945277363193633763616 (0x80967D8DF0BA5F3198142201A4B2F120) Полное имя : X:�0000Logan.(2017).BDRip.1080p.(qqss44).mkv Формат : Matroska Версия формата : Version 2 Размер файла : 7,56 Гбайт Продолжительность : 2 ч. 17 м. Общий поток : 7882 Кбит/сек Дата кодирования : UTC 2017-06-28 23:35:59 Программа кодирования : mkvmerge v5.8.0 ('No Sleep / Pillow') built on Sep 2 2012 15:37:04 Библиотека кодирования : libebml v1.2.3 + libmatroska v1.3.0

Видео Идентификатор : 1 Формат : AVC Формат/Информация : Advanced Video Codec Профиль формата : [email protected] Параметр CABAC формата : Да Параметр ReFrames формата : 5 кадров Идентификатор кодека : V_MPEG4/ISO/AVC Продолжительность : 2 ч. 17 м. Битрейт : 7440 Кбит/сек Ширина : 1920 пикселей Высота : 804 пикселя Соотношение сторон : 2,40:1 Режим частоты кадров : Постоянный Частота кадров : 23,976 (24000/1001) кадра/сек Цветовое пространство : YUV Субдискретизация насыщенности : 4:2:0 Битовая глубина : 8 бит Тип развёртки : Прогрессивная Бит/(Пиксели*Кадры) : 0.201 Размер потока : 6,98 Гбайт (92%) Заголовок : Logan.(2017).BDRip.1080p.(qqss44) Библиотека кодирования : x264 core 148 r2744kMod b97ae06 Настройки программы : cabac=1 / ref=5 / deblock=1:-3:-3 / analyse=0x3:0x113 / me=umh / subme=11 / psy=1 / fade_compensate=0.00 / psy_rd=1.00:0.00 / mixed_ref=1 / me_range=32 / chroma_me=1 / trellis=2 / 8x8dct=1 / cqm=0 / deadzone=21,11 / fast_pskip=0 / chroma_qp_offset=-2 / threads=12 / lookahead_threads=2 / sliced_threads=0 / nr=0 / decimate=0 / interlaced=0 / bluray_compat=0 / constrained_intra=0 / bframes=9 / b_pyramid=2 / b_adapt=2 / b_bias=0 / direct=3 / weightb=1 / open_gop=0 / weightp=2 / keyint=240 / keyint_min=23 / scenecut=40 / intra_refresh=0 / rc=2pass / mbtree=0 / bitrate=7440 / ratetol=1.0 / qcomp=0.69 / qpmin=0 / qpmax=69 / qpstep=4 / cplxblur=20.0 / qblur=0.5 / ip_ratio=1.40 / pb_ratio=1.30 / aq=3:0.80 Язык : English Default : Да Forced : Нет

Аудио Идентификатор : 2 Формат : AC-3 Формат/Информация : Audio Coding 3 Расширение режима : CM (complete main) Параметр Endianness формата : Big Идентификатор кодека : A_AC3 Продолжительность : 2 ч. 17 м. Вид битрейта : Постоянный Битрейт : 448 Кбит/сек Каналы : 6 каналов Расположение каналов : Front: L C R, Side: L R, LFE Частота : 48,0 КГц Частота кадров : 31,250 кадров/сек (1536 spf) Метод сжатия : С потерями Размер потока : 440 Мбайт (6%) Язык : Russian Default : Да Forced : Нет

Текст Идентификатор : 3 Формат : UTF-8 Идентификатор кодека : S_TEXT/UTF8 Идентификатор кодека/Информация : UTF-8 Plain Text Заголовок : FORCED Язык : Russian Default : Да Forced : Нет

Меню 00:00:00.000 : en:Chapter 01 00:05:35.126 : en:Chapter 02 00:09:18.558 : en:Chapter 03 00:11:41.158 : en:Chapter 04 00:16:23.232 : en:Chapter 05 00:20:11.668 : en:Chapter 06 00:24:26.715 : en:Chapter 07 00:26:11.903 : en:Chapter 08 00:30:13.311 : en:Chapter 09 00:31:59.125 : en:Chapter 10 00:34:56.886 : en:Chapter 11 00:39:53.432 : en:Chapter 12 00:42:55.573 : en:Chapter 13 00:45:03.826 : en:Chapter 14 00:47:53.412 : en:Chapter 15 00:49:39.559 : en:Chapter 16 00:52:14.422 : en:Chapter 17 00:54:30.517 : en:Chapter 18 00:57:44.210 : en:Chapter 19 01:00:10.398 : en:Chapter 20 01:03:53.830 : en:Chapter 21 01:06:55.511 : en:Chapter 22 01:09:54.773 : en:Chapter 23 01:13:15.891 : en:Chapter 24 01:18:43.593 : en:Chapter 25 01:21:50.906 : en:Chapter 26 01:25:52.188 : en:Chapter 27 01:28:38.813 : en:Chapter 28 01:32:41.430 : en:Chapter 29 01:35:29.724 : en:Chapter 30 01:41:03.432 : en:Chapter 31 01:43:39.880 : en:Chapter 32 01:49:38.989 : en:Chapter 33 01:54:20.562 : en:Chapter 34 01:57:00.430 : en:Chapter 35 01:59:20.403 : en:Chapter 36 02:01:14.433 : en:Chapter 37 02:05:09.627 : en:Chapter 38 02:06:40.551 : en:Chapter 39 02:11:07.860 : en:Chapter 40

krutor.org

Скачать торрент Логан (2017) бесплатно в хорошем качестве HD 720

Скачал сам?! Дай скачать другим, не уходи с раздачи!!!

Информация о фильмеНазвание: ЛоганОригинальное название: LoganГод выхода: 2017Жанр: Фантастика, боевик, триллер, драмаРежиссер: Джеймс МэнголдВ ролях: Хью Джекман, Патрик Стюарт, Дафни Кин, Бойд Холбрук, Стивен Мерчант, Элизабет Родригес, Ричард Э. Грант, Эрик Ла Салль, Элиз Нил, Куинси Фаус

О фильме: Логан - сюжет картины разворачивается в отдаленном будущем, в котором Логан и профессор Ксавьер остались без команды Людей Икс. Отныне только они могут дать отпор известной корпорации под руководством Натаниэла Эссекса, в планы которой входит уничтожение мира. Но героев настигли свои напасти, с возрастом Логан начинает заметно терять способность к регенерации, а профессор Ксавьер теряет память из-за прогрессирующей болезни Альцгеймера. Остается последняя надежда на клона Росомахи.

Страна: СШАСтудия: 20th Century Fox Film Corporation, Marvel EntertainmentПродолжительность: 02:17:45Перевод(ы): #1: Дублированный | iTunes#2: Авторский | Дмитрий Есарев#3: Любительский многоголосый | Paradox&Omskbird Records #4: Авторский | Михаил Чадов

ФайлКачество: BDRip 720pВидео: MPEG-4 AVC, 1280x536, 4800 Кbit/s, 23.976 fpsЗвук: Аудио #01: 48 kHz, AC3, 5.1, 384 Kbps | iTunes | RUS |Аудио #02: 48 kHz, AC3, 5.1, 640 Kbps | Авторский | RUS |Аудио #03: 48 kHz, DTS, 5.1, 1510 Kbps | Paradox&Omskbird Records | RUS |Аудио #04: 48 kHz, DTS, 5.1, 1510 Kbps | Авторский | RUS |Аудио #05: 48 kHz, DTS, 5.1, 1510 Kbps | Оригинал | ENG |Субтитры: Русские (forced, full), украинские, английские

GeneralUnique ID : 171598206276787358324225791409285519001 (0x81189CC567A9C3F69E6205E7E91C5699)Complete name : F:VideoLogan.2017.D.AVO.MVO.BDRip.720p.ExKinoRay.mkvFormat : MatroskaFormat version : Version 4 / Version 2File size : 9.93 GiBDuration : 2 h 17 minOverall bit rate : 10.3 Mb/sEncoded date : UTC 2017-05-30 14:55:48Writing application : mkvmerge v12.0.0 ('Trust / Lust') 64bitWriting library : libebml v1.3.4 + libmatroska v1.4.5

VideoID : 1Format : AVCFormat/Info : Advanced Video CodecFormat profile : [email protected] settings, CABAC : YesFormat settings, ReFrames : 12 framesCodec ID : V_MPEG4/ISO/AVCDuration : 2 h 17 minBit rate : 4 800 kb/sWidth : 1 280 pixelsHeight : 536 pixelsDisplay aspect ratio : 2.40:1Frame rate mode : ConstantFrame rate : 23.976 (24000/1001) FPSColor space : YUVChroma subsampling : 4:2:0Bit depth : 8 bitsScan type : ProgressiveBits/(Pixel*Frame) : 0.292Stream size : 4.60 GiB (46%)Writing library : x264 core 146 r2538 121396cEncoding settings : cabac=1 / ref=12 / deblock=1:-3:-3 / analyse=0x3:0x133 / me=umh / subme=11 / psy=1 / psy_rd=1.05:0.05 / mixed_ref=1 / me_range=64 / chroma_me=1 / trellis=2 / 8x8dct=1 / cqm=0 / deadzone=21,11 / fast_pskip=0 / chroma_qp_offset=-3 / threads=6 / lookahead_threads=1 / sliced_threads=0 / nr=0 / decimate=0 / interlaced=0 / bluray_compat=0 / constrained_intra=0 / bframes=8 / b_pyramid=2 / b_adapt=2 / b_bias=0 / direct=3 / weightb=1 / open_gop=0 / weightp=2 / keyint=240 / keyint_min=23 / scenecut=40 / intra_refresh=0 / rc_lookahead=50 / rc=2pass / mbtree=0 / bitrate=4800 / ratetol=1.0 / qcomp=0.60 / qpmin=0 / qpmax=69 / qpstep=4 / cplxblur=20.0 / qblur=0.5 / vbv_maxrate=50000 / vbv_bufsize=62500 / nal_hrd=none / filler=0 / ip_ratio=1.40 / pb_ratio=1.30 / aq=1:0.80Language : EnglishDefault : YesForced : No

Audio #1ID : 2Format : AC-3Format/Info : Audio Coding 3Format settings, Endianness : BigCodec ID : A_AC3Duration : 2 h 17 minBit rate mode : ConstantBit rate : 384 kb/sChannel(s) : 6 channelsChannel positions : Front: L C R, Side: L R, LFESampling rate : 48.0 kHzFrame rate : 31.250 FPS (1536 spf)Bit depth : 16 bitsCompression mode : LossyStream size : 377 MiB (4%)Title : iTunesLanguage : RussianService kind : Complete MainDefault : YesForced : No

Audio #2ID : 3Format : AC-3Format/Info : Audio Coding 3Format settings, Endianness : BigCodec ID : A_AC3Duration : 2 h 17 minBit rate mode : ConstantBit rate : 640 kb/sChannel(s) : 6 channelsChannel positions : Front: L C R, Side: L R, LFESampling rate : 48.0 kHzFrame rate : 31.250 FPS (1536 spf)Bit depth : 16 bitsCompression mode : LossyStream size : 629 MiB (6%)Title : AVO [Yesarev]Language : RussianService kind : Complete MainDefault : NoForced : No

Audio #3ID : 4Format : DTSFormat/Info : Digital Theater SystemsMode : 16Format settings, Endianness : BigCodec ID : A_DTSDuration : 2 h 17 minBit rate mode : ConstantBit rate : 1 510 kb/sChannel(s) : 6 channelsChannel positions : Front: L C R, Side: L R, LFESampling rate : 48.0 kHzFrame rate : 93.750 FPS (512 spf)Bit depth : 24 bitsCompression mode : LossyStream size : 1.45 GiB (15%)Title : MVOLanguage : RussianDefault : NoForced : No

Audio #4ID : 5Format : DTSFormat/Info : Digital Theater SystemsMode : 16Format settings, Endianness : BigCodec ID : A_DTSDuration : 2 h 17 minBit rate mode : ConstantBit rate : 1 510 kb/sChannel(s) : 6 channelsChannel positions : Front: L C R, Side: L R, LFESampling rate : 48.0 kHzFrame rate : 93.750 FPS (512 spf)Bit depth : 24 bitsCompression mode : LossyStream size : 1.45 GiB (15%)Title : AVO [Chadov]Language : RussianDefault : NoForced : No

Audio #5ID : 6Format : DTSFormat/Info : Digital Theater SystemsMode : 16Format settings, Endianness : BigCodec ID : A_DTSDuration : 2 h 17 minBit rate mode : ConstantBit rate : 1 509 kb/sChannel(s) : 6 channelsChannel positions : Front: L C R, Side: L R, LFESampling rate : 48.0 kHzFrame rate : 93.750 FPS (512 spf)Bit depth : 24 bitsCompression mode : LossyStream size : 1.45 GiB (15%)Title : OriginalLanguage : EnglishDefault : NoForced : No

Text #1ID : 7Format : UTF-8Codec ID : S_TEXT/UTF8Codec ID/Info : UTF-8 Plain TextDuration : 2 h 15 minBit rate : 0 b/sCount of elements : 4Stream size : 153 Bytes (0%)Title : ForcedLanguage : RussianDefault : YesForced : No

Text #2ID : 8Format : UTF-8Codec ID : S_TEXT/UTF8Codec ID/Info : UTF-8 Plain TextDuration : 2 h 16 minBit rate : 60 b/sCount of elements : 1378Stream size : 60.2 KiB (0%)Title : FullLanguage : RussianDefault : NoForced : No

Text #3ID : 9Format : UTF-8Codec ID : S_TEXT/UTF8Codec ID/Info : UTF-8 Plain TextDuration : 2 h 16 minBit rate : 59 b/sCount of elements : 1385Stream size : 59.5 KiB (0%)Title : FullLanguage : UkrainianDefault : NoForced : No

Text #4ID : 10Format : UTF-8Codec ID : S_TEXT/UTF8Codec ID/Info : UTF-8 Plain TextDuration : 2 h 13 minBit rate : 41 b/sCount of elements : 1555Stream size : 40.8 KiB (0%)Title : FullLanguage : EnglishDefault : NoForced : No

Text #5ID : 11Format : UTF-8Codec ID : S_TEXT/UTF8Codec ID/Info : UTF-8 Plain TextDuration : 2 h 13 minBit rate : 49 b/sCount of elements : 1951Stream size : 48.7 KiB (0%)Title : SDHLanguage : EnglishDefault : NoForced : No

Menu00:00:00.000 : en:00:00:00.00000:05:35.126 : en:00:05:35.12600:09:18.558 : en:00:09:18.55800:11:41.159 : en:00:11:41.15900:16:23.232 : en:00:16:23.23200:20:11.669 : en:00:20:11.66900:24:26.715 : en:00:24:26.71500:26:11.904 : en:00:26:11.90400:30:13.311 : en:00:30:13.31100:31:59.126 : en:00:31:59.12600:34:56.886 : en:00:34:56.88600:39:53.433 : en:00:39:53.43300:42:55.573 : en:00:42:55.57300:45:03.826 : en:00:45:03.82600:47:53.412 : en:00:47:53.41200:49:39.560 : en:00:49:39.56000:52:14.423 : en:00:52:14.42300:54:30.517 : en:00:54:30.51700:57:44.211 : en:00:57:44.21101:00:10.398 : en:01:00:10.39801:03:53.830 : en:01:03:53.83001:06:55.511 : en:01:06:55.51101:09:54.774 : en:01:09:54.77401:13:15.891 : en:01:13:15.89101:18:43.594 : en:01:18:43.59401:21:50.906 : en:01:21:50.90601:25:52.189 : en:01:25:52.18901:28:38.813 : en:01:28:38.81301:32:41.431 : en:01:32:41.43101:35:29.724 : en:01:35:29.72401:41:03.432 : en:01:41:03.43201:43:39.880 : en:01:43:39.88001:49:38.989 : en:01:49:38.98901:54:20.562 : en:01:54:20.56201:57:00.430 : en:01:57:00.43001:59:20.403 : en:01:59:20.40302:01:14.434 : en:02:01:14.43402:05:09.627 : en:02:05:09.62702:06:40.551 : en:02:06:40.55102:11:07.860 : en:02:11:07.860

В авторской и многоголосой озвучке присутствует ненормативная лексика

Поиск торрент раздач, пожалуйста подождите!

ufreetorrent.ru


Смотрите также