Скачать торрент фильм варкрафт режиссерская версия


Скачать торрент Варкрафт / Warcraft (2016) HDRip-AVC | D

«Два мира - одна судьба»Информация о фильмеНазвание: ВаркрафтОригинальное название: WarcraftГод выхода: 2016Жанр: Фэнтези, боевик, приключенияРежиссер: Данкан ДжонсВ ролях: Трэвис Фиммел, Пола Пэттон, Бен Фостер, Доминик Купер, Тоби Кеббелл, Бен Шнетцер, Роберт Казински, Клэнси Браун, Дэниэл Ву, Рут Негга

Описание фильма: Веками магия и неприступные стены защищали людей от любых напастей. Но древнее зло, побежденное и забытое тысячелетия назад, пробудилось.

В самом сердце королевства открылся темный портал, и раса невиданных существ наводнила земли Азерота. Так начались события, призванные навсегда изменить судьбу этого мира. Выпущено: США, КитайПродолжительность: 02:03:07Озвучивание: Дублированный [Лицензия]Субтитры: Русские (Полные) Отключаемые (UTF-8)

ФайлыКодек: x264Качество: HDRip-AVC \(Исх \| BDRip 1080p\)Видео: 720x296 (2,40:1), 23.976 fps, x264 ~777 kbps avg, 0.152 bit/pixelАудио: 48.0 KHz, AAC-HE, 2 ch, 72 Kbps avgРелиз от: Автор рипа: Sergei91 (student05)

MediaInfo ▼

Общее Уникальный идентификатор : 185494374750836130594017237582009647488 (0x8B8CEAC611D180338DD38759B7C0C180) Полное имя : D:Варкрафт.(2016).HDRip-AVC.mkv Формат : Matroska Версия формата : Version 4 / Version 2 Размер файла : 750 Мбайт Продолжительность : 2 ч. 3 м. Общий поток : 851 Кбит/сек Название фильма : -=rip by Sergei91=- (student05) Дата кодирования : UTC 2016-09-20 18:22:51 Программа кодирования : mkvmerge v9.1.0 ('Little Earthquakes') 32bit Библиотека кодирования : libebml v1.3.3 + libmatroska v1.4.4 Обложка : Yes Attachments : cover.jpg

Видео Идентификатор : 1 Формат : AVC Формат/Информация : Advanced Video Codec Профиль формата : [email protected] Параметр CABAC формата : Да Параметр ReFrames формата : 9 кадров Идентификатор кодека : V_MPEG4/ISO/AVC Продолжительность : 2 ч. 3 м. Битрейт : 777 Кбит/сек Ширина : 720 пикселей Высота : 296 пикселей Соотношение сторон : 2,40:1 Режим частоты кадров : Постоянный Частота кадров : 23,976 (24000/1001) кадра/сек Частота кадров в оригинале : 23,976 (23976/1000) кадра/сек Цветовое пространство : YUV Субдискретизация насыщенности : 4:2:0 Битовая глубина : 8 бит Тип развёртки : Прогрессивная Бит/(Пиксели*Кадры) : 0.152 Размер потока : 684 Мбайт (91%) Заголовок : Warcraft Библиотека кодирования : x264 core 146 r2538 121396c Настройки программы : cabac=1 / ref=9 / deblock=1:-2:-2 / analyse=0x3:0x113 / me=umh / subme=9 / psy=1 / psy_rd=1.00:0.15 / mixed_ref=1 / me_range=32 / chroma_me=1 / trellis=2 / 8x8dct=1 / cqm=0 / deadzone=21,11 / fast_pskip=1 / chroma_qp_offset=-3 / threads=2 / lookahead_threads=1 / sliced_threads=0 / nr=0 / decimate=0 / interlaced=0 / bluray_compat=0 / constrained_intra=0 / bframes=8 / b_pyramid=2 / b_adapt=2 / b_bias=0 / direct=3 / weightb=1 / open_gop=0 / weightp=2 / keyint=240 / keyint_min=23 / scenecut=40 / intra_refresh=0 / rc_lookahead=40 / rc=2pass / mbtree=0 / bitrate=777 / ratetol=1.0 / qcomp=0.60 / qpmin=0 / qpmax=69 / qpstep=4 / cplxblur=20.0 / qblur=0.5 / vbv_maxrate=14000 / vbv_bufsize=14000 / nal_hrd=none / filler=0 / ip_ratio=1.40 / pb_ratio=1.30 / aq=1:1.00 Язык : English Default : Да Forced : Нет

Аудио Идентификатор : 2 Формат : AAC Формат/Информация : Advanced Audio Codec Профиль формата : HE-AAC / LC Идентификатор кодека : A_AAC Продолжительность : 2 ч. 3 м. Битрейт : 72,0 Кбит/сек Каналы : 2 канала Расположение каналов : Front: L R Частота : 48,0 КГц / 24,0 КГц Частота кадров : 23,438 кадра/сек (1024 spf) Метод сжатия : С потерями Задержка видео : 31 мс. Размер потока : 63,4 Мбайт (8%) Заголовок : Дубляж (72,0 Кбит/сек) Язык : Russian Default : Да Forced : Нет

Текст Идентификатор : 3 Формат : UTF-8 Идентификатор кодека : S_TEXT/UTF8 Идентификатор кодека/Информация : UTF-8 Plain Text Продолжительность : 1 ч. 55 м. Битрейт : 57 бит/сек Count of elements : 1054 Размер потока : 48,4 Кбайт (0%) Заголовок : Полные Язык : Russian Default : Да Forced : Нет

Меню 00:00:00.000 : en:Chapter 01 00:03:33.338 : en:Chapter 02 00:08:00.688 : en:Chapter 03 00:10:28.628 : en:Chapter 04 00:13:58.045 : en:Chapter 05 00:17:02.021 : en:Chapter 06 00:20:16.089 : en:Chapter 07 00:22:11.330 : en:Chapter 08 00:26:37.887 : en:Chapter 09 00:30:32.038 : en:Chapter 10 00:34:29.776 : en:Chapter 11 00:36:00.992 : en:Chapter 12 00:38:18.087 : en:Chapter 13 00:40:37.101 : en:Chapter 14 00:45:53.792 : en:Chapter 15 00:48:53.847 : en:Chapter 16 00:51:58.156 : en:Chapter 17 00:54:43.113 : en:Chapter 18 00:57:51.426 : en:Chapter 19 01:00:48.186 : en:Chapter 20 01:03:26.594 : en:Chapter 21 01:07:09.567 : en:Chapter 22 01:09:43.596 : en:Chapter 23 01:13:11.470 : en:Chapter 24 01:15:31.860 : en:Chapter 25 01:17:27.726 : en:Chapter 26 01:19:30.098 : en:Chapter 27 01:24:50.710 : en:Chapter 28 01:26:58.254 : en:Chapter 29 01:31:04.250 : en:Chapter 30 01:34:03.679 : en:Chapter 31 01:37:33.180 : en:Chapter 32 01:41:54.817 : en:Chapter 33 01:44:52.995 : en:Chapter 34 01:47:19.808 : en:Chapter 35 01:51:29.766 : en:Chapter 36 01:56:42.745 : en:Chapter 37 02:00:12.413 : en:Chapter 38 02:02:34.972 : en:Chapter 39

Log x264 ▼

avs [info]: 720x296p 1:1 @ 2997/125 fps (cfr) x264 [info]: using SAR=1/1 x264 [info]: using cpu capabilities: MMX2 SSE2 SSE3 Cache64 x264 [info]: profile High, level 4.1

x264 [info]: frame I:1621 Avg QP:19.95 size: 33000 x264 [info]: frame P:48586 Avg QP:23.52 size: 7810 x264 [info]: frame B:126913 Avg QP:25.50 size: 2242 x264 [info]: consecutive B-frames: 3.9% 7.7% 15.1% 36.0% 16.6% 15.4% 2.7% 1.0% 1.6% x264 [info]: mb I I16..4: 5.8% 64.7% 29.5% x264 [info]: mb P I16..4: 1.4% 9.7% 1.7% P16..4: 38.8% 20.4% 12.4% 0.0% 0.0% skip:15.7% x264 [info]: mb B I16..4: 0.2% 1.1% 0.2% B16..8: 36.3% 8.2% 2.8% direct: 4.3% skip:47.0% L0:39.3% L1:47.8% BI:12.9% x264 [info]: 8x8 transform intra:73.8% inter:60.1% x264 [info]: direct mvs spatial:91.9% temporal:8.1% x264 [info]: coded y,uvDC,uvAC intra: 79.1% 79.5% 48.7% inter: 18.5% 16.8% 6.0% x264 [info]: i16 v,h,dc,p: 34% 16% 11% 39% x264 [info]: i8 v,h,dc,ddl,ddr,vr,hd,vl,hu: 12% 7% 7% 9% 14% 13% 14% 11% 13% x264 [info]: i4 v,h,dc,ddl,ddr,vr,hd,vl,hu: 12% 6% 5% 9% 15% 14% 14% 11% 14% x264 [info]: i8c dc,h,v,p: 39% 24% 18% 19% x264 [info]: Weighted P-Frames: Y:10.0% UV:5.8% x264 [info]: ref P L0: 54.0% 16.0% 12.2% 5.0% 3.5% 3.0% 2.7% 1.5% 1.5% 0.5% 0.0% x264 [info]: ref B L0: 80.0% 8.2% 4.4% 2.2% 1.8% 2.0% 1.0% 0.3% x264 [info]: ref B L1: 94.0% 6.0% x264 [info]: kb/s:776.98

x264 [total]: encoded 177120 frames, 5.59 fps, 776.98 kb/s

krutor.org

Скачать торрент Варкрафт / Warcraft (2016) BDRip 1080p от NNNB

Информация о фильме
    Русское название: ВаркрафтОригинальное название: WarcraftГод выхода: 2016Жанр: фэнтези, боевик, приключенияРежиссер: Дункан ДжонсВыпущено: Китай, Канада, Япония, США Продолжительность: 02:03:07Перевод: ДублированныйВ ролях: Трэвис Фиммел, Пола Пэттон, Бен Фостер, Доминик Купер, Тоби Кеббелл, Бен Шнетцер, Роберт Казински, Клэнси Браун, Дэниэл Ву, Рут Негга
Сюжет фильма
    Веками магия и неприступные стены защищали людей от любых напастей. Но древнее зло, побежденное и забытое тысячелетия назад, пробудилось. В самом сердце королевства открылся темный портал, и раса невиданных существ наводнила земли Азерота. Так начались события, призванные навсегда изменить судьбу этого мира.
Файл
    Качество: BDRip 1080p \(исходник Blu-Ray\)Формат: MKVВидео: 1920x788, 7964 Кбит/сек, 23,976 кадр/сек, AVC, x264, [email protected], 2.40:1, 0.220 Бит/[Пиксели*Кадры]Аудио 1: AC-3, 640 Кбит/сек, 6 канала(ов), 48,0 КГц - Дублированный / Русский Аудио 2: AC-3, 640 Кбит/сек, 6 канала(ов), 48,0 КГц - Оригинал / АнглийскийСубтитры: Русские | Полные, Английские | ПолныеФорсированные субтитры: Русские Чаптеры (Главы): Есть

Автор Рипа: Группа: ← мы в VK

MediaInfo

Format : Matroska Format version : Version 2 File size : 7.95 GiB Duration : 2 h 3 min Overall bit rate : 9 239 kb/s Movie name : Warcraft.(2016).BDRip.1080p.[envy] Encoded date : UTC 2016-09-22 16:20:58 Writing application : mkvmerge v5.8.0 ('No Sleep / Pillow') built on Sep 2 2012 15:37:04 Writing library : libebml v1.2.3 + libmatroska v1.3.0

Video ID : 1 Format : AVC Format/Info : Advanced Video Codec Format profile : [email protected] Format settings, CABAC : Yes Format settings, ReFrames : 5 frames Codec ID : V_MPEG4/ISO/AVC Duration : 2 h 3 min Bit rate : 7 964 kb/s Width : 1 920 pixels Height : 788 pixels Display aspect ratio : 2.40:1 Frame rate mode : Constant Frame rate : 23.976 (24000/1001) FPS Color space : YUV Chroma subsampling : 4:2:0 Bit depth : 8 bits Scan type : Progressive Bits/(Pixel*Frame) : 0.220 Stream size : 6.69 GiB (84%) Title : Warcraft.(2016).BDRip.1080p.[envy] Writing library : x264 core 148 r2705 3f5ed56 Encoding settings : cabac=1 / ref=5 / deblock=1:-3:-3 / analyse=0x3:0x113 / me=umh / subme=11 / psy=1 / psy_rd=1.00:0.00 / mixed_ref=1 / me_range=32 / chroma_me=1 / trellis=2 / 8x8dct=1 / cqm=0 / deadzone=21,11 / fast_pskip=0 / chroma_qp_offset=-2 / threads=12 / lookahead_threads=2 / sliced_threads=0 / nr=0 / decimate=1 / interlaced=0 / bluray_compat=0 / constrained_intra=0 / bframes=7 / b_pyramid=2 / b_adapt=2 / b_bias=0 / direct=3 / weightb=1 / open_gop=0 / weightp=2 / keyint=240 / keyint_min=23 / scenecut=40 / intra_refresh=0 / rc=2pass / mbtree=0 / bitrate=7964 / ratetol=2.0 / qcomp=0.60 / qpmin=0 / qpmax=69 / qpstep=4 / cplxblur=20.0 / qblur=0.5 / ip_ratio=1.40 / pb_ratio=1.30 / aq=2:0.80 Language : English Default : Yes Forced : No

Audio #1 ID : 2 Format : AC-3 Format/Info : Audio Coding 3 Mode extension : CM (complete main) Format settings, Endianness : Big Codec ID : A_AC3 Duration : 2 h 3 min Bit rate mode : Constant Bit rate : 640 kb/s Channel(s) : 6 channels Channel positions : Front: L C R, Side: L R, LFE Sampling rate : 48.0 kHz Frame rate : 31.250 FPS (1536 spf) Compression mode : Lossy Stream size : 564 MiB (7%) Title : Dub Language : Russian Default : Yes Forced : No

Audio #2 ID : 3 Format : AC-3 Format/Info : Audio Coding 3 Mode extension : CM (complete main) Format settings, Endianness : Big Codec ID : A_AC3 Duration : 2 h 3 min Bit rate mode : Constant Bit rate : 640 kb/s Channel(s) : 6 channels Channel positions : Front: L C R, Side: L R, LFE Sampling rate : 48.0 kHz Frame rate : 31.250 FPS (1536 spf) Compression mode : Lossy Stream size : 564 MiB (7%) Title : Eng Language : English Default : No Forced : No

Text #1 ID : 4 Format : UTF-8 Codec ID : S_TEXT/UTF8 Codec ID/Info : UTF-8 Plain Text Title : Rus forced Language : Russian Default : Yes Forced : Yes

Text #2 ID : 5 Format : UTF-8 Codec ID : S_TEXT/UTF8 Codec ID/Info : UTF-8 Plain Text Title : Rus full Language : Russian Default : No Forced : No

Text #3 ID : 6 Format : UTF-8 Codec ID : S_TEXT/UTF8 Codec ID/Info : UTF-8 Plain Text Title : Eng full Language : English Default : No Forced : No

Menu 00:00:00.000 : :Chapter 01 00:09:26.482 : :Chapter 02 00:15:49.407 : :Chapter 03 00:22:36.145 : :Chapter 04 00:29:16.171 : :Chapter 05 00:38:43.321 : :Chapter 06 00:46:44.093 : :Chapter 07 00:53:02.679 : :Chapter 08 00:56:17.332 : :Chapter 09 01:02:43.927 : :Chapter 10 01:07:48.314 : :Chapter 11 01:12:24.549 : :Chapter 12 01:17:13.045 : :Chapter 13 01:22:45.669 : :Chapter 14 01:26:32.145 : :Chapter 15 01:32:29.669 : :Chapter 16 01:40:25.102 : :Chapter 17 01:47:38.118 : :Chapter 18 01:51:12.833 : :Chapter 19 01:53:58.832 : :Chapter 20

krutor.org

Фильм Варкрафт (2016) скачать торрент в хорошем качестве hd бесплатно

Название: Варкрафт 

Оригинальное название: Warcraft 

Год выхода: 2016 

Жанр: Фэнтези, боевик, приключения 

Режиссер: Дункан Джонс 

Роли озвучивают: Трэвис Фиммел, Пола Пэттон, Бен Фостер, Доминик Купер, Тоби Кеббелл, Бен Шнетцер, Роберт Казински, Клэнси Браун, Дэниэл Ву, Рут Негга 

События нескольких миров могут встречаться и даже разрушать друг друга. Так случилось и в данной истории, на плечи которой лег рассказ, о мире фантастической магии и волшебства. Варкрафт- история жизни сказочного королевства людей и воинствующих орков. 

Сюжет киноленты полноценно рассказывает о событиях, которые происходят на просторах мощного королевства людей, где всегда царила сила и возможности мирно существовать, но зло не дремлет и свободе настает конец. Грядет настоящее сражение. И только объединив силы можно противостоять грядущей угрозе. На плечах у воинствующей расы орков, так же возникают проблемы, на их земле разрастается страшная чума и разрушает их земли. Они вынуждены искать новое убежище. Местом преткновения становится земля, принадлежащая испокон веков людям. Встает закономерный вопрос о сражении или мирном сосуществовании. 

Сложные выборы и разделение между каждой из рас приводят вначале к внутренним столкновениям, а далее к разрушению всего благосостояния. Создавая прочное основание и давая сложные результаты на благополучное завершение сражении, может создать новые силы и союзы. Так как в скором времени силы зла и нечисти могут окутать даже не примиряемые ранее расы воинов и тех, кто готов бороться за свободу. 

Кинолента продемонстрирует насыщенную историю, в которой будет много фантастических героев и присутствовать всевозможная магия. Созданные спецэффекты и применяемая компьютерная графика откроет понимание о существовании других миров, неподвластным человеческому зрению. Захватив яркими сценами и обзорами имеющихся просторов природы и необычайно ярких персонаже, как со стороны орков, так и королевства рыцарей. Показав новые незабываемые грани для каждого зрителя. 

Собранные в единую целую историю части ранее известной видео игры, позволят увидеть настоящие сражения и заключаемые мирные договоры, позволив пронаблюдать настоящую историю, в основе которой ложится существование сказочных персонажей и неповторимого влияния магии и волшебства. За что кинолента и получает столь значимые 10 из 10 возможных. Просмотр позволит насладится оригинальными сражениями и действиями во имя спасения перед силами зла.

Качество: BDRip 1080p (исходник Blu-Ray) 

Формат: MKV 

Видео: 1920x788, 7964 Кбит/сек, 23,976 кадр/сек, AVC, x264, [email protected], 2.40:1, 0.220 Бит/[Пиксели*Кадры] 

Аудио 1: AC-3, 640 Кбит/сек, 6 канала(ов), 48,0 КГц - Дублированный / Русский 

Аудио 2: AC-3, 640 Кбит/сек, 6 канала(ов), 48,0 КГц - Оригинал / Английский 

Субтитры: Русские | Полные, Английские | Полные 

Форсированные субтитры: Русские 

Чаптеры (Главы): Есть

Поиск торрент раздач, пожалуйста подождите!

Информация о торрент файле

Скачать торрент Торрент: Зарегистрирован Статус: v Проверено Просмотров: 2 848 Категория: фантастика Общий размер: 7.95 GB

Поделитесь ссылкой на наш сайт с друзьями в соц.сетях ↓

mega-torrent.co

Варкрафт / Warcraft (2016) BDRip 1080p

Информация о фильме Название: Варкрафт Оригинальное название: Warcraft Год выхода: 25 мая 2016 Жанр/Категория: фэнтези, боевик, приключения Страна/Студия: США / Atlas Entertainment, Blizzard Entertainment, Legendary Pictures, Universal Pictures Кинорежиссёр: Дункан Джонс / Duncan Jones В ролях/актеры: Трэвис Фиммел, Бен Фостер, Пола Пэттон, Тоби Кеббелл, Доминик Купер, Клэнси Браун, Райан Роббинс, Роберт Казински, Дэниэл Ву, Рут Негга, Каллум Кит Ренни, Дэниэл Кадмор, Патрик Сабонгуй, Анна Галвин, Кайл Райдаут, Радж Лал, Джилл Моррисон, Майкл Патрик, Андре Трикоте Длительность/Время: 02:03:07 Перевод/язык: дублированный (русский) - Лицензия ..........................................................................

Сюжет фильма: Веками магия и неприступные стены защищали людей от любых напастей. Но древнее зло, побежденное и забытое тысячелетия назад, пробудилось. В самом сердце королевства открылся темный портал, и раса невиданных существ наводнила земли Азерота. Так начались события, призванные навсегда изменить судьбу этого мира.

«Два мира. Один Дом»

[kinopoisk]277328[/kinopoisk]

• При съёмках орков использовалась технология «захвата движения» (как в фильмах «Планета обезьян: Революция», «Аватар» и др.), но самих орков играли актёры, для которых были созданы бутафорское оружие и доспехи. Эта технология применялась и на съёмках, и на фотосессиях. • Дункан Джонс охарактеризовал вселенную «Варкрафт» как «навороченную фэнтези», где всё очень необычно. Режиссёр попытался сделать её в фильме более привычной зрителю, но в то же время передать атмосферу и дух игр. • Специально для фильма «Варкрафт» было разработано наречие орков. • Режиссер Уве Болл связывался с компанией Blizzard по поводу создания фильма, но получил отказ. По словам Уве Болла, он связался с Полом В. Сэмсом из компании Blizzard и тот сказал Боллу, что они не собираются продавать права на этот фильм, в особенности ему, так как игра Warcraft имеет большой успех, и плохой фильм может негативно отразиться на доходах, которые она приносит. • Первоначально Гари Уитта написал сценарий к фильму, но тот был полностью пересмотрен, когда проект возглавил Сэм Рэйми. И Уитта, и Рэйми в итоге покинули проект. • Дункан Джонс заявил, что в плане противостояния Орды и Альянса первый вариант сценария получился слишком однобоким. Став режиссёром фильма, Джонс внёс значительные изменения в сюжет и сценарий, так что противостояние в фильме будет показано с точки зрения обеих противоборствующих сторон. • Первоначально премьера фильма была назначена на декабрь 2015-го, но её перенесли на май 2016 года в связи с выходом на экраны фильма Джей Джей Абрамса «Звёздные войны: Пробуждение силы». • Руководитель группы по спецэффектам Билл Вестенхофер, обладатель двух статуэток «Оскар» за прошлые работы, является давним поклонником игр «Варкрафт». Во время съёмок фильма он несколько раз поднимался среди ночи, чтобы поиграть. Роберт Казински, исполнитель роли персонажа по имени Оргрим Молот Рока, ещё один увлекающийся «Варкрафт» актёр. Он вспоминал, что во время съёмок фантастического боевика Гильермо дель Торо «Тихоокеанский рубеж» (2013) продюсеры неоднократно обращались к нему с просьбой отложить «Варкрафт» и заняться делом. • Монтажно-тонировочный период, известный также как пост-продакшн, занял 20 месяцев. Продюсер Томас Тулл, председатель правления компании «Legendary Pictures», назвал то, что делали режиссёр Дункан Джонс и создатели спецэффектов, «настоящим прорывом». • За основу сюжета фильма взяты события, о которых рассказано в книге Кристи Голден «World of Warcraft: Восхождение Орды» (2006), а точнее — об объединении кланов орков в Орду, и в книге Джеффа Грабба «Последний страж» (2001), в которой даётся взгляд на Орду и её вторжение с точки зрения людей. • Съёмки фильма заняли 123 дня с 13 января по 23 мая 2014 года. • Во время прямой линии с Дунканом Джонсом, организованной компанией «Blizzard Entertainment, Inc.», режиссёра спросили, где будут проходить съёмки фильма. Ответить напрямую Джонс не имел права. В его обтекаемой фразе прозвучал намёк на футболку с надписью «Ванкувер», в которую он был одет. Там фильм «Варкрафт» и снимался. • О будущем фильме компания «Blizzard Entertainment, Inc» объявила в 2006 году. Фильм выйдет на экраны через 10 лет после объявления. • Вначале роль короля Ллейна предложили Колину Фарреллу. Актёр даже встретился с режиссёром и прочёл сценарий. В конце концов, однако, роль досталась Доминику Куперу. • На международном ежегодном фестивале в Сан-Диего в 2014 году компания «Legendary Pictures» продемонстрировала созданное для фильма оружие и трейлер. Среди выставленного напоказ оружия поклонники сразу же узнали Молот Рока — один из самых известных видов оружия в играх «Варкрафт». • Ведущий сценарист компании «Blizzard Entertainment, Inc.» Крис Метцен озвучил множество главных персонажей компьютерных игр серии «Варкрафт». Его же рассказ лёг в основу сюжетной линии фильма. • Каскадёр и тренер движения Терри Нотари, исполнитель роли Громмаша Адского Крика, помогал другим актёрам достичь достоверности в изображении орков. В 2014 году на ежегодном фестивале, который компания «Blizzard Entertainment, Inc.» посвящает своим основным франшизам (в их число входит и «Варкрафт»), Роберт Казинскипублично поблагодарил Нотари за помощь. • Несмотря на то, что её персонаж по имени Гарона является наполовину орком, Пола Пэттон исполняет эту роль без применения технологии «захвата движения». • Одно время интерес к съёмкам в фильме «Варкрафт» проявлял Джонни Депп. • Несколько лет назад на международном ежегодном фестивале был продемонстрирован концепт-трейлер, где рыцарь сражался с орком. Через пару часов было объявлено, что подготовка к съёмкам фильма ещё даже не началась.

..........................................................................

Информация о видеофайле: Формат: MKV Видео: 1920x788, 7964 Кбит/сек, 23,976 кадр/сек, AVC, x264, [email protected], 2.40:1, 0.220 Бит/[Пиксели*Кадры] Аудио/Звук: русский: AC3, 640 kb/s (6 ch), 48 kHz английский: AC3, 640 kb/s (6 ch), 48 kHz Субтитры: русские, английские

bigtracker.org

Скачать торрент Варкрафт / Warcraft (2016) BDRemux | 3D-Video

Производство: США, Китай, Канада, Япония / Atlas Entertainment, Universal Pictures, Legendary PicturesЖанр: фэнтези, боевик, приключения

Режиссер: Дункан ДжонсПродюсер: Стюарт Фенеган, Алекс Гартнер, Джон Дж. ДжашниАктеры: Трэвис Фиммел, Пола Пэттон, Бен Фостер, Доминик Купер, Тоби Кеббелл, Бен Шнетцер, Роберт Казински, Клэнси Браун, Дэниэл Ву, Рут Негга

Описание: Веками магия и неприступные стены защищали людей от любых напастей. Но древнее зло, побежденное и забытое тысячелетия назад, пробудилось. В самом сердце королевства открылся темный портал, и раса невиданных существ наводнила земли Азерота. Так начались события, призванные навсегда изменить судьбу этого мира.

Дата мировой премьеры: 24 мая 2016Дата премьеры в России: 26 мая 2016, «UPI» 3D

Продолжительность: 02:03:07Качество: BDRemux \(2D/3D\)Перевод: Дублированный (Лицензия BD CEE)Вид субтитров: Вшитые, отключаемыеЯзык субтитров: Русский, Английский

Видео: AVC/H.264, 1920x1080p, (16:9), 21672 kbps, 23,976 fps, MVC, 12020 kbpsАудио: AC3, 6 ch, 640 kbps - Русский, BD CEEАудио: TrueHD, 8 ch, 3383 kbps - РусскийАудио: DTS-HD MA, 8 ch, 4540 kbps - РусскийАудио: TrueHD, 8 ch, 4834 kbps - Английский

Дополнительная информация:

Ремукс собран в tsMuxer 2.6.12 Аудиодорожка сделана из TrueHD ядра оригинальной Dolby Atmos дорожки и дублированной Dolby Digital дорожки путём замены всех участков с английской речью, отголосками и эхом на аналогичные с дублированной дорожки во всех каналах и прочими редакторскими правками.

Аудиодорожки: Аудио 1: Rus, (Dolby TrueHD, 8 ch, 3383 Кбит/с) - Дубляж RussianDUB HD (Sergesha) Аудио 2: Rus, AC3, 640 kb/s (6 ch), 48 kHz - Дубляж, Лицензия Аудио 3: Eng, Atmos / TrueHD / AC-3, 8 ch, 4834 Кбит/с, (AC3, 6 ch, 640 Кбит/с) 48 kHz - Оригинал, Лицензия Аудио 4: Rus, DTS-HD MА, 8 ch, 4522 Кбит/с (DTS, 1536 kb/s (8 ch), 48 kHz - Дубляж RussianDUB HD (Sergesha)

Субтитры Русские форсированные, стилизованные, на оркскую речь и надписи; Субтитры Русские форсированные, лицензия, на оркскую речь и надписи; Субтитры Русские полные, лицензия; Субтитры Английские полные, лицензия;

На некоторых "железных" плеерах некорректно отображается Русское название фильма в форсированных субтитрах; Так же аудиодорожка Dolby TrueHD Rus может отличатся от оригинальной и DTS-HD MА, в основном на 5.1 сетапах.

BDInfo:

Disc Title: WARCRAFT_UPT2 Disc Size: 49 162 602 056 bytes Protection: AACS BD-Java: No Extras: Blu-ray 3D BDInfo: 0.5.8

Notes:

BDINFO HOME: Cinema Squid http://www.cinemasquid.com/blu-ray/tools/bdinfo

INCLUDES FORUMS REPORT FOR: AVS Forum Blu-ray Audio and Video Specifications Thread http://www.avsforum.com/avs-vb/showthread.php?t=1155731

******************** PLAYLIST: 00000.MPLS ********************

Код: Total Video Title Codec Length Movie Size Disc Size Bitrate Bitrate Main Audio Track Secondary Audio Track ----- ------ ------- -------------- -------------- ------- ------- ------------------ --------------------- 00000.MPLS AVC 2:03:07 49 162 364 928 49 162 602 056 53,24 21,67 Dolby TrueHD 7.1 3383Kbps (48kHz/16-bit) DD AC3 5.1 640Kbps Код: DISC INFO:

Disc Title: WARCRAFT_UPT2 Disc Size: 49 162 602 056 bytes Protection: AACS BD-Java: No Extras: Blu-ray 3D BDInfo: 0.5.8

PLAYLIST REPORT:

Name: 00000.MPLS Length: 2:03:07.963 (h:m:s.ms) Size: 49 162 364 928 bytes Total Bitrate: 53,24 Mbps

VIDEO:

Codec Bitrate Deion ----- ------- ----------- MPEG-4 AVC Video 21672 kbps 1080p / 23,976 fps / 16:9 / High Profile 4.1 MPEG-4 MVC Video 12020 kbps

AUDIO:

Codec Language Bitrate Deion ----- -------- ------- ----------- Dolby TrueHD Audio Russian 3383 kbps 7.1 / 48 kHz / 3383 kbps / 16-bit (AC3 Embedded: 5.1 / 48 kHz / 640 kbps) Dolby Digital Audio Russian 640 kbps 5.1 / 48 kHz / 640 kbps / DN -4dB Dolby TrueHD Audio English 4834 kbps 7.1 / 48 kHz / 4834 kbps / 24-bit (AC3 Embedded: 5.1 / 48 kHz / 640 kbps / DN -4dB) DTS-HD Master Audio Russian 4540 kbps 7.1 / 48 kHz / 4540 kbps / 24-bit (DTS Core: 5.1 / 48 kHz / 1509 kbps / 24-bit)

SUBTITLES:

Codec Language Bitrate Deion ----- -------- ------- ----------- Presentation Graphics Russian 0,355 kbps Presentation Graphics Russian 21,050 kbps Presentation Graphics Russian 0,152 kbps Presentation Graphics English 27,153 kbps

FILES:

Name Time In Length Size Total Bitrate ---- ------- ------ ---- ------------- 00000.SSIF 0:00:00.000 2:03:07.963 49 162 364 928 53 235

CHAPTERS:

Number Time In Length Avg Video Rate Max 1-Sec Rate Max 1-Sec Time Max 5-Sec Rate Max 5-Sec Time Max 10Sec Rate Max 10Sec Time Avg Frame Size Max Frame Size Max Frame Time ------ ------- ------ -------------- -------------- -------------- -------------- -------------- -------------- -------------- -------------- -------------- -------------- 1 0:00:00.000 0:09:26.481 23 351 kbps 37 959 kbps 00:00:51.134 30 402 kbps 00:00:47.130 29 809 kbps 00:07:57.560 121 734 bytes 527 216 bytes 00:08:21.042 2 0:09:26.481 0:06:22.924 19 299 kbps 31 982 kbps 00:09:31.404 30 250 kbps 00:09:27.316 26 116 kbps 00:09:27.066 100 614 bytes 483 502 bytes 00:09:31.487 3 0:15:49.405 0:06:46.740 17 843 kbps 30 752 kbps 00:20:00.073 27 155 kbps 00:19:52.900 25 854 kbps 00:19:51.106 93 027 bytes 333 026 bytes 00:18:10.589 4 0:22:36.145 0:06:40.026 24 722 kbps 31 758 kbps 00:26:10.568 30 041 kbps 00:26:01.226 29 147 kbps 00:26:01.309 128 887 bytes 440 165 bytes 00:27:17.552 5 0:29:16.171 0:09:27.148 21 147 kbps 30 738 kbps 00:33:29.215 29 853 kbps 00:33:28.423 28 328 kbps 00:33:08.194 110 249 bytes 325 236 bytes 00:31:10.743 6 0:38:43.319 0:08:00.771 22 001 kbps 32 167 kbps 00:39:06.927 30 269 kbps 00:39:01.964 29 972 kbps 00:39:27.615 114 706 bytes 480 657 bytes 00:39:37.458 7 0:46:44.091 0:06:18.587 17 154 kbps 29 412 kbps 00:50:57.053 27 301 kbps 00:50:56.595 23 321 kbps 00:50:53.675 89 435 bytes 257 081 bytes 00:46:50.849 8 0:53:02.679 0:03:14.652 19 356 kbps 27 205 kbps 00:54:22.550 24 878 kbps 00:53:02.679 23 339 kbps 00:53:26.995 100 913 bytes 402 965 bytes 00:53:32.083 9 0:56:17.331 0:06:26.594 26 526 kbps 32 795 kbps 01:00:24.662 30 192 kbps 01:00:20.658 29 689 kbps 01:00:22.869 138 295 bytes 450 399 bytes 01:02:21.863 10 1:02:43.925 0:05:04.387 20 712 kbps 33 186 kbps 01:03:04.322 29 941 kbps 01:03:17.168 29 733 kbps 01:03:15.458 107 985 bytes 342 019 bytes 01:03:40.316 11 1:07:48.313 0:04:36.233 21 949 kbps 30 594 kbps 01:12:20.002 29 983 kbps 01:07:55.863 29 841 kbps 01:07:48.564 114 431 bytes 364 518 bytes 01:08:00.326 12 1:12:24.546 0:04:48.498 24 605 kbps 30 500 kbps 01:15:30.234 29 817 kbps 01:15:07.836 29 625 kbps 01:15:16.094 128 282 bytes 322 180 bytes 01:17:03.702 13 1:17:13.045 0:05:32.622 21 236 kbps 30 312 kbps 01:18:03.053 28 643 kbps 01:18:03.053 27 796 kbps 01:18:02.469 110 714 bytes 319 870 bytes 01:20:33.745 14 1:22:45.667 0:03:46.477 21 619 kbps 31 169 kbps 01:25:23.034 30 108 kbps 01:25:22.534 29 803 kbps 01:25:22.742 112 710 bytes 473 052 bytes 01:25:27.539 15 1:26:32.145 0:05:57.522 22 938 kbps 31 742 kbps 01:28:14.414 29 643 kbps 01:32:09.315 28 858 kbps 01:32:08.022 119 589 bytes 438 468 bytes 01:27:16.648 16 1:32:29.667 0:07:55.433 20 261 kbps 30 672 kbps 01:32:59.073 29 670 kbps 01:34:24.283 29 122 kbps 01:34:23.449 105 632 bytes 364 431 bytes 01:32:47.812 17 1:40:25.101 0:07:13.016 23 524 kbps 31 138 kbps 01:46:53.448 29 943 kbps 01:47:13.468 29 774 kbps 01:41:14.276 122 644 bytes 394 030 bytes 01:47:36.324 18 1:47:38.118 0:03:34.713 21 871 kbps 32 460 kbps 01:51:09.829 28 432 kbps 01:49:40.615 26 608 kbps 01:49:40.615 114 023 bytes 470 631 bytes 01:51:10.371 19 1:51:12.832 0:02:46.000 21 581 kbps 31 543 kbps 01:53:08.990 30 117 kbps 01:53:08.948 29 827 kbps 01:53:38.019 112 483 bytes 446 067 bytes 01:51:20.799 20 1:53:58.832 0:09:09.131 21 001 kbps 36 833 kbps 01:54:45.003 28 809 kbps 02:02:49.403 27 644 kbps 01:55:44.062 109 506 bytes 491 961 bytes 02:01:54.807

STREAM DIAGNOSTICS:

File PID Type Codec Language Seconds Bitrate Bytes Packets ---- --- ---- ----- -------- -------------- -------------- ------------- ----- 00000.SSIF 4114 (0x1012) 0x20 MVC 7387,880 12 021 11 100 841 539 60 448 934 00000.SSIF 4113 (0x1011) 0x1B AVC 7387,880 21 672 20 013 684 531 108 876 333 00000.SSIF 4352 (0x1100) 0x83 TrueHD rus (Russian) 7387,880 4 023 3 715 014 774 25 401 090 00000.SSIF 4353 (0x1101) 0x81 AC3 rus (Russian) 7387,880 640 591 037 440 3 463 110 00000.SSIF 4354 (0x1102) 0x83 TrueHD eng (English) 7387,880 5 474 5 055 410 038 33 050 325 00000.SSIF 4355 (0x1103) 0x86 DTS-HD MA rus (Russian) 7387,880 4 540 4 192 249 448 23 936 187 00000.SSIF 4608 (0x1200) 0x90 PGS rus (Russian) 7387,880 0 327 642 1 859 00000.SSIF 4609 (0x1201) 0x90 PGS rus (Russian) 7387,880 21 19 439 604 114 191 00000.SSIF 4610 (0x1202) 0x90 PGS rus (Russian) 7387,880 0 139 960 830 00000.SSIF 4611 (0x1203) 0x90 PGS eng (English) 7387,880 27 25 075 981 146 026

QUICK SUMMARY:

Disc Title: WARCRAFT_UPT2 Disc Size: 49 162 602 056 bytes Protection: AACS BD-Java: No Playlist: 00000.MPLS Size: 49 162 364 928 bytes Length: 2:03:07.963 Total Bitrate: 53,24 Mbps Video: MPEG-4 AVC Video / 21672 kbps / 1080p / 23,976 fps / 16:9 / High Profile 4.1 Video: MPEG-4 MVC Video / 12020 kbps / Audio: Russian / Dolby TrueHD Audio / 7.1 / 48 kHz / 3383 kbps / 16-bit (AC3 Embedded: 5.1 / 48 kHz / 640 kbps) Audio: Russian / Dolby Digital Audio / 5.1 / 48 kHz / 640 kbps / DN -4dB Audio: English / Dolby TrueHD Audio / 7.1 / 48 kHz / 4834 kbps / 24-bit (AC3 Embedded: 5.1 / 48 kHz / 640 kbps / DN -4dB) Audio: Russian / DTS-HD Master Audio / 7.1 / 48 kHz / 4540 kbps / 24-bit (DTS Core: 5.1 / 48 kHz / 1509 kbps / 24-bit) Subtitle: Russian / 0,355 kbps Subtitle: Russian / 21,050 kbps Subtitle: Russian / 0,152 kbps Subtitle: English / 27,153 kbps

Скриншоты:

krutor.org

Скачать торрент Варкрафт / Warcraft (2016) BDRemux 1080p от ExKinoRay | D, A

General Unique ID : 247385515354583180154474537475955879153 (0xBA1CB7994C868C5E99D302A0689DECF1) Complete name : H:VideoWarcraft.2016.D.AVO.BDREMUX.1080p.ExKinoRay.mkv Format : Matroska Format version : Version 4 / Version 2 File size : 28.0 GiB Duration : 2 h 3 min Overall bit rate mode : Variable Overall bit rate : 32.5 Mb/s Movie name : build by ***селезень*** Encoded date : UTC 2016-10-18 05:39:03 Writing application : mkvmerge v8.3.0 ('Over the Horizon') 64bit Writing library : libebml v1.3.1 + libmatroska v1.4.2

Video ID : 1 Format : AVC Format/Info : Advanced Video Codec Format profile : [email protected] Format settings, CABAC : Yes Format settings, ReFrames : 4 frames Format settings, GOP : M=3, N=12 Codec ID : V_MPEG4/ISO/AVC Duration : 2 h 3 min Bit rate mode : Variable Bit rate : 21.2 Mb/s Maximum bit rate : 31.5 Mb/s Width : 1 920 pixels Height : 1 080 pixels Display aspect ratio : 16:9 Frame rate mode : Constant Frame rate : 23.976 (24000/1001) FPS Color space : YUV Chroma subsampling : 4:2:0 Bit depth : 8 bits Scan type : Progressive Bits/(Pixel*Frame) : 0.426 Stream size : 18.2 GiB (65%) Title : build by ***селезень*** Language : English Default : Yes Forced : No

Audio #1 ID : 2 Format : AC-3 Format/Info : Audio Coding 3 Mode extension : CM (complete main) Format settings, Endianness : Big Codec ID : A_AC3 Duration : 2 h 3 min Bit rate mode : Constant Bit rate : 640 kb/s Channel(s) : 6 channels Channel positions : Front: L C R, Side: L R, LFE Sampling rate : 48.0 kHz Frame rate : 31.250 FPS (1536 spf) Compression mode : Lossy Stream size : 564 MiB (2%) Title : Dub [License] Language : Russian Default : Yes Forced : No

Audio #2 ID : 3 Format : DTS Format/Info : Digital Theater Systems Format profile : MA / Core Mode : 16 Format settings, Endianness : Big Codec ID : A_DTS Duration : 2 h 3 min Bit rate mode : Variable / Constant Bit rate : 5 146 kb/s / 1 509 kb/s Channel(s) : 8 channels / 6 channels Channel positions : Front: L C R, Side: L R, Back: L R, LFE / Front: L C R, Side: L R, LFE Sampling rate : 48.0 kHz Frame rate : 93.750 FPS (512 spf) Bit depth : 24 bits Compression mode : Lossless / Lossy Stream size : 4.43 GiB (16%) Title : AVO-DTS-HD MA [Esarev] Language : Russian Default : No Forced : No

Audio #3 ID : 4 Format : AC-3 Format/Info : Audio Coding 3 Mode extension : CM (complete main) Format settings, Endianness : Big Codec ID : A_AC3 Duration : 2 h 3 min Bit rate mode : Constant Bit rate : 640 kb/s Channel(s) : 6 channels Channel positions : Front: L C R, Side: L R, LFE Sampling rate : 48.0 kHz Frame rate : 31.250 FPS (1536 spf) Compression mode : Lossy Stream size : 564 MiB (2%) Title : AVO-AC3 [Esarev] Language : Russian Default : No Forced : No

Audio #4 ID : 5 Format : Atmos / TrueHD Codec ID : A_TRUEHD Duration : 2 h 3 min Bit rate mode : Variable Bit rate : 4 834 kb/s Maximum bit rate : 7 893 kb/s Channel(s) : Object Based / 8 channels Channel positions : Object Based / Front: L C R, Side: L R, Back: L R, LFE Sampling rate : / 48.0 kHz Frame rate : 1 200.000 FPS (40 spf) Compression mode : Lossless Stream size : 4.16 GiB (15%) Title : Original Language : English Default : No Forced : No

Text #1 ID : 6 Format : UTF-8 Codec ID : S_TEXT/UTF8 Codec ID/Info : UTF-8 Plain Text Duration : 1 h 43 min Bit rate : 0 b/s Count of elements : 9 Stream size : 305 Bytes (0%) Title : Forced BD Language : Russian Default : Yes Forced : No

Text #2 ID : 7 Format : UTF-8 Codec ID : S_TEXT/UTF8 Codec ID/Info : UTF-8 Plain Text Duration : 1 h 52 min Bit rate : 60 b/s Count of elements : 1216 Stream size : 49.7 KiB (0%) Title : Full BD Language : Russian Default : No Forced : No

Text #3 ID : 8 Format : UTF-8 Codec ID : S_TEXT/UTF8 Codec ID/Info : UTF-8 Plain Text Duration : 1 h 58 min Bit rate : 0 b/s Count of elements : 17 Stream size : 531 Bytes (0%) Title : Forced MBB Language : Russian Default : No Forced : No

Text #4 ID : 9 Format : UTF-8 Codec ID : S_TEXT/UTF8 Codec ID/Info : UTF-8 Plain Text Duration : 2 h 1 min Bit rate : 56 b/s Count of elements : 1378 Stream size : 50.3 KiB (0%) Title : Full MBB Language : Russian Default : No Forced : No

Text #5 ID : 10 Format : UTF-8 Codec ID : S_TEXT/UTF8 Codec ID/Info : UTF-8 Plain Text Duration : 1 h 55 min Bit rate : 57 b/s Count of elements : 1054 Stream size : 48.4 KiB (0%) Title : Full Nunegsdli Language : Russian Default : No Forced : No

Text #6 ID : 11 Format : UTF-8 Codec ID : S_TEXT/UTF8 Codec ID/Info : UTF-8 Plain Text Duration : 2 h 1 min Bit rate : 33 b/s Count of elements : 1248 Stream size : 29.7 KiB (0%) Title : Full Language : Latvian Default : No Forced : No

Text #7 ID : 12 Format : UTF-8 Codec ID : S_TEXT/UTF8 Codec ID/Info : UTF-8 Plain Text Duration : 2 h 1 min Bit rate : 35 b/s Count of elements : 1204 Stream size : 31.4 KiB (0%) Title : Full Language : Lithuanian Default : No Forced : No

Text #8 ID : 13 Format : UTF-8 Codec ID : S_TEXT/UTF8 Codec ID/Info : UTF-8 Plain Text Duration : 2 h 1 min Bit rate : 30 b/s Count of elements : 1220 Stream size : 27.0 KiB (0%) Title : Full Language : Estonian Default : No Forced : No

Text #9 ID : 14 Format : UTF-8 Codec ID : S_TEXT/UTF8 Codec ID/Info : UTF-8 Plain Text Duration : 2 h 1 min Bit rate : 43 b/s Count of elements : 1209 Stream size : 38.5 KiB (0%) Title : Full Language : Ukrainian Default : No Forced : No

Text #10 ID : 15 Format : UTF-8 Codec ID : S_TEXT/UTF8 Codec ID/Info : UTF-8 Plain Text Duration : 1 h 52 min Bit rate : 35 b/s Count of elements : 1074 Stream size : 29.4 KiB (0%) Title : Full Language : English Default : No Forced : No

Text #11 ID : 16 Format : UTF-8 Codec ID : S_TEXT/UTF8 Codec ID/Info : UTF-8 Plain Text Duration : 2 h 1 min Bit rate : 33 b/s Count of elements : 1328 Stream size : 30.0 KiB (0%) Title : Full1 Language : English Default : No Forced : No

Text #12 ID : 17 Format : UTF-8 Codec ID : S_TEXT/UTF8 Codec ID/Info : UTF-8 Plain Text Duration : 1 h 52 min Bit rate : 36 b/s Count of elements : 1234 Stream size : 30.0 KiB (0%) Title : Full2 Language : English Default : No Forced : No

Text #13 ID : 18 Format : UTF-8 Codec ID : S_TEXT/UTF8 Codec ID/Info : UTF-8 Plain Text Duration : 1 h 53 min Bit rate : 41 b/s Count of elements : 1345 Stream size : 34.6 KiB (0%) Title : SDH Language : English Default : No Forced : No

Text #14 ID : 19 Format : UTF-8 Codec ID : S_TEXT/UTF8 Codec ID/Info : UTF-8 Plain Text Duration : 2 h 2 min Bit rate : 38 b/s Count of elements : 1487 Stream size : 34.9 KiB (0%) Title : SDh2 Language : English Default : No Forced : No

Text #15 ID : 20 Format : UTF-8 Codec ID : S_TEXT/UTF8 Codec ID/Info : UTF-8 Plain Text Duration : 1 h 53 min Bit rate : 41 b/s Count of elements : 1393 Stream size : 34.8 KiB (0%) Title : SDh3 Language : English Default : No Forced : No

Menu 00:00:00.000 : en:00:00:00.000 00:09:26.483 : en:00:09:26.483 00:15:49.407 : en:00:15:49.407 00:22:36.146 : en:00:22:36.146 00:29:16.171 : en:00:29:16.171 00:38:43.321 : en:00:38:43.321 00:46:44.093 : en:00:46:44.093 00:53:02.679 : en:00:53:02.679 00:56:17.332 : en:00:56:17.332 01:02:43.927 : en:01:02:43.927 01:07:48.314 : en:01:07:48.314 01:12:24.549 : en:01:12:24.549 01:17:13.045 : en:01:17:13.045 01:22:45.669 : en:01:22:45.669 01:26:32.145 : en:01:26:32.145 01:32:29.669 : en:01:32:29.669 01:40:25.102 : en:01:40:25.102 01:47:38.118 : en:01:47:38.118 01:51:12.833 : en:01:51:12.833 01:53:58.832 : en:01:53:58.832

krutor.org

rutor.org :: Варкрафт / Warcraft (2016) BDRemux 1080p от ExKinoRay | D, A

General Unique ID : 247385515354583180154474537475955879153 (0xBA1CB7994C868C5E99D302A0689DECF1) Complete name : H:VideoWarcraft.2016.D.AVO.BDREMUX.1080p.ExKinoRay.mkv Format : Matroska Format version : Version 4 / Version 2 File size : 28.0 GiB Duration : 2 h 3 min Overall bit rate mode : Variable Overall bit rate : 32.5 Mb/s Movie name : build by ***селезень*** Encoded date : UTC 2016-10-18 05:39:03 Writing application : mkvmerge v8.3.0 ('Over the Horizon') 64bit Writing library : libebml v1.3.1 + libmatroska v1.4.2

Video ID : 1 Format : AVC Format/Info : Advanced Video Codec Format profile : [email protected] Format settings, CABAC : Yes Format settings, ReFrames : 4 frames Format settings, GOP : M=3, N=12 Codec ID : V_MPEG4/ISO/AVC Duration : 2 h 3 min Bit rate mode : Variable Bit rate : 21.2 Mb/s Maximum bit rate : 31.5 Mb/s Width : 1 920 pixels Height : 1 080 pixels Display aspect ratio : 16:9 Frame rate mode : Constant Frame rate : 23.976 (24000/1001) FPS Color space : YUV Chroma subsampling : 4:2:0 Bit depth : 8 bits Scan type : Progressive Bits/(Pixel*Frame) : 0.426 Stream size : 18.2 GiB (65%) Title : build by ***селезень*** Language : English Default : Yes Forced : No

Audio #1 ID : 2 Format : AC-3 Format/Info : Audio Coding 3 Mode extension : CM (complete main) Format settings, Endianness : Big Codec ID : A_AC3 Duration : 2 h 3 min Bit rate mode : Constant Bit rate : 640 kb/s Channel(s) : 6 channels Channel positions : Front: L C R, Side: L R, LFE Sampling rate : 48.0 kHz Frame rate : 31.250 FPS (1536 spf) Compression mode : Lossy Stream size : 564 MiB (2%) Title : Dub [License] Language : Russian Default : Yes Forced : No

Audio #2 ID : 3 Format : DTS Format/Info : Digital Theater Systems Format profile : MA / Core Mode : 16 Format settings, Endianness : Big Codec ID : A_DTS Duration : 2 h 3 min Bit rate mode : Variable / Constant Bit rate : 5 146 kb/s / 1 509 kb/s Channel(s) : 8 channels / 6 channels Channel positions : Front: L C R, Side: L R, Back: L R, LFE / Front: L C R, Side: L R, LFE Sampling rate : 48.0 kHz Frame rate : 93.750 FPS (512 spf) Bit depth : 24 bits Compression mode : Lossless / Lossy Stream size : 4.43 GiB (16%) Title : AVO-DTS-HD MA [Esarev] Language : Russian Default : No Forced : No

Audio #3 ID : 4 Format : AC-3 Format/Info : Audio Coding 3 Mode extension : CM (complete main) Format settings, Endianness : Big Codec ID : A_AC3 Duration : 2 h 3 min Bit rate mode : Constant Bit rate : 640 kb/s Channel(s) : 6 channels Channel positions : Front: L C R, Side: L R, LFE Sampling rate : 48.0 kHz Frame rate : 31.250 FPS (1536 spf) Compression mode : Lossy Stream size : 564 MiB (2%) Title : AVO-AC3 [Esarev] Language : Russian Default : No Forced : No

Audio #4 ID : 5 Format : Atmos / TrueHD Codec ID : A_TRUEHD Duration : 2 h 3 min Bit rate mode : Variable Bit rate : 4 834 kb/s Maximum bit rate : 7 893 kb/s Channel(s) : Object Based / 8 channels Channel positions : Object Based / Front: L C R, Side: L R, Back: L R, LFE Sampling rate : / 48.0 kHz Frame rate : 1 200.000 FPS (40 spf) Compression mode : Lossless Stream size : 4.16 GiB (15%) Title : Original Language : English Default : No Forced : No

Text #1 ID : 6 Format : UTF-8 Codec ID : S_TEXT/UTF8 Codec ID/Info : UTF-8 Plain Text Duration : 1 h 43 min Bit rate : 0 b/s Count of elements : 9 Stream size : 305 Bytes (0%) Title : Forced BD Language : Russian Default : Yes Forced : No

Text #2 ID : 7 Format : UTF-8 Codec ID : S_TEXT/UTF8 Codec ID/Info : UTF-8 Plain Text Duration : 1 h 52 min Bit rate : 60 b/s Count of elements : 1216 Stream size : 49.7 KiB (0%) Title : Full BD Language : Russian Default : No Forced : No

Text #3 ID : 8 Format : UTF-8 Codec ID : S_TEXT/UTF8 Codec ID/Info : UTF-8 Plain Text Duration : 1 h 58 min Bit rate : 0 b/s Count of elements : 17 Stream size : 531 Bytes (0%) Title : Forced MBB Language : Russian Default : No Forced : No

Text #4 ID : 9 Format : UTF-8 Codec ID : S_TEXT/UTF8 Codec ID/Info : UTF-8 Plain Text Duration : 2 h 1 min Bit rate : 56 b/s Count of elements : 1378 Stream size : 50.3 KiB (0%) Title : Full MBB Language : Russian Default : No Forced : No

Text #5 ID : 10 Format : UTF-8 Codec ID : S_TEXT/UTF8 Codec ID/Info : UTF-8 Plain Text Duration : 1 h 55 min Bit rate : 57 b/s Count of elements : 1054 Stream size : 48.4 KiB (0%) Title : Full Nunegsdli Language : Russian Default : No Forced : No

Text #6 ID : 11 Format : UTF-8 Codec ID : S_TEXT/UTF8 Codec ID/Info : UTF-8 Plain Text Duration : 2 h 1 min Bit rate : 33 b/s Count of elements : 1248 Stream size : 29.7 KiB (0%) Title : Full Language : Latvian Default : No Forced : No

Text #7 ID : 12 Format : UTF-8 Codec ID : S_TEXT/UTF8 Codec ID/Info : UTF-8 Plain Text Duration : 2 h 1 min Bit rate : 35 b/s Count of elements : 1204 Stream size : 31.4 KiB (0%) Title : Full Language : Lithuanian Default : No Forced : No

Text #8 ID : 13 Format : UTF-8 Codec ID : S_TEXT/UTF8 Codec ID/Info : UTF-8 Plain Text Duration : 2 h 1 min Bit rate : 30 b/s Count of elements : 1220 Stream size : 27.0 KiB (0%) Title : Full Language : Estonian Default : No Forced : No

Text #9 ID : 14 Format : UTF-8 Codec ID : S_TEXT/UTF8 Codec ID/Info : UTF-8 Plain Text Duration : 2 h 1 min Bit rate : 43 b/s Count of elements : 1209 Stream size : 38.5 KiB (0%) Title : Full Language : Ukrainian Default : No Forced : No

Text #10 ID : 15 Format : UTF-8 Codec ID : S_TEXT/UTF8 Codec ID/Info : UTF-8 Plain Text Duration : 1 h 52 min Bit rate : 35 b/s Count of elements : 1074 Stream size : 29.4 KiB (0%) Title : Full Language : English Default : No Forced : No

Text #11 ID : 16 Format : UTF-8 Codec ID : S_TEXT/UTF8 Codec ID/Info : UTF-8 Plain Text Duration : 2 h 1 min Bit rate : 33 b/s Count of elements : 1328 Stream size : 30.0 KiB (0%) Title : Full1 Language : English Default : No Forced : No

Text #12 ID : 17 Format : UTF-8 Codec ID : S_TEXT/UTF8 Codec ID/Info : UTF-8 Plain Text Duration : 1 h 52 min Bit rate : 36 b/s Count of elements : 1234 Stream size : 30.0 KiB (0%) Title : Full2 Language : English Default : No Forced : No

Text #13 ID : 18 Format : UTF-8 Codec ID : S_TEXT/UTF8 Codec ID/Info : UTF-8 Plain Text Duration : 1 h 53 min Bit rate : 41 b/s Count of elements : 1345 Stream size : 34.6 KiB (0%) Title : SDH Language : English Default : No Forced : No

Text #14 ID : 19 Format : UTF-8 Codec ID : S_TEXT/UTF8 Codec ID/Info : UTF-8 Plain Text Duration : 2 h 2 min Bit rate : 38 b/s Count of elements : 1487 Stream size : 34.9 KiB (0%) Title : SDh2 Language : English Default : No Forced : No

Text #15 ID : 20 Format : UTF-8 Codec ID : S_TEXT/UTF8 Codec ID/Info : UTF-8 Plain Text Duration : 1 h 53 min Bit rate : 41 b/s Count of elements : 1393 Stream size : 34.8 KiB (0%) Title : SDh3 Language : English Default : No Forced : No

Menu 00:00:00.000 : en:00:00:00.000 00:09:26.483 : en:00:09:26.483 00:15:49.407 : en:00:15:49.407 00:22:36.146 : en:00:22:36.146 00:29:16.171 : en:00:29:16.171 00:38:43.321 : en:00:38:43.321 00:46:44.093 : en:00:46:44.093 00:53:02.679 : en:00:53:02.679 00:56:17.332 : en:00:56:17.332 01:02:43.927 : en:01:02:43.927 01:07:48.314 : en:01:07:48.314 01:12:24.549 : en:01:12:24.549 01:17:13.045 : en:01:17:13.045 01:22:45.669 : en:01:22:45.669 01:26:32.145 : en:01:26:32.145 01:32:29.669 : en:01:32:29.669 01:40:25.102 : en:01:40:25.102 01:47:38.118 : en:01:47:38.118 01:51:12.833 : en:01:51:12.833 01:53:58.832 : en:01:53:58.832

main-rutor.org


Смотрите также