Скачать торрент отряд самоубийц расширенная версия


Скачать торрент Отряд самоубийц / Suicide Squad (2016) BDRip 1080p от ExKinoRay | Расширенная версия

Информация о фильмеНазвание: Отряд самоубийцОригинальное название: Suicide SquadГод выхода: 2016Жанр: Фантастика, боевик, триллер, комедия, криминал, приключенияРежиссер: Дэвид ЭйрВ ролях: Марго Робби, Уилл Смит, Джаред Лето, Джай Кортни, Кара Делевинь, Джей Эрнандес, Юэль Киннаман, Виола Дэвис

О фильме:После того, как Супермен напоролся на несовместимые с жизнью обстоятельства, в Метро-Сити наступили смутные времена. Налоги, катаклизмы, покемоны, бандитизм и недобор в армию. С последним мириться было нельзя и за дело взялся знающий человек - местный военком с добрым лицом тети Тани из передачи "Спокойной ночи, малыши". Она собрала всех гопников, тунеядцев, бомжей и калек в районе и определила их в добровольный отряд дружинников "Городские хризантемы". Все вместе они вступают в кровавую стычку с бандой древних сущностей из потустороннего астрала, терроризирующих торговые палатки выходцев из солнечного Готэма, а также совершают еще множество глупых подвигов.

Страна: СШАСтудия: DC Comics, Warner Bros. PicturesПродолжительность: 02:14:33Перевод(ы): #1: Дублированный #2: Авторский | А. Матвеев

ФайлКодек: MPEG-4Качество: BDRip 1080pВидео: 1920x800, 10.3 Мbit/s, 23.976 fpsЗвук: Аудио #01: 48 kHz, AC3, 5.1, 640 Kbps | Дублированный |Аудио #02: 48 kHz, DTS, 5.1, 1510 Kbps | Авторский |Аудио #03: 48 kHz, AC3, 5.1, 640 kbps | Оригинал |Субтитры: Русские (forced, full), английские

MI

General Unique ID : 245434950237932736804676424682281235425 (0xB8A50D5047F71113B8F3C7D256BDF3E1) Complete name : G:VideoSuicide.Squad.2016.EXTENDED.BDRip.1080p.ExKinoRay.mkv Format : Matroska Format version : Version 4 / Version 2 File size : 12.3 GiB Duration : 2 h 14 min Overall bit rate : 13.1 Mb/s Movie name : Suicide.Squad.2016.EXTENDED ***селезень*** Encoded date : UTC 2016-12-01 05:38:51 Writing application : mkvmerge v8.3.0 ('Over the Horizon') 64bit Writing library : libebml v1.3.1 + libmatroska v1.4.2

Video ID : 1 Format : AVC Format/Info : Advanced Video Codec Format profile : [email protected] Format settings, CABAC : Yes Format settings, ReFrames : 5 frames Codec ID : V_MPEG4/ISO/AVC Duration : 2 h 14 min Bit rate : 10.3 Mb/s Width : 1 920 pixels Height : 800 pixels Display aspect ratio : 2.40:1 Frame rate mode : Constant Frame rate : 23.976 (24000/1001) FPS Color space : YUV Chroma subsampling : 4:2:0 Bit depth : 8 bits Scan type : Progressive Bits/(Pixel*Frame) : 0.279 Stream size : 9.66 GiB (79%) Title : Suicide.Squad.2016.EXTENDED ***селезень*** Writing library : x264 core 148 r2699+6+41 29a38aa Yuuki [[email protected]:2:0 X86_64][GCC 5.3.0] Encoding settings : cabac=1 / ref=5 / deblock=1:-3:-3 / analyse=0x3:0x113 / me=umh / subme=11 / psy=1 / fade_compensate=0.00 / psy_rd=1.00:0.05 / mixed_ref=1 / me_range=32 / chroma_me=1 / trellis=2 / 8x8dct=1 / cqm=0 / deadzone=21,11 / fast_pskip=0 / chroma_qp_offset=-2 / threads=24 / lookahead_threads=4 / sliced_threads=0 / nr=0 / decimate=1 / interlaced=0 / bluray_compat=0 / constrained_intra=0 / fgo=0 / bframes=8 / b_pyramid=2 / b_adapt=2 / b_bias=0 / direct=3 / weightb=1 / open_gop=0 / weightp=2 / keyint=250 / keyint_min=23 / scenecut=40 / intra_refresh=0 / rc_lookahead=40 / rc=crf / mbtree=0 / crf=18.6000 / qcomp=0.60 / qpmin=0:0:0 / qpmax=69:69:69 / qpstep=4 / vbv_maxrate=50000 / vbv_bufsize=40000 / crf_max=0.0 / nal_hrd=none / filler=0 / ip_ratio=1.40 / pb_ratio=1.30 / aq=3:0.90 Language : English Default : Yes Forced : No

Audio #1 ID : 2 Format : AC-3 Format/Info : Audio Coding 3 Mode extension : CM (complete main) Format settings, Endianness : Big Codec ID : A_AC3 Duration : 2 h 14 min Bit rate mode : Constant Bit rate : 640 kb/s Channel(s) : 6 channels Channel positions : Front: L C R, Side: L R, LFE Sampling rate : 48.0 kHz Frame rate : 31.250 FPS (1536 spf) Bit depth : 16 bits Compression mode : Lossy Stream size : 616 MiB (5%) Title : DA Language : Russian Default : Yes Forced : No

Audio #2 ID : 3 Format : DTS Format/Info : Digital Theater Systems Mode : 16 Format settings, Endianness : Big Codec ID : A_DTS Duration : 2 h 14 min Bit rate mode : Constant Bit rate : 1 509 kb/s Channel(s) : 6 channels Channel positions : Front: L C R, Side: L R, LFE Sampling rate : 48.0 kHz Frame rate : 93.750 FPS (512 spf) Bit depth : 24 bits Compression mode : Lossy Stream size : 1.42 GiB (12%) Title : AVO-DTS [Matveev] Language : Russian Default : No Forced : No

Audio #3 ID : 4 Format : AC-3 Format/Info : Audio Coding 3 Mode extension : CM (complete main) Format settings, Endianness : Big Codec ID : A_AC3 Duration : 2 h 14 min Bit rate mode : Constant Bit rate : 640 kb/s Channel(s) : 6 channels Channel positions : Front: L C R, Side: L R, LFE Sampling rate : 48.0 kHz Frame rate : 31.250 FPS (1536 spf) Bit depth : 16 bits Compression mode : Lossy Stream size : 616 MiB (5%) Title : Original Language : English Default : No Forced : No

Text #1 ID : 5 Format : UTF-8 Codec ID : S_TEXT/UTF8 Codec ID/Info : UTF-8 Plain Text Duration : 2 h 5 min Bit rate : 7 b/s Count of elements : 69 Stream size : 7.07 KiB (0%) Title : Forced [Matveev] Language : Russian Default : Yes Forced : No

Text #2 ID : 6 Format : UTF-8 Codec ID : S_TEXT/UTF8 Codec ID/Info : UTF-8 Plain Text Duration : 2 h 13 min Bit rate : 72 b/s Count of elements : 1570 Stream size : 71.4 KiB (0%) Title : Full [iTunes] Language : Russian Default : No Forced : No

Text #3 ID : 7 Format : UTF-8 Codec ID : S_TEXT/UTF8 Codec ID/Info : UTF-8 Plain Text Duration : 2 h 7 min Bit rate : 47 b/s Count of elements : 1619 Stream size : 44.6 KiB (0%) Title : Full Language : English Default : No Forced : No

Menu 00:00:00.000 : en:00:00:00.000 00:09:08.506 : en:00:09:08.506 00:20:22.972 : en:00:20:22.972 00:31:14.706 : en:00:31:14.706 00:41:04.879 : en:00:41:04.879 00:52:21.805 : en:00:52:21.805 01:04:48.843 : en:01:04:48.843 01:21:12.743 : en:01:21:12.743 01:32:11.943 : en:01:32:11.943 01:42:57.671 : en:01:42:57.671 01:50:58.652 : en:01:50:58.652 02:04:04.812 : en:02:04:04.812

Примечание

Extended Edition - расширенная версия, длиннее театральной на 12 минут! Полный перевод! Расширенные сцены озвучены А.Матвеевым.

Релиз от: Автор релиза:

krutor.org

Скачать торрент Отряд самоубийц / Suicide Squad (2016) BDRemux 1080p от ExKinoRay | Расширенная версия | D, A

Информация о фильмеНазвание: Отряд самоубийцОригинальное название: Suicide SquadГод выхода: 2016Жанр: Фантастика, боевик, триллер, комедия, криминал, приключенияРежиссер: Дэвид ЭйрВ ролях: Марго Робби, Уилл Смит, Джаред Лето, Джай Кортни, Кара Делевинь, Джей Эрнандес, Юэль Киннаман, Виола Дэвис

О фильме:Однажды директорше Агентства Национальной Безопасности привиделся жуткий кошмар – Супермену надоело летать над крышами небоскребов и вечно спасать мир. Когда Супермен бросил это позорное занятие, то явился в Белый Дом, выгнал оттуда к чертовой бабушке президента, сел в кресло в Овальном кабинете и заявил: «Этот домик мой немножко будет». Проснулась директорша в холодном поту и возопила – кто, кто спасет нас от съехавших с катушек супергероев? Ну конечно, только «Отряд Х» – отмороженная бригада из суперзлодеев, мотающих срок по тюрьмам да по темницам. И в самом деле – случись что, так их не жалко, а выйдут они из-под контроля, так у каждого на этот случай вживленная бомба имеется. И только этот бравый отряд успели собрать, как тут же во мрачном подземелье обнаружился древний злобный бог, решивший без шума и пыли весь мир к своим грязным лапам прибрать.

Страна: СШАСтудия: DC Comics, Warner Bros. PicturesПродолжительность: 02:14:32Перевод(ы): #1: Дублированный | iTunes #2: Авторский | А. Матвеев

ФайлКодек: MPEG-4Качество: BDRemux 1080pВидео: 1920x1080, 24.8 Mbit/s, 23.976 fpsЗвук: Аудио #01: 48 kHz, AC3, 5.1, 384 Kbps | Дублированный |Аудио #02: 48 kHz, AC3, 5.1, 384 Kbps | А. Матвеев |Аудио #03: 48 kHz, TrueHD, 7.1, 3758 kbps | Оригинал |Субтитры: Русские (forced, full), английские

MI

General Unique ID : 249017358850354808518885729517976539751 (0xBB56FFB1E51D990FACB388FB9569D267) Complete name : G:VideoSuicide.Squad.2016.EXTENDED.BDREMUX.1080p.ExKinoRay.mkv Format : Matroska Format version : Version 4 / Version 2 File size : 27.7 GiB Duration : 2 h 14 min Overall bit rate mode : Variable Overall bit rate : 29.4 Mb/s Movie name : Suicide.Squad.2016.EXTENDED build by ***селезень*** Encoded date : UTC 2016-11-29 21:37:17 Writing application : mkvmerge v8.3.0 ('Over the Horizon') 64bit Writing library : libebml v1.3.1 + libmatroska v1.4.2

Video ID : 1 Format : AVC Format/Info : Advanced Video Codec Format profile : [email protected] Format settings, CABAC : Yes Format settings, ReFrames : 4 frames Codec ID : V_MPEG4/ISO/AVC Duration : 2 h 14 min Bit rate mode : Variable Bit rate : 24.8 Mb/s Maximum bit rate : 30.0 Mb/s Width : 1 920 pixels Height : 1 080 pixels Display aspect ratio : 16:9 Frame rate mode : Constant Frame rate : 23.976 (24000/1001) FPS Color space : YUV Chroma subsampling : 4:2:0 Bit depth : 8 bits Scan type : Progressive Bits/(Pixel*Frame) : 0.500 Stream size : 23.4 GiB (84%) Title : Suicide.Squad.2016.EXTENDED build by ***селезень*** Language : English Default : Yes Forced : No

Audio #1 ID : 2 Format : AC-3 Format/Info : Audio Coding 3 Mode extension : CM (complete main) Format settings, Endianness : Big Codec ID : A_AC3 Duration : 2 h 14 min Bit rate mode : Constant Bit rate : 384 kb/s Channel(s) : 6 channels Channel positions : Front: L C R, Side: L R, LFE Sampling rate : 48.0 kHz Frame rate : 31.250 FPS (1536 spf) Bit depth : 16 bits Compression mode : Lossy Stream size : 370 MiB (1%) Language : Russian Default : Yes Forced : No

Audio #2 ID : 3 Format : AC-3 Format/Info : Audio Coding 3 Mode extension : CM (complete main) Format settings, Endianness : Big Codec ID : A_AC3 Duration : 2 h 14 min Bit rate mode : Constant Bit rate : 384 kb/s Channel(s) : 6 channels Channel positions : Front: L C R, Side: L R, LFE Sampling rate : 48.0 kHz Frame rate : 31.250 FPS (1536 spf) Bit depth : 16 bits Compression mode : Lossy Stream size : 370 MiB (1%) Title : AVO Language : Russian Default : No Forced : No

Audio #3 ID : 4 Format : Atmos / TrueHD Codec ID : A_TRUEHD Duration : 2 h 14 min Bit rate mode : Variable Bit rate : 3 758 kb/s Maximum bit rate : 5 976 kb/s Channel(s) : Object Based / 8 channels Channel positions : Object Based / Front: L C R, Side: L R, Back: L R, LFE Sampling rate : / 48.0 kHz Frame rate : 1 200.000 FPS (40 spf) Compression mode : Lossless Stream size : 3.53 GiB (13%) Title : Original Language : English Default : No Forced : No

Text #1 ID : 5 Format : UTF-8 Codec ID : S_TEXT/UTF8 Codec ID/Info : UTF-8 Plain Text Duration : 2 h 5 min Bit rate : 7 b/s Count of elements : 69 Stream size : 7.07 KiB (0%) Title : Forced [Matveev] Language : Russian Default : Yes Forced : No

Text #2 ID : 6 Format : UTF-8 Codec ID : S_TEXT/UTF8 Codec ID/Info : UTF-8 Plain Text Duration : 2 h 13 min Bit rate : 72 b/s Count of elements : 1570 Stream size : 71.4 KiB (0%) Title : Full [iTunes] Language : Russian Default : No Forced : No

Text #3 ID : 7 Format : UTF-8 Codec ID : S_TEXT/UTF8 Codec ID/Info : UTF-8 Plain Text Duration : 2 h 7 min Bit rate : 47 b/s Count of elements : 1619 Stream size : 44.6 KiB (0%) Title : Full Language : English Default : No Forced : No

Menu 00:00:00.000 : en:00:00:00.000 00:09:08.506 : en:00:09:08.506 00:20:22.972 : en:00:20:22.972 00:31:14.706 : en:00:31:14.706 00:41:04.879 : en:00:41:04.879 00:52:21.805 : en:00:52:21.805 01:04:48.843 : en:01:04:48.843 01:21:12.743 : en:01:21:12.743 01:32:11.943 : en:01:32:11.943 01:42:57.671 : en:01:42:57.671 01:50:58.652 : en:01:50:58.652 02:04:04.812 : en:02:04:04.812

Примечание

Extended Edition - расширенная версия, длиннее театральной на 12 минут! Полный перевод! Расширенные сцены озвучены А.Матвеевым.

Релиз от: Автор релиза:

mrutor.org

Скачать торрент Отряд самоубийц / Suicide Squad (2016) BDRip-AVC от R.G.Resident | Расширенная версия

General Unique ID : 247781362459017590579415053395813012301 (0xBA68F45E2E59F23D88917364212D134D) Complete name : D:downloadSuicide Squad. 2016. Extended Cut. BDRip-AVC by schultz R.G.Resident.mkv Format : Matroska Format version : Version 4 / Version 2 File size : 3.63 GiB Duration : 2 h 14 min Overall bit rate : 3 867 kb/s Encoded date : UTC 2016-11-30 13:08:04 Writing application : mkvmerge v8.9.0 ('Father Daughter') 64bit Writing library : libebml v1.3.3 + libmatroska v1.4.4

Video ID : 1 Format : AVC Format/Info : Advanced Video Codec Format profile : [email protected] Format settings, CABAC : Yes Format settings, ReFrames : 12 frames Codec ID : V_MPEG4/ISO/AVC Duration : 2 h 14 min Bit rate : 2 520 kb/s Width : 1 024 pixels Height : 426 pixels Display aspect ratio : 2.40:1 Frame rate mode : Constant Frame rate : 23.976 (23976/1000) FPS Color space : YUV Chroma subsampling : 4:2:0 Bit depth : 8 bits Scan type : Progressive Bits/(Pixel*Frame) : 0.241 Stream size : 2.37 GiB (65%) Writing library : x264 core 146 r2538 121396c Encoding settings : cabac=1 / ref=12 / deblock=1:-3:-3 / analyse=0x3:0x113 / me=umh / subme=11 / psy=1 / psy_rd=1.00:0.00 / mixed_ref=1 / me_range=48 / chroma_me=1 / trellis=2 / 8x8dct=1 / cqm=0 / deadzone=21,11 / fast_pskip=0 / chroma_qp_offset=-2 / threads=12 / lookahead_threads=3 / sliced_threads=0 / nr=0 / decimate=0 / interlaced=0 / bluray_compat=0 / constrained_intra=0 / bframes=11 / b_pyramid=2 / b_adapt=2 / b_bias=0 / direct=3 / weightb=1 / open_gop=0 / weightp=2 / keyint=240 / keyint_min=23 / scenecut=40 / intra_refresh=0 / rc_lookahead=40 / rc=2pass / mbtree=1 / bitrate=2520 / ratetol=1.0 / qcomp=0.60 / qpmin=0 / qpmax=69 / qpstep=4 / cplxblur=20.0 / qblur=0.5 / vbv_maxrate=50000 / vbv_bufsize=62500 / nal_hrd=none / filler=0 / ip_ratio=1.40 / aq=1:1.00 Language : English Default : Yes Forced : No

Audio #1 ID : 2 Format : AC-3 Format/Info : Audio Coding 3 Mode extension : CM (complete main) Format settings, Endianness : Big Codec ID : A_AC3 Duration : 2 h 14 min Bit rate mode : Constant Bit rate : 448 kb/s Channel(s) : 6 channels Channel positions : Front: L C R, Side: L R, LFE Sampling rate : 48.0 kHz Frame rate : 31.250 FPS (1536 spf) Compression mode : Lossy Stream size : 431 MiB (12%) Language : Russian Default : Yes Forced : No

Audio #2 ID : 3 Format : AC-3 Format/Info : Audio Coding 3 Mode extension : CM (complete main) Format settings, Endianness : Big Codec ID : A_AC3 Duration : 2 h 14 min Bit rate mode : Constant Bit rate : 448 kb/s Channel(s) : 6 channels Channel positions : Front: L C R, Side: L R, LFE Sampling rate : 48.0 kHz Frame rate : 31.250 FPS (1536 spf) Compression mode : Lossy Stream size : 431 MiB (12%) Language : Russian Default : No Forced : No

Audio #3 ID : 4 Format : AC-3 Format/Info : Audio Coding 3 Mode extension : CM (complete main) Format settings, Endianness : Big Codec ID : A_AC3 Duration : 2 h 14 min Bit rate mode : Constant Bit rate : 448 kb/s Channel(s) : 6 channels Channel positions : Front: L C R, Side: L R, LFE Sampling rate : 48.0 kHz Frame rate : 31.250 FPS (1536 spf) Compression mode : Lossy Stream size : 431 MiB (12%) Language : English Default : No Forced : No

Text #1 ID : 5 Format : UTF-8 Codec ID : S_TEXT/UTF8 Codec ID/Info : UTF-8 Plain Text Duration : 2 h 5 min Bit rate : 7 b/s Count of elements : 69 Stream size : 7.07 KiB (0%) Title : Forced Language : Russian Default : Yes Forced : No

Text #2 ID : 6 Format : UTF-8 Codec ID : S_TEXT/UTF8 Codec ID/Info : UTF-8 Plain Text Duration : 2 h 13 min Bit rate : 72 b/s Count of elements : 1570 Stream size : 71.4 KiB (0%) Title : Full Language : Russian Default : No Forced : No

Text #3 ID : 7 Format : UTF-8 Codec ID : S_TEXT/UTF8 Codec ID/Info : UTF-8 Plain Text Duration : 2 h 7 min Bit rate : 47 b/s Count of elements : 1619 Stream size : 44.6 KiB (0%) Title : Full Language : English Default : No Forced : No

Text #4 ID : 8 Format : UTF-8 Codec ID : S_TEXT/UTF8 Codec ID/Info : UTF-8 Plain Text Duration : 2 h 6 min Bit rate : 59 b/s Count of elements : 1821 Stream size : 55.4 KiB (0%) Title : SDH Language : English Default : No Forced : No

Menu 00:00:00.000 : en:00:00:00.000 00:09:08.506 : en:00:09:08.506 00:20:22.972 : en:00:20:22.972 00:31:14.706 : en:00:31:14.706 00:41:04.879 : en:00:41:04.879 00:52:21.805 : en:00:52:21.805 01:04:48.843 : en:01:04:48.843 01:21:12.743 : en:01:21:12.743 01:32:11.943 : en:01:32:11.943 01:42:57.671 : en:01:42:57.671 01:50:58.652 : en:01:50:58.652 02:04:04.812 : en:02:04:04.812

krutor.org

Скачать торрент Отряд самоубийц / Suicide Squad (2016) BDRip 720p от Scarabey | Расширенная версия

Расширенная версия

Год выпуска: 2016Страна: СШАЖанр: фантастика, фэнтези, боевик, приключенияПродолжительность: 02:14:32Перевод: Профессиональный (полное дублирование) [iTunes+mix]*расширенные эпизоды озвучены А.МатвеевымСубтитры: русские (форсированные) - на текст и надписи

Режиссер: Дэвид Эйр / David Ayer

В ролях: Марго Робби, Уилл Смит, Джаред Лето, Джай Кортни, Кара Делевинь, Джей Эрнандес, Юэль Киннаман, Виола Дэвис, Скотт Иствуд

Описание: Правительство решает дать команде суперзлодеев шанс на искупление. Подвох в том, что их отправляют на миссию, где они, вероятнее всего, погибнут.

Качество видео: BDRip 720p (HDS)Формат видео: MKV

Видео: 1280х534, 23,976 fps, ACV ~3746 kbps avg, 0.27 bit/pixelАудио: 48 kHz, AC3, 3/2 (L,C,R,l,r) + LFE ch, ~640.00 kbps avg

Прим. автора:

На спектр (именно здесь) плевать, это как смотреть на битрейт у Камрипа...больше верю тому что слышу и тем кого знаю, тем более если это те кто начинал работать с Шеллом. Дорожка ~640.00 kbps avg взята с Клаба, спасибо Юре Скажутину. Учитывая статус трекера и автора звука - я бы приравнял к лицензии, ибо лучше может и не быть, но уже "закипело" смотрю, так что ограничимся "D".

Даже если появится официальный дубляж на расширенную - перезаливать вряд ли буду, во-первых времени жалко, во-вторых он лучше не будет, ибо iTunes и есть лицензия Apple, если кто не в курсе, в-третьих я уже заколебался перезаливать этот фильм в разных версиях из-за мизерной разнице в звуке, его и так уже качает раз в 10 меньше народу чем начальный WEB-DL.

Релиз от:

АНОНСЫ МОИХ РАЗДАЧ!

МедиаИнфо

Suicide.Squad.Ext.Cut.2016.720p_BDRip_[scarabey.org].mkv Формат : Matroska Версия формата : Version 4 / Version 2 Размер файла : 4,21 Гбайт Продолжительность : 2 ч. 14 м. Общий поток : 4475 Кбит/сек Название фильма : Suicide Squad Extended Cut 2016 720p BluRay DD5.1 x264-HDS Дата кодирования : UTC 2016-12-01 20:18:26 Программа кодирования : mkvmerge v6.1.0 ('Old Devil') built on Mar 4 2013 09:10:42 Библиотека кодирования : libebml v1.3.0 + libmatroska v1.4.0

Видео Идентификатор : 1 Формат : AVC Формат/Информация : Advanced Video Codec Профиль формата : [email protected] Параметр CABAC формата : Да Параметр ReFrames формата : 12 кадров Идентификатор кодека : V_MPEG4/ISO/AVC Продолжительность : 2 ч. 14 м. Битрейт : 3746 Кбит/сек Ширина : 1280 пикселей Высота : 534 пикселя Соотношение сторон : 2,40:1 Режим частоты кадров : Постоянный Частота кадров : 23,976 (24000/1001) кадра/сек Цветовое пространство : YUV Субдискретизация насыщенности : 4:2:0 Битовая глубина : 8 бит Тип развёртки : Прогрессивная Бит/(Пиксели*Кадры) : 0.229 Размер потока : 3,52 Гбайт (84%) Заголовок : 环环@HDS Библиотека кодирования : x264 core 148 r2699+6+41 29a38aa Yuuki [[email protected]:2:0 X86_64][GCC 5.3.0] Настройки программы : cabac=1 / ref=12 / deblock=1:-3:-3 / analyse=0x3:0x113 / me=umh / subme=11 / psy=1 / fade_compensate=0.00 / psy_rd=1.00:0.05 / mixed_ref=1 / me_range=32 / chroma_me=1 / trellis=2 / 8x8dct=1 / cqm=0 / deadzone=21,11 / fast_pskip=0 / chroma_qp_offset=-2 / threads=24 / lookahead_threads=4 / sliced_threads=0 / nr=0 / decimate=1 / interlaced=0 / bluray_compat=0 / constrained_intra=0 / fgo=0 / bframes=8 / b_pyramid=2 / b_adapt=2 / b_bias=0 / direct=3 / weightb=1 / open_gop=0 / weightp=2 / keyint=250 / keyint_min=23 / scenecut=40 / intra_refresh=0 / rc=crf / mbtree=0 / crf=18.0000 / qcomp=0.60 / qpmin=0:0:0 / qpmax=69:69:69 / qpstep=4 / ip_ratio=1.40 / pb_ratio=1.30 / aq=3:0.90 Default : Да Forced : Нет

Аудио Идентификатор : 2 Формат : AC-3 Формат/Информация : Audio Coding 3 Расширение режима : CM (complete main) Параметр Endianness формата : Big Идентификатор кодека : A_AC3 Продолжительность : 2 ч. 14 м. Вид битрейта : Постоянный Битрейт : 640 Кбит/сек Каналы : 6 каналов Расположение каналов : Front: L C R, Side: L R, LFE Частота : 48,0 КГц Частота кадров : 31,250 кадров/сек (1536 spf) Метод сжатия : С потерями Размер потока : 616 Мбайт (14%) Заголовок : Дубляж - лицензия Язык : Russian Default : Да Forced : Нет

Текст Идентификатор : 3 Формат : UTF-8 Идентификатор кодека : S_TEXT/UTF8 Идентификатор кодека/Информация : UTF-8 Plain Text Заголовок : Русские, форсированные Язык : Russian Default : Да Forced : Нет

[/spoiier]

mrutor.org

Скачать торрент Отряд самоубийц / Suicide Squad (2016) BDRip-AVC от ExKinoRay | Расширенная версия

Отряд самоубийц / Suicide Squad«Justice has a bad side»

Год выпуска: 2016Страна: СШАПроизводство: DC Comics, Warner Bros. PicturesЖанр: Фантастика, боевик, триллер, комедия, криминал, приключения

Режиссёр: Дэвид ЭйрВ ролях: Марго Робби, Уилл Смит, Джаред Лето, Джай Кортни, Кара Делевинь, Джей Эрнандес, Юэль Киннаман, Виола Дэвис

Перевод: Авторский | А. Матвеев

Описание: После того, как Супермен напоролся на несовместимые с жизнью обстоятельства, в Метро-Сити наступили смутные времена. Налоги, катаклизмы, покемоны, бандитизм и недобор в армию. С последним мириться было нельзя и за дело взялся знающий человек - местный военком с добрым лицом тети Тани из передачи "Спокойной ночи, малыши". Она собрала всех гопников, тунеядцев, бомжей и калек в районе и определила их в добровольный отряд дружинников "Городские хризантемы". Все вместе они вступают в кровавую стычку с бандой древних сущностей из потустороннего астрала, терроризирующих торговые палатки выходцев из солнечного Готэма, а также совершают еще множество глупых подвигов.

Качество: BDRip-AVCПродолжительность: 02:14:32

Формат: MKVВидео кодек: x264Аудио кодек: AC3Видео: 1024x426 (2.40:1), 23.976 fps, x264 ~1868 kbps avg, 0.179 bit/pixelАудио: 48 kHz, AC3 Dolby Digital, 3/2 (L,C,R,l,r) + LFE ch, ~448.00 kbps avg | RUSСубтитры: Русские

**** Extended Edition - расширенная версия, длиннее театральной на 12 минут!

Дата премьеры (мир): 4 августа 2016Дата премьеры (РФ): 4 августа 2016, «Каро-Премьер»

Релиз от: Rip by:

MediaInfo

Общее Уникальный идентификатор : 220358334927502069159315718073369432624 (0xA5C778B905C06511BDC597B582971230) Полное имя : D:ВидеоSuicide.Squad.2016.EXTENDED.АП Матвеев..BDRip(AVC).ExKinoRay .mkv Формат : Matroska Версия формата : Version 4 / Version 2 Размер файла : 2,18 Гбайт Продолжительность : 2 ч. 14 м. Общий поток : 2318 Кбит/сек Название фильма : Suicide.Squad.2016.EXTENDED by TorpedoUK (ExKinoRay) Дата кодирования : UTC 2016-12-02 15:43:23 Программа кодирования : mkvmerge v9.6.0 ('Slave To Your Mind') 64bit Библиотека кодирования : libebml v1.3.4 + libmatroska v1.4.5 DURATION : 02:14:32.896000000 NUMBER_OF_FRAMES : 252278 NUMBER_OF_BYTES : 452082176 _STATISTICS_WRITING_APP : mkvmerge v9.6.0 ('Slave To Your Mind') 64bit _STATISTICS_WRITING_DATE_UTC : 2016-12-02 15:43:23 _STATISTICS_TAGS : BPS DURATION NUMBER_OF_FRAMES NUMBER_OF_BYTES

Видео Идентификатор : 1 Формат : AVC Формат/Информация : Advanced Video Codec Профиль формата : [email protected] Параметр CABAC формата : Да Параметр ReFrames формата : 10 кадров Идентификатор кодека : V_MPEG4/ISO/AVC Продолжительность : 2 ч. 14 м. Битрейт : 1868 Кбит/сек Ширина : 1024 пикселя Высота : 426 пикселей Соотношение сторон : 2,40:1 Режим частоты кадров : Постоянный Частота кадров : 23,976 кадра/сек Цветовое пространство : YUV Субдискретизация насыщенности : 4:2:0 Битовая глубина : 8 бит Тип развёртки : Прогрессивная Бит/(Пиксели*Кадры) : 0.179 Размер потока : 1,71 Гбайт (79%) Библиотека кодирования : x264 core 146 r2538 121396c Настройки программы : cabac=1 / ref=10 / deblock=1:-3:-3 / analyse=0x3:0x133 / me=umh / subme=11 / psy=1 / psy_rd=1.00:0.03 / mixed_ref=1 / me_range=48 / chroma_me=1 / trellis=2 / 8x8dct=1 / cqm=0 / deadzone=21,11 / fast_pskip=0 / chroma_qp_offset=-3 / threads=6 / lookahead_threads=1 / sliced_threads=0 / nr=0 / decimate=0 / interlaced=0 / bluray_compat=0 / constrained_intra=0 / bframes=10 / b_pyramid=2 / b_adapt=2 / b_bias=0 / direct=3 / weightb=1 / open_gop=0 / weightp=2 / keyint=240 / keyint_min=23 / scenecut=40 / intra_refresh=0 / rc_lookahead=40 / rc=2pass / mbtree=0 / bitrate=1868 / ratetol=1.0 / qcomp=0.60 / qpmin=0 / qpmax=69 / qpstep=4 / cplxblur=20.0 / qblur=0.5 / vbv_maxrate=50000 / vbv_bufsize=62500 / nal_hrd=none / filler=0 / ip_ratio=1.40 / pb_ratio=1.30 / aq=1:1.00 Default : Да Forced : Нет

Аудио Идентификатор : 2 Формат : AC-3 Формат/Информация : Audio Coding 3 Расширение режима : CM (complete main) Параметр Endianness формата : Big Идентификатор кодека : A_AC3 Продолжительность : 2 ч. 14 м. Вид битрейта : Постоянный Битрейт : 448 Кбит/сек Каналы : 6 каналов Расположение каналов : Front: L C R, Side: L R, LFE Частота : 48,0 КГц Битовая глубина : 16 бит Метод сжатия : С потерями Размер потока : 431 Мбайт (19%) Заголовок : АП Матвеев Язык : Russian Default : Да Forced : Нет

Текст #1 Идентификатор : 3 Формат : UTF-8 Идентификатор кодека : S_TEXT/UTF8 Идентификатор кодека/Информация : UTF-8 Plain Text Заголовок : Forced [Matveev] Язык : Russian Default : Да Forced : Нет

Текст #2 Идентификатор : 4 Формат : UTF-8 Идентификатор кодека : S_TEXT/UTF8 Идентификатор кодека/Информация : UTF-8 Plain Text Заголовок : Full [iTunes] Язык : Russian Default : Нет Forced : Нет

Меню 00:00:00.000 : en:00:00:00.000 00:09:08.506 : en:00:09:08.506 00:20:22.972 : en:00:20:22.972 00:31:14.706 : en:00:31:14.706 00:41:04.879 : en:00:41:04.879 00:52:21.805 : en:00:52:21.805 01:04:48.843 : en:01:04:48.843 01:21:12.743 : en:01:21:12.743 01:32:11.943 : en:01:32:11.943 01:42:57.671 : en:01:42:57.671 01:50:58.652 : en:01:50:58.652 02:04:04.812 : en:02:04:04.812

mrutor.org


Смотрите также