Скачать торрент терминатор 1984 режиссерская версия


rutor.org :: Терминатор / Terminator (1984) HDRip от by Magy®

Информация о фильме Название: Терминатор [Реставрация]Оригинальное название: The Terminator [Remastered]Год выхода: 1984Жанр: Фантастика, боевик, триллерРежиссер: Джеймс КэмеронВ ролях: Арнольд Шварценеггер, Билл Пэкстон, Линда Хэмилтон, Лэнс Хенриксен, Майкл Бин, Эрл Боэн, Пол Уинфилд, Рик Россович, Бесс Мотта, Том Оберхауз, Брайан Томпсон, Уильям Уишер, Дик Миллер, Шон Шеппс, Брюс М. Кернер, Брэд Рирден

О фильме: В центре сюжета — противостояние солдата Кайла Риза и киборга-терминатора, прибывших в 1984-ый год из пост-апокалиптического будущего, где миром правят машины-убийцы, а человечество находится на грани вымирания. Цель киборга: убить девушку по имени Сара Коннор, чей ещё нерождённый сын к 2029 году выиграет войну человечества с машинами. Цель солдата Кайла Риза: спасти Сару и остановить Терминатора любой ценой.

Знаете ли вы, что...

  • О. Джей Симпсон мог исполнить роль Терминатора, но продюсеры отклонили его кандидатуру, т. к. по их мнению, у него «слишком дружелюбная внешность» для того, чтобы зрители могли воспринимать его всерьёз в качестве хладнокровного убийцы.
  • Герой Майкла Бьена ходит раненый в руку во всех фильмах режиссера — в «Терминаторе» (1984), «Чужих» (1986) и «Бездне» (1989).
  • Джеймс Камерон продал первый вариант сценария своей жене, Гэйл Энн Херд, за один доллар США.
  • В сценарной заявке к фильму говорилось о том, что Терминатор должен был время от времени есть, для того чтобы его человеческая плоть не разрушалась. Также была сцена, в которой Терминатор ест шоколадку.
  • Майкл Бьен мог не сыграть в этом фильме. Дело в том, что во время кастинга он говорил с южным акцентом, а продюсеры не хотели, чтобы по акценту Риза можно было определить его место рождения. Но после продолжительных переговоров актер всё-таки получил роль в фильме.
  • Арнольд Шварценеггер говорит в 18 сценах фильма. Своим голосом Арнольд говорит в 16 сценах, произнеся 17 предложений. Также в одной сцене Терминатор говорит голосом офицера полиции, а в другой — голосом матери Сары.
  • Когда Риз спасает Сару во время перестрелки в ночном клубе, он говорит ей: «Пойдем со мной, если хочешь жить». Примечательно, что Терминатор говорит точно такую же фразу, когда он спасает Сару в «Терминатор 2: Судный день» (1991)
  • Начало съёмок фильма была отложено на девять месяцев из-за затянувшегося производственного процесса «Конана Разрушителя» (1984), где Арнольд Шварценеггер играл главную роль. Чтобы не терять времени даром, Джеймс Камерон поначалу хотел поставить еще один фильм, но отказался от этой идеи, т. к. для производства полноценного фильма у него было слишком мало времени. Поэтому он решил написать сценарий, который впоследствии превратился в сценарий к «Чужим» (1986).
  • Джо Фараго, сыгравший репортера, рассказывающего об убийствах женщин под именем Сара Коннер, исполнил такую же роль в другом фильме Джеймса Камерона — «Бездна» (1989)
  • Незадолго до начала съёмок Линда Хэмилтон сломала лодыжку, поэтому для съёмок экшн-сцен ей приходилось туго забинтовывать ногу.
  • Именно в этом фильме Арнольд Шварценеггер в первый раз произносит свою коронную фразу «Я вернусь». Однако, первоначально на английском языке данная фраза звучала несколько по-другому — «I`ll come back», вместо «I`ll be back».
  • Декорациями для ночного клуба «TechNoir» послужил реально существующий ресторан в центре Лос-Анджелесе, который специально «загримировали» для съёмок фильма.
  • Харлан Эллисон подал в суд на Джеймса Камерона, обвинив последнего в том, что Камерон использовал его идеи из двух эпизодов для «The Outer Limits» (1963) — «Солдат» (Soldier) и «Демон со стеклянной рукой» (Demon with a Glass Hand), автором сценария которых был Эллисон. Также концепция «Скайнета» могла быть позаимствована из рассказа Эллисона «У меня нет рта и я должен кричать» (I Have No Mouth and I Must Scream). Продюсеры фильма решили урегулировать спор без судебного разбирательства: при выходе фильма на видео Эллисон был указан, как один из авторов сюжета.
  • Однажды, во время перерыва на съёмках, Арнольд Шварценеггер пошел в один из ресторанов пообедать, и только в ресторане он понял, что с него забыли снять грим Терминатора, который включал в себя отсутствующий глаз, сломанную челюсть и обожженную кожу.
  • По версии American Film Institute фраза «Я вернусь» заняла 37 место в списке «100 лучших цитат из художественных фильмов».
  • Изначально роль Терминатора предназначалась Ленсу Хенриксону. Джеймс Камерон даже создал несколько набросков, показывающих Терминатора с внешностью Хэнриксона. Однако, по настоянию продюсеров роль Терминатора сыграл Арнольд Шварценеггер. Хэнриксон сыграл в фильме детектива Вуковича.
  • Эдвард Джемс Олмос мог исполнить роль лейтенанта Тракслера.
  • Марка солнечных очков, которые носил Терминатор, — Gargoyles.
  • Роль Терминатора, расстреливающего людей в человеческом лагере, исполнил Франко Коламбу. Франко Коламбу — неоднократный обладатель титула «Мистер Олимпиа», а также близкий друг Арнольда Шварценеггера.
  • Джеймс Камерон придумал концепцию «Терминатора», находясь в Европе. Первоначально предполагалось, что Терминатор будет хамелеоном, легко трансформирующимся в других людей; а действие фильма почти целиком будет происходить в будущем. Однако, с одной стороны, на тот момент не было технологий, способных воплотить фантазии Камерона в реальность, с другой — на проект был выделен весьма скромный бюджет. Поэтому режиссеру пришлось перенести место действия фильма из будущего в настоящее, и отказаться от идеи использования «жидкого» Терминатора.
  • Когда Сара проверяет сообщения на своем автоответчике, то в одном из них мужчина говорит о том, что он не сможет встретиться с Сарой. Данный голос принадлежит Джеймсу Камерону.
  • Единственная сцена, в которой мы видим Майкла Бьена и Арнольда Шварценеггера в одном кадре, — сцена перестрелки в ночном клубе, точнее, момент, в котором Кайл во второй раз стреляет в Терминатора.
  • Большинство автомобильных погонь снималось на нормальной скорости, а затем при монтаже их скорость несколько увеличили.
  • Известнейший металлический звон из главной музыкальной темы к фильму был создан Брэдом Фиделем, стучащим по микрофону чугунной сковородкой.
  • В ранних версиях сценария была сцена, в которой Сара узнает адрес компании «Кибердайн Системс», после чего она и Кайл отправляются в Саннивэйл, Калифорния, для того чтобы взорвать здание компании.
  • Сцена, в которой один из служащих «Кибердайн Систем» находит микропроцессор Терминатора, была снята, но не вошла в финальный вариант картины. Данную сцену можно найти в разделе «Удаленные сцены» на специальном издании DVD.
  • Количество трупов — 41: тридцать полицейских в полицейском участке; Кайл Риз; три панка; первые две Сары Коннер; водитель грузовика; подруга Сары и её бойфренд; продавец из оружейного магазина; и, конечно же, сам Терминатор.
  • Игрушечный грузовичок, который Терминатор раздавливает колесом своей машины — это миниатюрная копия грузовика, на котором в «Терминаторе 2» Т-1000 гонится за мопедом Джона Коннора.
  • Фотографии, фигурирующие в фильме, были сделаны фотографом ДжоДжо Вилденом (Jo Jo Whilden).
  • Для создании музыки Брэд Фидел использовал 10-голосовой синтезатор «Prophet 10», которые после 1980 года перестали выпускать.
  • Саундтрек к «Терминатору» писался на самой продвинутой в те годы звукозаписывающей студии «Glen Glenn Sound», основанной ветераном звукорежиссуры Гленом Гленном. Несмотря на отдельные цифровые спецэффекты и электронную музыку, для записи использовалась традиционная аналоговая технология, и фильм в прокат был выпущен с моно-дорожкой.
  • Взрыв цистерны снимался в студии с помощью уменьшенной радиоуправляемой копии грузовика. Эффект реальности происходящего создавался ускоренной съемкой. Убегающая же от взрыва Сара и вовсе была добавлена уже потом с помощью рир-проекции, когда в темной студии на огромный экран проецировались заранее снятые кадры взрыва грузовика, а камера снимала на фоне этого экрана бегущую Линду Хэмилтон.
  • Чтобы не брать в аренду дорогую операторскую тележку («dolly»), оператор Эдам Гринберг импровизировал «съемки с тележки», сев со своей ручной камерой в инвалидную коляску, которую толкали с большой скоростью.
  • В сцене, когда Кайл спрашивает у полицейского, какой сегодня день, тот отвечает, что «12 мая, четверг». Такой день недели соответствует 1983 году, а не 1984-му, как указано в титрах.
  • Более подробно где сцены были удалены из официальной версии

    Сара, придя на работу в кафе, переодевается в рабочую одежду официантки и перед зеркалом произносит фразу: «Привет, я — Сара, и я буду Вашей официанткой. И я такая приятная, что меня даже тошнит».

    После звонка Сары Коннор в полицию удален диалог лейтенанта Трекслера и детектива Вуковича, которые садятся в машину, чтобы ехать за Сарой. Трекслер: «Давай проверим, крепкие ли у этого парня яйца». Вукович: «Для начала пристегнись, Эд».

    После перестрелки в баре на место прибывает полиция. Спустя некоторое время Трекслер и Вукович садятся в машину со словами: Поехали, он схватил её!«

    В полицейском управлении во время допроса Риза, когда Трекслер обрывает Вуковича, говорящего о докторе Зильбермане, удален следующий диалог. Вукович: „Брось, Эд. Этот парень бредит. Да этот парень наверняка чокнутый“. Трекслер: „Хорошо, если ты прав“.

    При бегстве Сары и Риза из полицейского участка, подвергшегося атаке терминатора, их останавливает истекающий кровью Трекслер и отдает Ризу свой служебный револьвер со словами: Риз! Она должна выжить. Возьми. Сделай то, что ты должен сделать!»

    Полностью удалена довольно большая сцена на утро после бегства из полицейского участка. Проведя ночь в туннеле под автомагистралью, Сара и Риз выходят к полузаброшенному кафе. Сара звонит из телефона-автомата матери и просит ее уехать из города и никому ничего не рассказывать, после чего находит в телефонном справочнике координаты компании «Кибернетические системы» и предлагает Ризу изменить будущее, взорвав ее. Она понимает, что обращаться к властям бесполезно, так как их опять задержат и терминатору будет легче найти их, но она не может всю жизнь скрываться и думать о том, чтобы не оставлять следов, поэтому она предлагает сделать так, чтобы это ужасное будущее никогда не наступило. Риз говорит, что это не входит в его миссию, между ними завязывается ссора, в ходе которой Риз, осматривая природу вокруг него, со слезами на глазах говорит, что это все должно погибнуть. Только после этого герои на попутном грузовике отправляются в мотель «Тики». Исходя из того, что финальная схватка с терминатором разворачивается в производственном помещении компании «Кибернетические системы» (см. ниже, пункт 9), можно предположить, что Риз принял предложение Сары и они отправились именно туда, где располагается эта компания.

    В официальной версии существенно сокращена сцена изготовления взрывчатки в мотеле, предшествующая объяснению в любви. Сара говорит о том, сколько всего есть в этом мире, чего Риз никогда не видел («Диснейлэнд, пляж, кино, попкорн и длинные хот-доги…» — «Горячие собаки?» — переспрашивает непонимающий Риз), что Риз на самом деле не здесь, а в своем мире, и он везде несет войну в своем сердце, куда бы ни отправился. Сара хочет, чтобы война навсегда закончилась и для него, и для нее.

    После любовной сцены в мотеле Сара и Риз лежат на кровати, Сара щекочет его, они смеются и радуются жизни. Видно, что несмотря на осознание того, что терминатор где-то рядом и что он неминуемо найдет их, они счастливы.

    После расправы над терминатором на завод приезжают полиция, скорая и предстставители администрации компании. Один из сотрудников компании находит на полу, куда выгружены раздавленные прессом останки терминатора, микросхему и, несмотря на предостережение полицейского, что они не должны ничего трогать, пока не закончится осмотр, передает ее своему коллеге со словами: «Передай это в отдел разработки и развития в понедельник утром». После этого Сару грузят в машину скорой помощи (кадры из официальной версии), а затем камера поднимается вверх и показывает фасад здания, в котором все это произошло. На фасаде отчетливо видна надпись: «Кибернетические системы».

    Страна: США, ВеликобританияСтудия: Cinema 84, Euro Film Funding, Hemdale Films, Pacific WesternПродолжительность: 01:56:15Перевод: Профессиональный одноголосый А.Гаврилов + вставки на расширенные сцены любительский одноголосый М.Бирюков

    ФайлКодек: XvidКачество: BDRip Видео: 704x384 , 2 256 Kbps , 23.976fpsЗвук: AC3 48000Hz 2ch 192kbpsДоп.дорожка: AC3 48000Hz 2ch 256 Kbps - Профессиональный (полное дублирование) CEE + вставки одноголосый М.Бирюков

    main-rutor.org

    Терминатор (режиссерская версия) / The Terminator / 1984 / DVDRip

    Торрент группа

    Качество: DVDRipОзвучивание: Любительское (одноголосое)Время: 01:56:15Видео: XviD, 2256 kbps, 704x384Аудио дорожка #1: Русский, AC3 2.0, 192 kbps General Complete name                  : D:\Temp\TerminatoR.1984.XviD.HDRip.Extended Edition.by Magy®.avi Format                         : AVI Format/Info                    : Audio Video Interleave Format profile                 : OpenDML File size                      : 2.00 GiB Duration                       : 1h 56mn Overall bit rate               : 2 461 Kbps Movie name                     : Терминатор / Terminator 1984| Расширенная версия / Extended Cut Director                       : by Magy® Genre                          : комедия Writing application            : VirtualDubMod 1.5.10.3 | www.virtualdub-fr.org || (build 2550/release) Original source form/Name      : Home Video Copyright                      : Blu-Ray CEE 1080p - BDRip by Magy® Comment                        : 11.10.2012 Video ID                             : 0 Format                         : MPEG-4 Visual Format profile                 : Advanced [email protected] Format settings, BVOP          : 1 Format settings, QPel          : No Format settings, GMC           : No warppoints Format settings, Matrix        : Default (MPEG) Codec ID                       : XVID Codec ID/Hint                  : XviD Duration                       : 1h 56mn Bit rate                       : 2 256 Kbps Width                          : 704 pixels Height                         : 384 pixels Display aspect ratio           : 1.85:1 Frame rate                     : 23.976 fps Color space                    : YUV Chroma subsampling             : 4:2:0 Bit depth                      : 8 bits Scan type                      : Progressive Compression mode               : Lossy Bits/(Pixel*Frame)             : 0.348 Stream size                    : 1.83 GiB (92%) Writing library                : XviD 1.2.1 (UTC 2008-12-04) Audio ID                             : 1 Format                         : AC-3 Format/Info                    : Audio Coding 3 Mode extension                 : CM (complete main) Format settings, Endianness    : Big Codec ID                       : 2000 Duration                       : 1h 56mn Bit rate mode                  : Constant Bit rate                       : 192 Kbps Channel(s)                     : 2 channels Channel positions              : Front: L R Sampling rate                  : 48.0 KHz Bit depth                      : 16 bits Compression mode               : Lossy Stream size                    : 160 MiB (8%) Alignment                      : Split accross interleaves Interleave, duration           : 42 ms (1.00 video frame) Interleave, preload duration   : 500 ms

    Активный

    Статус

    Мультитрекерный

    Тип

    47:01 назад

    Активность

    2.00 GB (2,145,724,416 байт)

    Размер

    23 Сентября 2013, 17:45

    Добавлен

    Просмотров: 4263, Взят: 881, Скачан: 28

    Статистика

    Данные о торренте

    Сказали спасибо

    katushka.org

    rutor.org :: Терминатор / The Terminator (1984) Blu-Ray ::: Скачать торрент

    Название: ТерминаторОригинальное название: The TerminatorГод выхода: 1984Страна: США, Великобритания Студия: Cinema 84, Euro Film Funding, Hemdale Films, Pacific WesternЖанр: Фантастика, боевик, триллерПродолжительность: 01:47:18Перевод: Профессиональный (полное дублирование)

    Режиссер: Джеймс Кэмерон / James Cameron

    В ролях: Арнольд Шварценеггер, Майкл Бьен, Линда Хэмилтон, Пол Уинфилд, Лэнс Хенриксен, Бесс Мотта, Эрл Боэн, Рик Россович, Дик Миллер, Шоун Шеппс, Брюс М. Кернер, Франко Колумбу, Билл Пэкстон, Брэд Рирден, Брайан Томпсон, Уильям Уишер, Кен Фриц, Том Оберхаус, Эд Доганс, Джо Фараго, Хетти Линн Хертес, Тони Мирелез, Филип Гордон, Энтони Тружильо, Стэн Йейл, Аль Кан, Лесли Моррис, Хью Фаррингтон, Харриет Медин, Лори Фрэзиер, Джеймс Ралстон, Норман Фридман, Барбара Пауэрс, Уэйн Стоун, Дэвид Пирс, Джон Е. Бристоль, Уэбстер Уильямс, Патрик Пинни, Билл У. Ричмонд, Чино "Фэтс" Уильямс, Грегори Роббинс

    Описание: В центре сюжета — противостояние солдата Кайла Риза и киборга-терминатора, прибывших в 1984-ый год из пост-апокалиптического будущего, где миром правят машины-убийцы, а человечество находится на грани вымирания. Цель киборга: убить девушку по имени Сара Коннор, чей ещё нерождённый сын к 2029 году выиграет войну человечества с машинами. Цель солдата Кайла Риза: спасти Сару и остановить Терминатора любой ценой.

    Качество: Blu-Ray CEE (1080p)Видео: MPEG-4 AVC, 32.0 Мбит/с, 1920x1080Аудио: Английский (DTS-HD MA, 6 ch, 4117 Кбит/с), итальянский, русский, испанский (DTS, 6 ch, 768 Кбит/с), польский (АС3, 6 ch, 448 Кбит/с), чешский, венгерский, турецкий (АС3, 2 ch, 224 Кбит/с)Субтитры: Английские, итальянские, русские, испанские, болгарские, хорватские, чешские, греческие, венгерские, польские, португальские, румынские, словенские, турецкие

    BDInfo

    Disc Title: THE_TERMINATOR_BD_HDCLUB Disc Size: 36 949 300 073 bytes Protection: AACS BD-Java: Yes BDInfo: 0.5.8

    PLAYLIST REPORT:

    Name: 00000.MPLS Length: 1:47:18.598 (h:m:s.ms) Size: 33 878 784 576 bytes Total Bitrate: 42,09 Mbps

    VIDEO:

    Codec Bitrate Deion ----- ------- ----------- MPEG-4 AVC Video 32001 kbps 1080p / 23,976 fps / 16:9 / High Profile 4.1

    AUDIO:

    Codec Language Bitrate Deion ----- -------- ------- ----------- DTS-HD Master Audio English 4117 kbps 5.1 / 48 kHz / 4117 kbps / 24-bit (DTS Core: 5.1 / 48 kHz / 1509 kbps / 24-bit) DTS Audio Italian 768 kbps 5.1 / 48 kHz / 768 kbps / 24-bit DTS Audio Russian 768 kbps 5.1 / 48 kHz / 768 kbps / 24-bit DTS Audio Spanish 768 kbps 5.1 / 48 kHz / 768 kbps / 24-bit Dolby Digital Audio Czech 224 kbps 2.0 / 48 kHz / 224 kbps Dolby Digital Audio Hungarian 224 kbps 2.0 / 48 kHz / 224 kbps Dolby Digital Audio Polish 448 kbps 5.1 / 48 kHz / 448 kbps Dolby Digital Audio Turkish 224 kbps 2.0 / 48 kHz / 224 kbps

    SUBTITLES:

    Codec Language Bitrate Deion ----- -------- ------- ----------- Presentation Graphics English 16,958 kbps Presentation Graphics Italian 16,826 kbps Presentation Graphics Russian 16,552 kbps Presentation Graphics Spanish 19,223 kbps Presentation Graphics Bulgarian 16,045 kbps Presentation Graphics Chinese 15,702 kbps Presentation Graphics Croatian 16,214 kbps Presentation Graphics Czech 17,661 kbps Presentation Graphics Greek 19,069 kbps Presentation Graphics Hungarian 19,856 kbps Presentation Graphics Polish 18,240 kbps Presentation Graphics Portuguese 17,363 kbps Presentation Graphics Romanian 15,904 kbps Presentation Graphics Slovenian 15,679 kbps Presentation Graphics Turkish 17,896 kbps Presentation Graphics Italian 0,217 kbps Presentation Graphics Russian 0,288 kbps Presentation Graphics Spanish 0,216 kbps Presentation Graphics Czech 0,390 kbps Presentation Graphics Hungarian 0,162 kbps Presentation Graphics Turkish 0,153 kbps

    Релиз от: HDCLUB

    main-rutor.org

    rutor.org :: Терминатор / The Terminator (1984) BDRip 720p | D

    General Unique ID : 184266566361982884574254610342894347659 (0x8AA0732579FC207283E222105513A58B) Complete name : The.Terminator.1984.720p.BluRay.DTS.x264-Skazhutin.mkv Format : Matroska Format version : Version 2 File size : 10.7 GiB Duration : 1h 47mn Overall bit rate : 14.3 Mbps Movie name : The Terminator (1984) Encoded date : UTC 2012-10-08 09:55:12 Writing application : mkvmerge v5.8.0 ('No Sleep / Pillow') built on Sep 2 2012 15:37:04 Writing library : libebml v1.2.3 + libmatroska v1.3.0 Attachment : Yes / Yes

    Video ID : 1 Format : AVC Format/Info : Advanced Video Codec Format profile : [email protected] Format settings, CABAC : Yes Format settings, ReFrames : 9 frames Codec ID : V_MPEG4/ISO/AVC Duration : 1h 47mn Bit rate : 12.0 Mbps Width : 1 280 pixels Height : 694 pixels Display aspect ratio : 1.85:1 Frame rate mode : Constant Frame rate : 23.976 fps Color space : YUV Chroma subsampling : 4:2:0 Bit depth : 8 bits Scan type : Progressive Bits/(Pixel*Frame) : 0.563 Stream size : 8.80 GiB (82%) Writing library : x264 core 128 r2216kMod 198a7ea Encoding settings : cabac=1 / ref=9 / deblock=1:-3:-3 / analyse=0x3:0x113 / me=umh / subme=11 / psy=1 / fade_compensate=0.00 / psy_rd=1.00:0.00 / mixed_ref=1 / me_range=48 / chroma_me=1 / trellis=2 / 8x8dct=1 / cqm=0 / deadzone=21,11 / fast_pskip=0 / chroma_qp_offset=-2 / threads=12 / lookahead_threads=2 / sliced_threads=0 / nr=0 / decimate=0 / interlaced=0 / bluray_compat=0 / constrained_intra=0 / bframes=9 / b_pyramid=2 / b_adapt=2 / b_bias=0 / direct=3 / weightb=1 / open_gop=0 / weightp=2 / keyint=250 / keyint_min=23 / scenecut=40 / intra_refresh=0 / rc_lookahead=40 / rc=2pass / mbtree=0 / bitrate=12000 / ratetol=1.0 / qcomp=0.75 / qpmin=0 / qpmax=69 / qpstep=4 / cplxblur=20.0 / qblur=0.5 / vbv_maxrate=50000 / vbv_bufsize=62500 / nal_hrd=none / ip_ratio=1.20 / pb_ratio=1.10 / aq=1:1.00 Language : English Default : Yes Forced : No Matrix coefficients : BT.709

    Audio #1 ID : 2 Format : DTS Format/Info : Digital Theater Systems Codec ID : A_DTS Duration : 1h 47mn Bit rate mode : Constant Bit rate : 755 Kbps Channel(s) : 6 channels Channel positions : Front: L C R, Side: L R, LFE Sampling rate : 48.0 KHz Bit depth : 24 bits Compression mode : Lossy Stream size : 580 MiB (5%) Title : DTS 5.1 @ 768 kbps - Дублированный, Blu-ray CEE Language : Russian Default : Yes Forced : No

    Audio #2 ID : 3 Format : DTS Format/Info : Digital Theater Systems Codec ID : A_DTS Duration : 1h 47mn Bit rate mode : Constant Bit rate : 1 510 Kbps Channel(s) : 6 channels Channel positions : Front: L C R, Side: L R, LFE Sampling rate : 48.0 KHz Bit depth : 24 bits Compression mode : Lossy Stream size : 1.13 GiB (11%) Title : DTS 5.1 @ 1536 kbps Language : English Default : No Forced : No

    Text #1 ID : 4 Format : UTF-8 Codec ID : S_TEXT/UTF8 Codec ID/Info : UTF-8 Plain Text Title : forced Language : Russian Default : Yes Forced : No

    Text #2 ID : 5 Format : UTF-8 Codec ID : S_TEXT/UTF8 Codec ID/Info : UTF-8 Plain Text Title : Blu-ray CEE Language : Russian Default : No Forced : No

    Text #3 ID : 6 Format : UTF-8 Codec ID : S_TEXT/UTF8 Codec ID/Info : UTF-8 Plain Text Title : Пучков Language : Russian Default : No Forced : No

    Text #4 ID : 7 Format : UTF-8 Codec ID : S_TEXT/UTF8 Codec ID/Info : UTF-8 Plain Text Title : DDV Language : Russian Default : No Forced : No

    Text #5 ID : 8 Format : UTF-8 Codec ID : S_TEXT/UTF8 Codec ID/Info : UTF-8 Plain Text Language : Russian Default : No Forced : No

    Text #6 ID : 9 Format : UTF-8 Codec ID : S_TEXT/UTF8 Codec ID/Info : UTF-8 Plain Text Language : English Default : No Forced : No

    Text #7 ID : 10 Format : UTF-8 Codec ID : S_TEXT/UTF8 Codec ID/Info : UTF-8 Plain Text Language : Bulgarian Default : No Forced : No

    Text #8 ID : 11 Format : UTF-8 Codec ID : S_TEXT/UTF8 Codec ID/Info : UTF-8 Plain Text Language : Croatian Default : No Forced : No

    Text #9 ID : 12 Format : UTF-8 Codec ID : S_TEXT/UTF8 Codec ID/Info : UTF-8 Plain Text Language : Czech Default : No Forced : No

    Text #10 ID : 13 Format : UTF-8 Codec ID : S_TEXT/UTF8 Codec ID/Info : UTF-8 Plain Text Language : Spanish Default : No Forced : No

    Text #11 ID : 14 Format : UTF-8 Codec ID : S_TEXT/UTF8 Codec ID/Info : UTF-8 Plain Text Language : Greek Default : No Forced : No

    Text #12 ID : 15 Format : UTF-8 Codec ID : S_TEXT/UTF8 Codec ID/Info : UTF-8 Plain Text Language : Hungarian Default : No Forced : No

    Text #13 ID : 16 Format : UTF-8 Codec ID : S_TEXT/UTF8 Codec ID/Info : UTF-8 Plain Text Language : Italian Default : No Forced : No

    Text #14 ID : 17 Format : UTF-8 Codec ID : S_TEXT/UTF8 Codec ID/Info : UTF-8 Plain Text Language : Polish Default : No Forced : No

    Text #15 ID : 18 Format : UTF-8 Codec ID : S_TEXT/UTF8 Codec ID/Info : UTF-8 Plain Text Language : Portuguese Default : No Forced : No

    Text #16 ID : 19 Format : UTF-8 Codec ID : S_TEXT/UTF8 Codec ID/Info : UTF-8 Plain Text Language : Romanian Default : No Forced : No

    Text #17 ID : 20 Format : UTF-8 Codec ID : S_TEXT/UTF8 Codec ID/Info : UTF-8 Plain Text Language : Slovenian Default : No Forced : No

    Text #18 ID : 21 Format : UTF-8 Codec ID : S_TEXT/UTF8 Codec ID/Info : UTF-8 Plain Text Language : Turkish Default : No Forced : No

    Menu 00:00:00.000 : en:2029 a.D./Main Title 00:03:32.253 : en:The Arrival 00:05:18.151 : en:New Wardrobe 00:06:31.015 : en:Second Visitor 00:11:38.322 : en:Hard-Working Girl 00:13:45.324 : en:Gun Men 00:15:11.827 : en:"Sarah Connor?" 00:20:44.618 : en:Phone Book Rampage 00:22:49.618 : en:Last One Left 00:29:49.787 : en:Uninvited Guest 00:33:15.034 : en:The Last Day of Disco 00:38:47.116 : en:Running Commentary 00:41:25.191 : en:The Possible Future 00:47:46.488 : en:"Drive!" 00:50:39.995 : en:Safety in Uniforms 00:54:41.569 : en:Self-Service 00:59:04.916 : en:I'll Be Back!" 01:03:53.538 : en:Mother of the Future 01:09:37.548 : en:The War to Come 01:14:08.986 : en:Answering Machine 01:15:00.078 : en:Not Mom 01:17:18.800 : en:Recipe for Disaster 01:18:30.372 : en:Present for the Future 01:23:00.892 : en:Hot Pursuit 01:26:24.721 : en:Run Over By a Truck 01:30:22.583 : en:Hunk O' Burning Steel 01:32:19.367 : en:Factory Foolery 01:35:52.121 : en:Head Without Heels 01:39:53.862 : en:Survivor 01:40:18.721 : en:Tapes for John 01:40:49.334 : en:A Storm Is Coming 01:43:12.895 : en:End Credits

    main-rutor.org

    Скачать торрент Терминатор: Антология / The Terminator: Antology (1984-2015) BDRip-AVC

    Информация о фильме Название: Терминатор 3: Восстание машин Оригинальное название: Terminator 3: Rise of the Machines Год выхода: 2003 Жанр: фантастика, боевик, триллер Режиссер: Джонатан Мостоу В ролях: Арнольд Шварценеггер, Ник Стал, Клэр Дэйнс, Кристанна Локен, Дэвид Эндрюс, Марк Фамиглетти, Эрл Боэн, Мойра Харрис, Чоппер Бернет, Кристофер Лоуфорд и др.

    О фильме: Прошло десять лет с тех пор, как Джон Коннор помог предотвратить Судный День и спасти человечество от массового уничтожения. Теперь ему 25, Коннор не живет «как все» — у него нет дома, нет кредитных карт, нет сотового телефона и никакой работы.

    Его существование нигде не зарегистрировано. Он не может быть прослежен системой Skynet — высокоразвитой сетью машин, которые когда-то попробовали убить его и развязать войну против человечества. Пока из теней будущего не появляется T-X — Терминатрикс, самый сложный киборг-убийца Skynet.

    Посланная назад сквозь время, чтобы завершить работу, начатую её предшественником, T-1000, эта машина так же упорна, как прекрасен её человеческий облик. Теперь единственная надежда Коннору выжить — Терминатор, его таинственный прежний убийца. Вместе они должны одержать победу над новыми технологиями T-X и снова предотвратить Судный День…

    Страна: США, Германия, Великобритания Продолжительность: 01:49:06 Перевод: Дублированный

    Файл Кодек: h.264 Качество: BDRip-AVC Видео: MPEG-4, 1152x476, 23.976 fps ~4500 kbps Звук: 1) 48 KHz, AC3, 6 ch ~448 Kbps - Dub 2) 48 KHz, AC3, 6 ch ~448 Kbps - Original Субтитры: Русские, английские

    Media Info:

    Скрытый текст

    General Unique ID : 230168778456535814395184353864995412246 (0xAD28E4EED4536A2BB051C9296B119916) Complete name : E:VideoТерминатор - Антология [1984-2015]3.Терминатор 3 - Восстание машин (2003).mkv Format : Matroska Format version : Version 4 / Version 2 File size : 4.11 GiB Duration : 1h 49mn Overall bit rate : 5 397 Kbps Encoded date : UTC 2015-11-28 17:56:17 Writing application : mkvmerge v8.4.0 ('A better way to fly') 64bit Writing library : Lavf55.12.0 Attachements : CoverT3.jpg

    Video ID : 1 Format : AVC Format/Info : Advanced Video Codec Format profile : [email protected] Format settings, CABAC : Yes Format settings, ReFrames : 9 frames Codec ID : V_MPEG4/ISO/AVC Duration : 1h 49mn Bit rate : 4 500 Kbps Width : 1 152 pixels Height : 476 pixels Display aspect ratio : 2.40:1 Frame rate mode : Constant Frame rate : 23.976 fps Color space : YUV Chroma subsampling : 4:2:0 Bit depth : 8 bits Scan type : Progressive Bits/(Pixel*Frame) : 0.342 Stream size : 3.35 GiB (81%) Title : MPEG-4, 1152x476, 23.976 fps ~4500 kbps Writing library : x264 core 142 r2479 dd79a61 Encoding settings : cabac=1 / ref=9 / deblock=1:-2:-2 / analyse=0x3:0x133 / me=umh / subme=11 / psy=1 / psy_rd=1.00:0.14 / mixed_ref=1 / me_range=64 / chroma_me=1 / trellis=2 / 8x8dct=1 / cqm=0 / deadzone=21,11 / fast_pskip=0 / chroma_qp_offset=-3 / threads=6 / lookahead_threads=1 / sliced_threads=0 / nr=0 / decimate=1 / interlaced=0 / bluray_compat=0 / constrained_intra=0 / bframes=12 / b_pyramid=2 / b_adapt=2 / b_bias=0 / direct=3 / weightb=1 / open_gop=0 / weightp=2 / keyint=240 / keyint_min=24 / scenecut=40 / intra_refresh=0 / rc_lookahead=60 / rc=2pass / mbtree=0 / bitrate=4500 / ratetol=1.0 / qcomp=0.60 / qpmin=0 / qpmax=69 / qpstep=4 / cplxblur=20.0 / qblur=0.5 / vbv_maxrate=62500 / vbv_bufsize=78125 / nal_hrd=none / filler=0 / ip_ratio=1.40 / pb_ratio=1.30 / aq=1:1.00 Language : English Default : Yes Forced : No Color range : Limited Color primaries : BT.709 Transfer characteristics : BT.709 Matrix coefficients : BT.709 DURATION : 01:49:06.165000000 NUMBER_OF_FRAMES : 156951 NUMBER_OF_BYTES : 3681403837 _STATISTICS_WRITING_APP : mkvmerge v8.4.0 ('A better way to fly') 64bit _STATISTICS_WRITING_DATE_UT : 2015-11-28 17:56:17 _STATISTICS_TAGS : BPS DURATION NUMBER_OF_FRAMES NUMBER_OF_BYTES

    Audio #1 ID : 2 Format : AC-3 Format/Info : Audio Coding 3 Mode extension : CM (complete main) Format settings, Endianness : Big Codec ID : A_AC3 Duration : 1h 49mn Bit rate mode : Constant Bit rate : 448 Kbps Channel(s) : 6 channels Channel positions : Front: L C R, Side: L R, LFE Sampling rate : 48.0 KHz Compression mode : Lossy Stream size : 350 MiB (8%) Title : 48 KHz, AC3, 6 ch ~448 Kbps - Dub Language : Russian Default : Yes Forced : No DURATION : 01:49:06.176000000 NUMBER_OF_FRAMES : 204568 NUMBER_OF_BYTES : 366585856 _STATISTICS_WRITING_APP : mkvmerge v8.4.0 ('A better way to fly') 64bit _STATISTICS_WRITING_DATE_UT : 2015-11-28 17:56:17 _STATISTICS_TAGS : BPS DURATION NUMBER_OF_FRAMES NUMBER_OF_BYTES

    Audio #2 ID : 3 Format : AC-3 Format/Info : Audio Coding 3 Mode extension : CM (complete main) Format settings, Endianness : Big Codec ID : A_AC3 Duration : 1h 49mn Bit rate mode : Constant Bit rate : 448 Kbps Channel(s) : 6 channels Channel positions : Front: L C R, Side: L R, LFE Sampling rate : 48.0 KHz Compression mode : Lossy Delay relative to video : -5ms Stream size : 350 MiB (8%) Title : 48 KHz, AC3, 6 ch ~448 Kbps - Original Language : English Default : No Forced : No DURATION : 01:49:06.176000000 NUMBER_OF_FRAMES : 204568 NUMBER_OF_BYTES : 366585856 _STATISTICS_WRITING_APP : mkvmerge v8.4.0 ('A better way to fly') 64bit _STATISTICS_WRITING_DATE_UT : 2015-11-28 17:56:17 _STATISTICS_TAGS : BPS DURATION NUMBER_OF_FRAMES NUMBER_OF_BYTES

    Text #1 ID : 4 Format : ASS Codec ID : S_TEXT/ASS Codec ID/Info : Advanced Sub Station Alpha Compression mode : Lossless Language : Russian Default : No Forced : No DURATION : 01:31:28.313000000 NUMBER_OF_FRAMES : 45 NUMBER_OF_BYTES : 2894 _STATISTICS_WRITING_APP : mkvmerge v8.4.0 ('A better way to fly') 64bit _STATISTICS_WRITING_DATE_UT : 2015-11-28 17:56:17 _STATISTICS_TAGS : BPS DURATION NUMBER_OF_FRAMES NUMBER_OF_BYTES

    Text #2 ID : 5 Format : ASS Codec ID : S_TEXT/ASS Codec ID/Info : Advanced Sub Station Alpha Compression mode : Lossless Language : Russian Default : Yes Forced : No DURATION : 01:39:55.947000000 NUMBER_OF_FRAMES : 799 NUMBER_OF_BYTES : 62945 _STATISTICS_WRITING_APP : mkvmerge v8.4.0 ('A better way to fly') 64bit _STATISTICS_WRITING_DATE_UT : 2015-11-28 17:56:17 _STATISTICS_TAGS : BPS DURATION NUMBER_OF_FRAMES NUMBER_OF_BYTES

    Text #3 ID : 6 Format : ASS Codec ID : S_TEXT/ASS Codec ID/Info : Advanced Sub Station Alpha Compression mode : Lossless Language : English Default : No Forced : No DURATION : 01:39:54.865000000 NUMBER_OF_FRAMES : 733 NUMBER_OF_BYTES : 40795 _STATISTICS_WRITING_APP : mkvmerge v8.4.0 ('A better way to fly') 64bit _STATISTICS_WRITING_DATE_UT : 2015-11-28 17:56:17 _STATISTICS_TAGS : BPS DURATION NUMBER_OF_FRAMES NUMBER_OF_BYTES

    Терминатор - Да придёт спаситель (2009) [Director's cut]

    Скрытый текст

    Информация о фильме Название: Терминатор: Да придёт спаситель Оригинальное название: Terminator Salvation Год выхода: 2009 Жанр: фантастика, боевик, триллер, драма Режиссер: МакДжи В ролях: Кристиан Бэйл (John Connor), Сэм Уортингтон (Marcus Wright), Антон Ельчин (Kyle Reese), Мун Бладгуд (Blair Williams), Брайс Даллас Ховард (Kate Connor), Коммон (Barnes), Джейн Александр (Virginia), Майкл Айронсайд (General Ashdown), Иван Г’Вера (General Losenko), Крис Браунинг (Morrison), Хелена Бонем Картер (Dr. Serena Kogan), Джадагрейс (Star)

    О фильме: 2018 год. В мире наступила война с машинами. Джон Коннор — человек, чья судьба — возглавить Сопротивление электронному мозгу Скайнет и армии Терминаторов. Но в будущее, с верой в которое он возвращен, вклинивается таинственный Маркус Райт: незнакомец, чьи последние воспоминания рисуют камеру смертников.

    Коннор должен понять, кто такой этот Маркус и с какой целью пожаловал к людям. И на фоне подготовки Скайнетом решающего удара, Коннор и Райт отправляются в путешествие, приводящее их в самую сердцевину взбунтовавшейся операционной системы, где открывается ужасная тайна, кроющаяся за потенциальным уничтожением человечества.

    Страна: США, Германия, Великобритания, Италия Продолжительность: 01:57:31 Перевод: Дубляж

    Файл Кодек: h.264 Качество: BDRip-AVC Видео: MPEG-4, 1152x480, 23.976 fps ~4400 kbps Звук: 1) 48 KHz, AC3, 6 ch ~448 Kbps - Dub 2) 48 KHz, AC3, 6 ch ~448 Kbps - Original Субтитры: Русские, английские

    Media Info:

    Скрытый текст

    General Unique ID : 249519364344296817024234713201766822859 (0xBBB7AE7A076D88A1830F693FED67F3CB) Complete name : E:VideoТерминатор - Антология [1984-2015]4.Терминатор - Да придёт спаситель (2009) [Director's cut].mkv Format : Matroska Format version : Version 4 / Version 2 File size : 4.34 GiB Duration : 1h 57mn Overall bit rate : 5 292 Kbps Movie name : Terminator Salvation Encoded date : UTC 2015-11-29 21:33:08 Writing application : mkvmerge v8.4.0 ('A better way to fly') 64bit Writing library : Lavf55.12.0 Attachements : CoverTS.jpg

    Video ID : 1 Format : AVC Format/Info : Advanced Video Codec Format profile : [email protected] Format settings, CABAC : Yes Format settings, ReFrames : 11 frames Codec ID : V_MPEG4/ISO/AVC Duration : 1h 57mn Bit rate : 4 400 Kbps Width : 1 152 pixels Height : 480 pixels Display aspect ratio : 2.40:1 Frame rate mode : Constant Frame rate : 23.976 fps Color space : YUV Chroma subsampling : 4:2:0 Bit depth : 8 bits Scan type : Progressive Bits/(Pixel*Frame) : 0.332 Stream size : 3.52 GiB (81%) Title : MPEG-4, 1152x480, 23.976 fps ~4400 kbps Writing library : x264 core 142 r2479 dd79a61 Encoding settings : cabac=1 / ref=11 / deblock=1:-2:-2 / analyse=0x3:0x133 / me=umh / subme=11 / psy=1 / psy_rd=1.00:0.16 / mixed_ref=1 / me_range=64 / chroma_me=1 / trellis=2 / 8x8dct=1 / cqm=0 / deadzone=21,11 / fast_pskip=0 / chroma_qp_offset=-3 / threads=6 / lookahead_threads=1 / sliced_threads=0 / nr=0 / decimate=1 / interlaced=0 / bluray_compat=0 / constrained_intra=0 / bframes=13 / b_pyramid=2 / b_adapt=2 / b_bias=0 / direct=3 / weightb=1 / open_gop=0 / weightp=2 / keyint=240 / keyint_min=24 / scenecut=40 / intra_refresh=0 / rc_lookahead=60 / rc=2pass / mbtree=0 / bitrate=4400 / ratetol=1.0 / qcomp=0.60 / qpmin=0 / qpmax=69 / qpstep=4 / cplxblur=20.0 / qblur=0.5 / vbv_maxrate=62500 / vbv_bufsize=78125 / nal_hrd=none / filler=0 / ip_ratio=1.40 / pb_ratio=1.30 / aq=1:1.00 Language : English Default : Yes Forced : No Color range : Limited Color primaries : BT.709 Transfer characteristics : BT.709 Matrix coefficients : BT.709 DURATION : 01:57:31.045000000 NUMBER_OF_FRAMES : 169056 NUMBER_OF_BYTES : 3872288163 _STATISTICS_WRITING_APP : mkvmerge v8.4.0 ('A better way to fly') 64bit _STATISTICS_WRITING_DATE_UT : 2015-11-29 21:33:08 _STATISTICS_TAGS : BPS DURATION NUMBER_OF_FRAMES NUMBER_OF_BYTES

    Audio #1 ID : 2 Format : AC-3 Format/Info : Audio Coding 3 Mode extension : CM (complete main) Format settings, Endianness : Big Codec ID : A_AC3 Duration : 1h 57mn Bit rate mode : Constant Bit rate : 448 Kbps Channel(s) : 6 channels Channel positions : Front: L C R, Side: L R, LFE Sampling rate : 48.0 KHz Compression mode : Lossy Delay relative to video : -5ms Stream size : 377 MiB (8%) Title : 48 KHz, AC3, 6 ch ~448 Kbps - Dub Language : Russian Default : Yes Forced : No DURATION : 01:57:31.072000000 NUMBER_OF_FRAMES : 220346 NUMBER_OF_BYTES : 394860032 _STATISTICS_WRITING_APP : mkvmerge v8.4.0 ('A better way to fly') 64bit _STATISTICS_WRITING_DATE_UT : 2015-11-29 21:33:08 _STATISTICS_TAGS : BPS DURATION NUMBER_OF_FRAMES NUMBER_OF_BYTES

    Audio #2 ID : 3 Format : AC-3 Format/Info : Audio Coding 3 Mode extension : CM (complete main) Format settings, Endianness : Big Codec ID : A_AC3 Duration : 1h 57mn Bit rate mode : Constant Bit rate : 448 Kbps Channel(s) : 6 channels Channel positions : Front: L C R, Side: L R, LFE Sampling rate : 48.0 KHz Compression mode : Lossy Delay relative to video : -5ms Stream size : 377 MiB (8%) Title : 48 KHz, AC3, 6 ch ~448 Kbps - Original Language : English Default : No Forced : No DURATION : 01:57:31.040000000 NUMBER_OF_FRAMES : 220345 NUMBER_OF_BYTES : 394858240 _STATISTICS_WRITING_APP : mkvmerge v8.4.0 ('A better way to fly') 64bit _STATISTICS_WRITING_DATE_UT : 2015-11-29 21:33:08 _STATISTICS_TAGS : BPS DURATION NUMBER_OF_FRAMES NUMBER_OF_BYTES

    Text #1 ID : 4 Format : ASS Codec ID : S_TEXT/ASS Codec ID/Info : Advanced Sub Station Alpha Compression mode : Lossless Language : Russian Default : Yes Forced : No DURATION : 01:11:25.990000000 NUMBER_OF_FRAMES : 18 NUMBER_OF_BYTES : 1556 _STATISTICS_WRITING_APP : mkvmerge v8.4.0 ('A better way to fly') 64bit _STATISTICS_WRITING_DATE_UT : 2015-11-29 21:33:08 _STATISTICS_TAGS : BPS DURATION NUMBER_OF_FRAMES NUMBER_OF_BYTES

    Text #2 ID : 5 Format : ASS Codec ID : S_TEXT/ASS Codec ID/Info : Advanced Sub Station Alpha Compression mode : Lossless Language : Russian Default : No Forced : No DURATION : 01:47:47.728000000 NUMBER_OF_FRAMES : 801 NUMBER_OF_BYTES : 61695 _STATISTICS_WRITING_APP : mkvmerge v8.4.0 ('A better way to fly') 64bit _STATISTICS_WRITING_DATE_UT : 2015-11-29 21:33:08 _STATISTICS_TAGS : BPS DURATION NUMBER_OF_FRAMES NUMBER_OF_BYTES

    Text #3 ID : 6 Format : ASS Codec ID : S_TEXT/ASS Codec ID/Info : Advanced Sub Station Alpha Compression mode : Lossless Language : English Default : No Forced : No DURATION : 01:47:30.155000000 NUMBER_OF_FRAMES : 1034 NUMBER_OF_BYTES : 56166 _STATISTICS_WRITING_APP : mkvmerge v8.4.0 ('A better way to fly') 64bit _STATISTICS_WRITING_DATE_UT : 2015-11-29 21:33:08 _STATISTICS_TAGS : BPS DURATION NUMBER_OF_FRAMES NUMBER_OF_BYTES

    Терминатор - Генезис (2015)

    Скрытый текст

    Информация о фильме Название: Терминатор: Генезис Оригинальное название: Terminator Genisys Год выхода: 2015 Жанр: фантастика, боевик, триллер Режиссер: Алан Тейлор В ролях: Арнольд Шварценеггер (Guardian), Джейсон Кларк (John Connor), Эмилия Кларк (Sarah Connor), Джай Кортни (Kyle Reese), Дж.К. Симмонс (O'Brien), Дайо Окенийи (Danny Dyson), Мэтт Смит (Alex), Кортни Б. Вэнс (Miles Dyson), Ли Бён Хон (Cop / T-1000), Майкл Глэдис (Lt. Matias), Сандрин Холт (Detective Cheung), Уэйн Баструп (Young O'Brien)

    О фильме: Когда Джон Коннор, лидер сопротивления, посылает сержанта Кайла Риза назад в 1984 год, чтобы защитить Сару Коннор и спасти будущее, неожиданный поворот событий создает разлом во времени. Сержант Риз оказывается в новой, незнакомой версии прошлого, где он встречает неожиданных союзников, в том числе Терминатора, новых опасных врагов, и новую миссию: изменить будущее…

    Страна: США Продолжительность: 02:05:43 Перевод: Дубляж

    Файл Кодек: h.264 Качество: BDRip-AVC Видео:MPEG-4, 1152x482, 23.976 fps ~4072 kbps Звук: 1) 48 KHz, AC3, 6 ch ~448 Kbps - Dub 2) 48 KHz, AC3, 6 ch ~448 Kbps - Original Субтитры: Русские, английские

    Media Info:

    Скрытый текст

    General Unique ID : 200486304834647221678894613965313735447 (0x96D441FEA91085CBA69484ED9798FB17) Complete name : E:VideoТерминатор - Антология [1984-2015]5.Терминатор - Генезис (2015).mkv Format : Matroska Format version : Version 4 / Version 2 File size : 4.37 GiB Duration : 2h 5mn Overall bit rate : 4 972 Kbps Encoded date : UTC 2015-10-29 11:30:33 Writing application : mkvmerge v8.4.0 ('A better way to fly') 64bit Writing library : Lavf55.12.0 Attachements : CoverTG.png DURATION : 02:05:43.008000000 NUMBER_OF_FRAMES : 235719 NUMBER_OF_BYTES : 422408448 _STATISTICS_WRITING_APP : mkvmerge v8.4.0 ('A better way to fly') 64bit _STATISTICS_WRITING_DATE_UT : 2015-10-29 11:30:33 _STATISTICS_TAGS : BPS DURATION NUMBER_OF_FRAMES NUMBER_OF_BYTES

    Video ID : 1 Format : AVC Format/Info : Advanced Video Codec Format profile : [email protected] Format settings, CABAC : Yes Format settings, ReFrames : 12 frames Codec ID : V_MPEG4/ISO/AVC Duration : 2h 5mn Bit rate : 4 072 Kbps Width : 1 152 pixels Height : 482 pixels Display aspect ratio : 2.40:1 Frame rate mode : Constant Frame rate : 23.976 fps Color space : YUV Chroma subsampling : 4:2:0 Bit depth : 8 bits Scan type : Progressive Bits/(Pixel*Frame) : 0.306 Stream size : 3.49 GiB (80%) Title : MPEG-4, 1152x482, 23.976 fps ~4072 kbps Writing library : x264 core 142 r2479 dd79a61 Encoding settings : cabac=1 / ref=12 / deblock=1:-2:-2 / analyse=0x3:0x133 / me=umh / subme=11 / psy=1 / psy_rd=1.00:0.10 / mixed_ref=1 / me_range=64 / chroma_me=1 / trellis=2 / 8x8dct=1 / cqm=0 / deadzone=21,11 / fast_pskip=0 / chroma_qp_offset=-3 / threads=6 / lookahead_threads=1 / sliced_threads=0 / nr=0 / decimate=1 / interlaced=0 / bluray_compat=0 / constrained_intra=0 / bframes=11 / b_pyramid=2 / b_adapt=2 / b_bias=0 / direct=3 / weightb=1 / open_gop=0 / weightp=2 / keyint=240 / keyint_min=24 / scenecut=40 / intra_refresh=0 / rc_lookahead=60 / rc=2pass / mbtree=0 / bitrate=4072 / ratetol=1.0 / qcomp=0.60 / qpmin=0 / qpmax=69 / qpstep=4 / cplxblur=20.0 / qblur=0.5 / vbv_maxrate=62500 / vbv_bufsize=78125 / nal_hrd=none / filler=0 / ip_ratio=1.40 / pb_ratio=1.30 / aq=1:1.00 Language : English Default : Yes Forced : No Color range : Limited Color primaries : BT.709 Transfer characteristics : BT.709 Matrix coefficients : BT.709 DURATION : 02:05:42.994000000 NUMBER_OF_FRAMES : 180851 NUMBER_OF_BYTES : 3827566674 _STATISTICS_WRITING_APP : mkvmerge v8.4.0 ('A better way to fly') 64bit _STATISTICS_WRITING_DATE_UT : 2015-10-29 11:30:33 _STATISTICS_TAGS : BPS DURATION NUMBER_OF_FRAMES NUMBER_OF_BYTES

    Audio #1 ID : 2 Format : AC-3 Format/Info : Audio Coding 3 Mode extension : CM (complete main) Format settings, Endianness : Big Codec ID : A_AC3 Duration : 2h 5mn Bit rate mode : Constant Bit rate : 448 Kbps Channel(s) : 6 channels Channel positions : Front: L C R, Side: L R, LFE Sampling rate : 48.0 KHz Compression mode : Lossy Delay relative to video : -83ms Stream size : 403 MiB (9%) Title : 48 KHz, AC3, 6 ch ~448 Kbps - Dub Language : Russian Default : Yes Forced : No

    Audio #2 ID : 3 Format : AC-3 Format/Info : Audio Coding 3 Mode extension : CM (complete main) Format settings, Endianness : Big Codec ID : A_AC3 Duration : 2h 5mn Bit rate mode : Constant Bit rate : 448 Kbps Channel(s) : 6 channels Channel positions : Front: L C R, Side: L R, LFE Sampling rate : 48.0 KHz Compression mode : Lossy Stream size : 403 MiB (9%) Title : 48 KHz, AC3, 6 ch ~448 Kbps - Original Language : English Default : No Forced : No DURATION : 02:05:43.040000000 NUMBER_OF_FRAMES : 235720 NUMBER_OF_BYTES : 422410240 _STATISTICS_WRITING_APP : mkvmerge v8.4.0 ('A better way to fly') 64bit _STATISTICS_WRITING_DATE_UT : 2015-10-29 11:30:33 _STATISTICS_TAGS : BPS DURATION NUMBER_OF_FRAMES NUMBER_OF_BYTES

    Text #1 ID : 4 Format : PGS Muxing mode : zlib Codec ID : S_HDMV/PGS Codec ID/Info : Picture based subtitle format used on BDs/HD-DVDs Language : Russian Default : Yes Forced : No DURATION : 01:56:57.976000000 NUMBER_OF_FRAMES : 3002 NUMBER_OF_BYTES : 4698058 _STATISTICS_WRITING_APP : mkvmerge v8.4.0 ('A better way to fly') 64bit _STATISTICS_WRITING_DATE_UT : 2015-10-29 11:30:33 _STATISTICS_TAGS : BPS DURATION NUMBER_OF_FRAMES NUMBER_OF_BYTES

    Text #2 ID : 5 Format : PGS Muxing mode : zlib Codec ID : S_HDMV/PGS Codec ID/Info : Picture based subtitle format used on BDs/HD-DVDs Language : English Default : No Forced : No DURATION : 01:56:58.428000000 NUMBER_OF_FRAMES : 2680 NUMBER_OF_BYTES : 8177738 _STATISTICS_WRITING_APP : mkvmerge v8.4.0 ('A better way to fly') 64bit _STATISTICS_WRITING_DATE_UT : 2015-10-29 11:30:33 _STATISTICS_TAGS : BPS DURATION NUMBER_OF_FRAMES NUMBER_OF_BYTES

    10 из 10

    голосов: 2

    m-torrent.org

    Скачать торрент Терминатор: Антология / The Terminator: Antology (1984-2015) BDRip-AVC от R.G. HD-Films

    Терминатор

    Название: ТерминаторОригинальное название: The TerminatorГод выпуска: 1984Страна: Великобритания, СШАЖанр: фантастика, боевик, триллерПродолжительность: 01:47:24Перевод: ДубляжСубтитры: русские (Форсированные), русские (Полные), английские (Полные) Режиссер: Джеймс Кэмерон В ролях: Арнольд Шварценеггер (Terminator), Майкл Бин (Kyle Reese), Линда Хэмилтон (Sarah Connor), Пол Уинфилд (Lieutenant Ed Traxler), Лэнс Хенриксен (Detective Hal Vukovich), Рик Россович (Matt Buchanan), Бесс Мотта (Ginger Ventura), Эрл Боэн (Dr. Peter Silberman), Дик Миллер (Pawn Shop Clerk), Шон Шеппс (Nancy), Брюс Кернер (Desk Sergeant), Франко Колумбу (Future Terminator)Описание: История противостояния солдата Кайла Риза и киборга-терминатора, прибывших в 1984-й год из пост-апокалиптического будущего, где миром правят машины-убийцы, а человечество находится на грани вымирания. Цель киборга: убить девушку по имени Сара Коннор, чей ещё нерождённый сын к 2029 году выиграет войну человечества с машинами. Цель Риза: спасти Сару и остановить Терминатора любой ценой.Рейтинг:MPAA: R - Лицам до 17 лет обязательно присутствие взрослогоКачество: BDRip-AVC 60fpsФормат: MKVВидео: AVC, 1024x552 (1.855), 4600 kbps, 59,940 fps, 0,136 bppАудио: русский / AC3 / 5.1 / 48 kHz / 640 kbps / 16 bitНавигация по главам: есть

    ОтчетМедиаИнфо

    General Unique ID : 226536601381138753132261993917333990029 (0xAA6D5CC6E64368B4BE9E0878DE316A8D) Format : Matroska Format version : Version 4 / Version 2 File size : 3.93 GiB Duration : 1h 47mn Overall bit rate : 5 238 Kbps Movie name : Tiberiumsun69 Encoded date : UTC 2015-10-01 16:36:23 Writing application : mkvmerge v8.3.0 ('Over the Horizon') 64bit Writing library : libebml v1.3.1 + libmatroska v1.4.2 Attachment : Yes / Yes / Yes

    Video ID : 1 Format : AVC Format/Info : Advanced Video Codec Format profile : [email protected] Format settings, CABAC : Yes Format settings, ReFrames : 4 frames Codec ID : V_MPEG4/ISO/AVC Duration : 1h 47mn Bit rate : 4 600 Kbps Width : 1 024 pixels Height : 552 pixels Display aspect ratio : 1.855 Frame rate : 59.940 fps Color space : YUV Chroma subsampling : 4:2:0 Bit depth : 8 bits Scan type : Progressive Bits/(Pixel*Frame) : 0.136 Stream size : 3.37 GiB (86%) Title : Tiberiumsun69 Writing library : x264 core 146 r2538 121396c Encoding settings : cabac=1 / ref=3 / deblock=1:0:0 / analyse=0x3:0x113 / me=umh / subme=9 / psy=1 / psy_rd=1.00:0.10 / mixed_ref=1 / me_range=32 / chroma_me=1 / trellis=2 / 8x8dct=1 / cqm=0 / deadzone=21,11 / fast_pskip=0 / chroma_qp_offset=-3 / threads=12 / lookahead_threads=3 / sliced_threads=0 / nr=0 / decimate=1 / interlaced=0 / bluray_compat=0 / constrained_intra=0 / bframes=16 / b_pyramid=2 / b_adapt=2 / b_bias=0 / direct=3 / weightb=1 / open_gop=0 / weightp=2 / keyint=600 / keyint_min=59 / scenecut=40 / intra_refresh=0 / rc_lookahead=40 / rc=2pass / mbtree=0 / bitrate=4600 / ratetol=1.0 / qcomp=0.60 / qpmin=0 / qpmax=69 / qpstep=4 / cplxblur=20.0 / qblur=0.5 / vbv_maxrate=14000 / vbv_bufsize=14000 / nal_hrd=none / filler=0 / ip_ratio=1.40 / pb_ratio=1.30 / aq=1:1.00 Language : English Default : Yes Forced : No

    Audio ID : 2 Format : AC-3 Format/Info : Audio Coding 3 Mode extension : CM (complete main) Codec ID : A_AC3 Duration : 1h 47mn Bit rate mode : Constant Bit rate : 640 Kbps Channel(s) : 6 channels Channel positions : Front: L C R, Side: L R, LFE Sampling rate : 48.0 KHz Bit depth : 16 bits Compression mode : Lossy Stream size : 492 MiB (12%) Title : Дубляж Language : Russian Default : Yes Forced : No

    Text #1 ID : 3 Format : UTF-8 Codec ID : S_TEXT/UTF8 Codec ID/Info : UTF-8 Plain Text Title : Форсированные Language : Russian Default : Yes Forced : No

    Text #2 ID : 4 Format : UTF-8 Codec ID : S_TEXT/UTF8 Codec ID/Info : UTF-8 Plain Text Title : Полные Language : Russian Default : No Forced : No

    Text #3 ID : 5 Format : UTF-8 Codec ID : S_TEXT/UTF8 Codec ID/Info : UTF-8 Plain Text Title : Полные Language : English Default : No Forced : No

    Menu 00:00:00.000 : en:2029 a.D./Main Title 00:03:32.253 : en:The Arrival 00:05:18.151 : en:New Wardrobe 00:06:31.015 : en:Second Visitor 00:11:38.322 : en:Hard-Working Girl 00:13:45.324 : en:Gun Men 00:15:11.827 : en:"Sarah Connor?" 00:20:44.618 : en:Phone Book Rampage 00:22:49.618 : en:Last One Left 00:29:49.787 : en:Uninvited Guest 00:33:15.034 : en:The Last Day of Disco 00:38:47.116 : en:Running Commentary 00:41:25.191 : en:The Possible Future 00:47:46.488 : en:"Drive!" 00:50:39.995 : en:Safety in Uniforms 00:54:41.569 : en:Self-Service 00:59:04.916 : en:I'll Be Back!" 01:03:53.538 : en:Mother of the Future 01:09:37.548 : en:The War to Come 01:14:08.986 : en:Answering Machine 01:15:00.078 : en:Not Mom 01:17:18.800 : en:Recipe for Disaster 01:18:30.372 : en:Present for the Future 01:23:00.892 : en:Hot Pursuit 01:26:24.721 : en:Run Over By a Truck 01:30:22.583 : en:Hunk O' Burning Steel 01:32:19.367 : en:Factory Foolery 01:35:52.121 : en:Head Without Heels 01:39:53.862 : en:Survivor 01:40:18.721 : en:Tapes for John 01:40:49.334 : en:A Storm Is Coming 01:43:12.895 : en:End Credits

    Терминатор 2: Судный день (Skynet Edition)

    Название: Терминатор 2: Судный деньОригинальное название: Terminator 2: Judgment DayГод выпуска: 1991Страна: США, ФранцияЖанр: фантастика, боевик, триллерПродолжительность: 02:36:08Перевод: Профессиональный (многоголосый)Субтитры: русские (Полные), английские (Полные) Режиссер: Джеймс Кэмерон В ролях: Арнольд Шварценеггер (The Terminator), Линда Хэмилтон (Sarah Connor), Эдвард Ферлонг (John Connor), Роберт Патрик (T-1000), Эрл Боэн (Dr. Silberman), Джо Мортон (Miles Dyson), С. Ипейта Меркерсон (Tarissa Dyson), Кастуло Герра (Enrique Salceda), Дэнни Кукси (Tim), Дженетт Голдстин (Janelle Voight), Ксандер Беркли (Todd Voight), Лесли Хэмилтон Геррен (Twin Sarah)Описание: Прошло более десяти лет с тех пор, как киборг-терминатор из 2029 года пытался уничтожить Сару Коннор - женщину, чей будущий сын выиграет войну человечества против машин. Теперь у Сары родился сын Джон и время, когда он поведёт за собой выживших людей на борьбу с машинами, неумолимо приближается. Именно в этот момент из постапокалиптического будущего прибывает новый терминатор - практически неуязвимый и способный принимать любое обличье. Цель нового терминатора уже не Сара, а уничтожение молодого Джона Коннора. Однако шансы Джона на спасение существенно повышаются, когда на помощь приходит перепрограммированный сопротивлением терминатор предыдущего поколения. Оба киборга вступают в смертельный бой, от исхода которого зависит судьба человечества.Рейтинг:MPAA: R - Лицам до 17 лет обязательно присутствие взрослогоКачество: BDRip-AVC 60fpsФормат: MKVВидео: AVC, 1024x432 (2.35:1), 3160 kbps, 59,940 fps, 0,119 bppАудио: русский / AC3 / 5.1 / 48 kHz / 448 kbps / 16 bit |Киномания| Навигация по главам: есть

    ОтчетМедиаИнфо

    General Unique ID : 204593184693494541750362872747446379621 (0x99EB36CE11DB8A6A9D40E707EF4E2465) Format : Matroska Format version : Version 4 / Version 2 File size : 3.94 GiB Duration : 2h 36mn Overall bit rate : 3 611 Kbps Movie name : Tiberiumsun69 Encoded date : UTC 2015-10-01 16:10:12 Writing application : mkvmerge v8.3.0 ('Over the Horizon') 64bit Writing library : libebml v1.3.1 + libmatroska v1.4.2 Attachment : Yes

    Video ID : 1 Format : AVC Format/Info : Advanced Video Codec Format profile : [email protected] Format settings, CABAC : Yes Format settings, ReFrames : 4 frames Codec ID : V_MPEG4/ISO/AVC Duration : 2h 36mn Bit rate : 3 160 Kbps Width : 1 024 pixels Height : 432 pixels Display aspect ratio : 2.35:1 Frame rate : 59.940 fps Color space : YUV Chroma subsampling : 4:2:0 Bit depth : 8 bits Scan type : Progressive Bits/(Pixel*Frame) : 0.119 Stream size : 3.37 GiB (86%) Title : Tiberiumsun69 Writing library : x264 core 146 r2538 121396c Encoding settings : cabac=1 / ref=3 / deblock=1:0:0 / analyse=0x3:0x113 / me=umh / subme=11 / psy=1 / psy_rd=1.00:0.10 / mixed_ref=1 / me_range=32 / chroma_me=1 / trellis=2 / 8x8dct=1 / cqm=0 / deadzone=21,11 / fast_pskip=0 / chroma_qp_offset=-3 / threads=12 / lookahead_threads=3 / sliced_threads=0 / nr=0 / decimate=1 / interlaced=0 / bluray_compat=0 / constrained_intra=0 / bframes=16 / b_pyramid=2 / b_adapt=2 / b_bias=0 / direct=3 / weightb=1 / open_gop=0 / weightp=2 / keyint=600 / keyint_min=59 / scenecut=40 / intra_refresh=0 / rc_lookahead=40 / rc=2pass / mbtree=0 / bitrate=3160 / ratetol=1.0 / qcomp=0.60 / qpmin=0 / qpmax=69 / qpstep=4 / cplxblur=20.0 / qblur=0.5 / vbv_maxrate=14000 / vbv_bufsize=14000 / nal_hrd=none / filler=0 / ip_ratio=1.40 / pb_ratio=1.30 / aq=1:1.00 Language : English Default : Yes Forced : No

    Audio ID : 2 Format : AC-3 Format/Info : Audio Coding 3 Mode extension : CM (complete main) Codec ID : A_AC3 Duration : 2h 36mn Bit rate mode : Constant Bit rate : 448 Kbps Channel(s) : 6 channels Channel positions : Front: L C R, Side: L R, LFE Sampling rate : 48.0 KHz Bit depth : 16 bits Compression mode : Lossy Stream size : 500 MiB (12%) Title : Многоголосый, закадровый Киномания Language : Russian Default : Yes Forced : No

    Text #1 ID : 3 Format : UTF-8 Codec ID : S_TEXT/UTF8 Codec ID/Info : UTF-8 Plain Text Title : Полные Language : Russian Default : No Forced : No

    Text #2 ID : 4 Format : UTF-8 Codec ID : S_TEXT/UTF8 Codec ID/Info : UTF-8 Plain Text Title : Полные Language : English Default : No Forced : No

    Menu 00:00:00.000 : en:Prologue 00:00:52.092 : en:Future War 00:03:38.301 : en:Maint Titles 00:05:36.836 : en:A Terminator Arrives 00:06:48.408 : en:Biker Bar 00:09:11.217 : en:Bad to the Bone 00:10:33.758 : en:T-1000 Arrives 00:12:31.500 : en:Meet John Conner 00:13:38.651 : en:Sarah Conner 00:15:31.722 : en:Ain't No Trouble 00:16:31.907 : en:T-1000 Visits Voights 00:17:41.310 : en:Easy Money 00:19:12.150 : en:Not Much Time Time Left in the World 00:22:29.222 : en:Sanity Review 00:25:56.471 : en:Cyberdyne Systems 00:27:29.981 : en:Model Citizen 00:28:53.189 : en:Target Acquired 00:29:46.659 : en:The Galleria 00:31:23.047 : en:Zeroed in the Corridor 00:33:59.579 : en:In the Streets 00:35:10.233 : en:Canal Chase 00:38:50.327 : en:Time Out 00:41:33.407 : en:Never This Nice 00:44:16.652 : en:T-1000's Search 00:46:12.768 : en:Photos 00:47:28.136 : en:Mission Parameters 00:51:14.696 : en:Pescadero State Hospital 00:54:26.179 : en:Lewis the Guard 00:56:10.742 : en:Sarah Breaks Out 00:57:48.298 : en:215 Bones 00:58:31.758 : en:I Swear 00:59:40.743 : en:A Syringe-Point 01:01:50.665 : en:"Come with Me If You Want to Live" 01:03:18.127 : en:Escape From Pescadero 01:07:51.358 : en:Security Car 01:09:26.620 : en:Nice Bike 01:10:07.536 : en:Night Repairs 01:11:30.411 : en:Resetting the Switch 01:14:56.658 : en:Heading South 01:15:35.113 : en:No Problemo 01:16:24.955 : en:Smile? 01:17:52.959 : en:Detailed Files 01:20:15.268 : en:Meet the Pilot 01:22:35.783 : en:Salceda's Camp 01:25:05.390 : en:Weapons Cache 01:27:51.890 : en:Fathers and Sons 01:32:12.151 : en:Nuclear Nightmare 01:34:29.121 : en:Sarah's Decision 01:34:59.401 : en:No Fate 01:36:42.504 : en:Sarah's Solution 01:43:01.842 : en:Changing the Way It Goes 01:45:50.886 : en:Target: Cyberdyne 01:47:52.381 : en:All the Way 01:49:52.502 : en:T-1000 at Dyson's 01:50:32.167 : en:A Lot of Years 01:51:22.759 : en:Company 01:53:30.887 : en:Terminator Serves Notice 01:55:20.121 : en:In the Vault 01:55:52.612 : en:S.W.a.T. Offensive 01:58:13.753 : en:Death of Dyson and Cyberdyne 01:59:44.760 : en:"I'll Be Back" 02:01:25.194 : en:Borrowing the S.W.a.T. Van 02:02:37.808 : en:T-1000 Acquires a Helicopter 02:03:36.367 : en:Freeway Chase 02:06:15.359 : en:Tanker Chase 02:10:20.145 : en:Fire and Ice 02:13:49.437 : en:Glitching 02:14:28.768 : en:Sticking Together 02:15:01.926 : en:Hand to Hand 02:16:11.663 : en:Deepter Into the Steel Mill 02:16:46.781 : en:Sarahs' Stand 02:18:43.231 : en:Terminator Skewered 02:20:43.058 : en:Sarah and John 02:21:15.674 : en:Alternate Power 02:21:51.502 : en:Two Sarah's 02:23:22.176 : en:Terminated 02:25:35.393 : en:One More Chip 02:29:26.373 : en:The Unknown Future 02:31:24.116 : en:End Titles 02:35:25.440 : en:Restoration Credits 02:36:07.983 : en:End

    Терминатор 3: Восстание машин

    Название: Терминатор 3: Восстание машинОригинальное название: Terminator 3: Rise of the MachinesГод выпуска: 2003Страна: США, Германия, ВеликобританияЖанр: фантастика, боевикПродолжительность: 01:49:06Перевод: ДубляжСубтитры: русские (Форсированные), русские (Полные), английские (Полные) Режиссер: Джонатан Мостоу В ролях: Арнольд Шварценеггер (Terminator), Ник Стал (John Connor), Клэр Дэйнс (Kate Brewster), Кристанна Локен (T-X), Дэвид Эндрюс (Robert Brewster), Марк Фамиглетти (Scott Petersen), Эрл Боэн (Dr. Peter Silberman), Мойра Харрис (Betsy), Чоппер Бернет (Chief Engineer), Кристофер Лоуфорд (Brewster's Aide), Кэролин Хеннеси (Rich Woman), Джей Аковоне (Cop - Westside Street)Описание: Прошло десять лет с тех пор, как Джон Коннор помог предотвратить Судный День и спасти человечество от массового уничтожения. Теперь ему 25, Коннор не живет «как все» - у него нет дома, нет кредитных карт, нет сотового телефона и никакой работы. Его существование нигде не зарегистрировано. Он не может быть прослежен системой Skynet - высокоразвитой сетью машин, которые когда-то попробовали убить его и развязать войну против человечества. Пока из теней будущего не появляется T-X - Терминатрикс, самый сложный киборг-убийца Skynet. Посланная назад сквозь время, чтобы завершить работу, начатую её предшественником, T-1000, эта машина так же упорна, как прекрасен её человеческий облик. Теперь единственная надежда Коннору выжить - Терминатор, его таинственный прежний убийца. Вместе они должны одержать победу над новыми технологиями T-X и снова предотвратить Судный День...Рейтинг:MPAA: R - Лицам до 17 лет обязательно присутствие взрослогоКачество: BDRip-AVC 60fpsФормат: MKVВидео: AVC, 1024x424 (2.40:1), 3900 kbps, 59,940 fps, 0,150 bppАудио: русский / AC3 / 5.1 / 48 kHz / 448 kbps / 16 bitНавигация по главам: есть

    ОтчетМедиаИнфо

    General Unique ID : 245513036014966627960162785712195117485 (0xB8B4173D5965A3D2B0EC7C5F54C621AD) Format : Matroska Format version : Version 4 / Version 2 File size : 3.32 GiB Duration : 1h 49mn Overall bit rate : 4 352 Kbps Movie name : Tiberiumsun69 Encoded date : UTC 2015-09-28 17:43:07 Writing application : mkvmerge v8.3.0 ('Over the Horizon') 64bit Writing library : libebml v1.3.1 + libmatroska v1.4.2 Attachment : Yes

    Video ID : 1 Format : AVC Format/Info : Advanced Video Codec Format profile : [email protected] Format settings, CABAC : Yes Format settings, ReFrames : 4 frames Codec ID : V_MPEG4/ISO/AVC Duration : 1h 49mn Bit rate : 3 900 Kbps Width : 1 024 pixels Height : 424 pixels Display aspect ratio : 2.40:1 Frame rate : 59.940 fps Color space : YUV Chroma subsampling : 4:2:0 Bit depth : 8 bits Scan type : Progressive Bits/(Pixel*Frame) : 0.150 Stream size : 2.91 GiB (88%) Title : Tiberiumsun69 Writing library : x264 core 146 r2538 121396c Encoding settings : cabac=1 / ref=3 / deblock=1:0:0 / analyse=0x3:0x113 / me=umh / subme=9 / psy=1 / psy_rd=1.00:0.10 / mixed_ref=1 / me_range=32 / chroma_me=1 / trellis=2 / 8x8dct=1 / cqm=0 / deadzone=21,11 / fast_pskip=0 / chroma_qp_offset=-3 / threads=12 / lookahead_threads=3 / sliced_threads=0 / nr=0 / decimate=1 / interlaced=0 / bluray_compat=0 / constrained_intra=0 / bframes=16 / b_pyramid=2 / b_adapt=2 / b_bias=0 / direct=3 / weightb=1 / open_gop=0 / weightp=2 / keyint=600 / keyint_min=59 / scenecut=40 / intra_refresh=0 / rc_lookahead=40 / rc=2pass / mbtree=0 / bitrate=3900 / ratetol=1.0 / qcomp=0.60 / qpmin=0 / qpmax=69 / qpstep=4 / cplxblur=20.0 / qblur=0.5 / vbv_maxrate=14000 / vbv_bufsize=14000 / nal_hrd=none / filler=0 / ip_ratio=1.40 / pb_ratio=1.30 / aq=1:1.00 Language : English Default : Yes Forced : No

    Audio ID : 2 Format : AC-3 Format/Info : Audio Coding 3 Mode extension : CM (complete main) Codec ID : A_AC3 Duration : 1h 49mn Bit rate mode : Constant Bit rate : 448 Kbps Channel(s) : 6 channels Channel positions : Front: L C R, Side: L R, LFE Sampling rate : 48.0 KHz Bit depth : 16 bits Compression mode : Lossy Stream size : 350 MiB (10%) Title : Дубляж Language : Russian Default : Yes Forced : No

    Text #1 ID : 3 Format : UTF-8 Codec ID : S_TEXT/UTF8 Codec ID/Info : UTF-8 Plain Text Title : Форсированные Language : Russian Default : Yes Forced : No

    Text #2 ID : 4 Format : UTF-8 Codec ID : S_TEXT/UTF8 Codec ID/Info : UTF-8 Plain Text Title : Полные Language : Russian Default : No Forced : No

    Text #3 ID : 5 Format : UTF-8 Codec ID : S_TEXT/UTF8 Codec ID/Info : UTF-8 Plain Text Title : Полные Language : English Default : No Forced : No

    Menu 00:00:00.000 : :00:00:00.000 00:00:52.552 : :00:00:52.552 00:02:09.671 : :00:02:09.671 00:02:54.341 : :00:02:54.341 00:03:50.730 : :00:03:50.730 00:05:09.809 : :00:05:09.809 00:06:21.214 : :00:06:21.214 00:07:28.823 : :00:07:28.823 00:08:30.135 : :00:08:30.135 00:09:22.437 : :00:09:22.437 00:11:30.940 : :00:11:30.940 00:15:05.488 : :00:15:05.488 00:16:23.858 : :00:16:23.858 00:18:06.294 : :00:18:06.294 00:18:55.968 : :00:18:55.968 00:20:26.308 : :00:20:26.308 00:22:28.514 : :00:22:28.514 00:23:59.605 : :00:23:59.605 00:24:59.164 : :00:24:59.164 00:26:25.042 : :00:26:25.042 00:27:19.137 : :00:27:19.137 00:29:11.249 : :00:29:11.249 00:29:54.376 : :00:29:54.376 00:32:14.266 : :00:32:14.266 00:34:24.646 : :00:34:24.646 00:35:13.111 : :00:35:13.111 00:36:04.245 : :00:36:04.245 00:38:19.506 : :00:38:19.506 00:40:30.511 : :00:40:30.511 00:42:29.255 : :00:42:29.255 00:45:51.082 : :00:45:51.082 00:48:47.007 : :00:48:47.007 00:51:03.686 : :00:51:03.686 00:52:21.638 : :00:52:21.638 00:55:05.802 : :00:55:05.802 00:56:33.348 : :00:56:33.348 00:58:11.822 : :00:58:11.822 00:59:40.035 : :00:59:40.035 01:00:11.775 : :01:00:11.775 01:02:22.447 : :01:02:22.447 01:03:47.657 : :01:03:47.657 01:06:02.125 : :01:06:02.125 01:07:45.520 : :01:07:45.520 01:09:04.349 : :01:09:04.349 01:12:16.624 : :01:12:16.624 01:14:27.421 : :01:14:27.421 01:15:43.456 : :01:15:43.456 01:19:07.534 : :01:19:07.534 01:20:18.981 : :01:20:18.981 01:21:27.216 : :01:21:27.216 01:22:41.206 : :01:22:41.206 01:23:57.199 : :01:23:57.199 01:25:03.265 : :01:25:03.265 01:25:46.391 : :01:25:46.391 01:26:30.560 : :01:26:30.560 01:27:29.035 : :01:27:29.035 01:29:07.050 : :01:29:07.050 01:31:58.388 : :01:31:58.388 01:33:37.070 : :01:33:37.070 01:34:32.333 : :01:34:32.333 01:35:54.040 : :01:35:54.040 01:37:31.304 : :01:37:31.304 01:39:22.915 : :01:39:22.915 01:41:00.096 : :01:41:00.096

    Терминатор: Да придёт спаситель (Director's cut)

    Название: Терминатор: Да придёт спасительОригинальное название: Terminator SalvationГод выпуска: 2009Страна: США, Германия, Великобритания, ИталияЖанр: фантастика, боевикПродолжительность: 01:57:30Перевод: Дубляж + AVO на реж. вставкиСубтитры: русские (Полные), английские (Полные) Режиссер: МакДжи В ролях: Кристиан Бэйл (John Connor), Сэм Уортингтон (Marcus Wright), Антон Ельчин (Kyle Reese), Мун Бладгуд (Blair Williams), Брайс Даллас Ховард (Kate Connor), Коммон (Barnes), Джейн Александр (Virginia), Майкл Айронсайд (General Ashdown), Иван Г’Вера (General Losenko), Крис Браунинг (Morrison), Хелена Бонем Картер (Dr. Serena Kogan), Джадагрейс (Star)Описание: 2018 год. В мире наступила война с машинами. Джон Коннор - человек, чья судьба - возглавить Сопротивление электронному мозгу Скайнет и армии Терминаторов. Но в будущее, с верой в которое он возвращен, вклинивается таинственный Маркус Райт: незнакомец, чьи последние воспоминания рисуют камеру смертников. Коннор должен понять, кто такой этот Маркус и с какой целью пожаловал к людям. И на фоне подготовки Скайнетом решающего удара, Коннор и Райт отправляются в путешествие, приводящее их в самую сердцевину взбунтовавшейся операционной системы, где открывается ужасная тайна, кроющаяся за потенциальным уничтожением человечества.Рейтинг:MPAA: PG-13 - Детям до 13 лет просмотр не желателенКачество: BDRip-AVC 60fpsФормат: MKVВидео: AVC, 1024x424 (2.40:1), 3900 kbps, 59,940 fps, 0,150 bppАудио: русский / AC3 / 5.1 / 48 kHz / 448 kbps / 16 bitНавигация по главам: есть

    ОтчетМедиаИнфо

    General Unique ID : 222118714159965772742962427005253188849 (0xA71A821EB33B598EB6BA67141DB3FCF1) Format : Matroska Format version : Version 4 / Version 2 File size : 3.57 GiB Duration : 1h 57mn Overall bit rate : 4 353 Kbps Movie name : Tiberiumsun69 Encoded date : UTC 2015-09-29 23:45:21 Writing application : mkvmerge v8.3.0 ('Over the Horizon') 64bit Writing library : libebml v1.3.1 + libmatroska v1.4.2 Attachment : Yes

    Video ID : 1 Format : AVC Format/Info : Advanced Video Codec Format profile : [email protected] Format settings, CABAC : Yes Format settings, ReFrames : 4 frames Codec ID : V_MPEG4/ISO/AVC Duration : 1h 57mn Bit rate : 3 900 Kbps Width : 1 024 pixels Height : 424 pixels Display aspect ratio : 2.40:1 Frame rate : 59.940 fps Color space : YUV Chroma subsampling : 4:2:0 Bit depth : 8 bits Scan type : Progressive Bits/(Pixel*Frame) : 0.150 Stream size : 3.13 GiB (88%) Title : Tiberiumsun69 Writing library : x264 core 146 r2538 121396c Encoding settings : cabac=1 / ref=3 / deblock=1:0:0 / analyse=0x3:0x113 / me=umh / subme=9 / psy=1 / psy_rd=1.00:0.10 / mixed_ref=1 / me_range=32 / chroma_me=1 / trellis=2 / 8x8dct=1 / cqm=0 / deadzone=21,11 / fast_pskip=0 / chroma_qp_offset=-3 / threads=12 / lookahead_threads=3 / sliced_threads=0 / nr=0 / decimate=1 / interlaced=0 / bluray_compat=0 / constrained_intra=0 / bframes=16 / b_pyramid=2 / b_adapt=2 / b_bias=0 / direct=3 / weightb=1 / open_gop=0 / weightp=2 / keyint=600 / keyint_min=59 / scenecut=40 / intra_refresh=0 / rc_lookahead=40 / rc=2pass / mbtree=0 / bitrate=3900 / ratetol=1.0 / qcomp=0.60 / qpmin=0 / qpmax=69 / qpstep=4 / cplxblur=20.0 / qblur=0.5 / vbv_maxrate=14000 / vbv_bufsize=14000 / nal_hrd=none / filler=0 / ip_ratio=1.40 / pb_ratio=1.30 / aq=1:1.00 Language : English Default : Yes Forced : No

    Audio ID : 2 Format : AC-3 Format/Info : Audio Coding 3 Mode extension : CM (complete main) Codec ID : A_AC3 Duration : 1h 57mn Bit rate mode : Constant Bit rate : 448 Kbps Channel(s) : 6 channels Channel positions : Front: L C R, Side: L R, LFE Sampling rate : 48.0 KHz Bit depth : 16 bits Compression mode : Lossy Stream size : 377 MiB (10%) Title : Дубляж + Одноголосый на вставки Language : Russian Default : Yes Forced : No

    Text #1 ID : 3 Format : UTF-8 Codec ID : S_TEXT/UTF8 Codec ID/Info : UTF-8 Plain Text Title : Полные Language : Russian Default : No Forced : No

    Text #2 ID : 4 Format : UTF-8 Codec ID : S_TEXT/UTF8 Codec ID/Info : UTF-8 Plain Text Title : Полные Language : English Default : No Forced : No

    Menu 00:00:00.000 : en:Intro 00:04:11.751 : en:Death row Credits. 00:14:43.840 : en:R&D project. 00:21:53.477 : en:Survivors. 00:29:56.626 : en:Kill list. 00:35:10.272 : en:Out there alone. 00:41:51.839 : en:What happened here? 00:51:53.565 : en:You are the Resistance. 00:58:35.716 : en:Drive to stay alive. 01:08:17.088 : en:Harvester flareup. 01:17:40.859 : en:Moto-Terminator mayhem. 01:25:28.617 : en:Evasive maneuvers. 01:33:14.207 : en:On the same side. 01:37:34.049 : en:Not a good guy. 01:41:38.334 : en:Field test. 01:45:32.443 : en:Machine within.

    Терминатор: Генезис

    Название: Терминатор: ГенезисОригинальное название: Terminator GenisysГод выпуска: 2015Страна: СШАЖанр: фантастика, боевик, триллерПродолжительность: 02:05:43Перевод: ДубляжСубтитры: русские (Полные), английские (Полные) Режиссер: Алан Тейлор В ролях: Арнольд Шварценеггер (Guardian), Джейсон Кларк (John Connor), Эмилия Кларк (Sarah Connor), Джай Кортни (Kyle Reese), Дж.К. Симмонс (O'Brien), Дайо Окенийи (Danny Dyson), Мэтт Смит (Alex), Кортни Б. Вэнс (Miles Dyson), Ли Бён Хон (Cop / T-1000), Майкл Глэдис (Lt. Matias), Сандрин Холт (Detective Cheung), Уэйн Баструп (Young O'Brien)Описание: Когда Джон Коннор, лидер сопротивления, посылает сержанта Кайла Риза назад в 1984 год, чтобы защитить Сару Коннор и спасти будущее, неожиданный поворот событий создает разлом во времени. Сержант Риз оказывается в новой, незнакомой версии прошлого, где он встречает неожиданных союзников, в том числе Терминатора, новых опасных врагов, и новую миссию: изменить будущее...Рейтинг:MPAA: PG-13 - Детям до 13 лет просмотр не желателенКачество: BDRip-AVC 60fpsФормат: MKVВидео: AVC, 1024x432 (2.35:1), 3845 kbps, 59,940 fps, 0,145 bppАудио: русский / AC3 / 5.1 / 48 kHz / 640 kbps / 16 bitНавигация по главам: есть

    ОтчетМедиаИнфо

    General Unique ID : 194855362948171625918765517595787609335 (0x9297C7200A17235B917BDC8B7E7344F7) Format : Matroska Format version : Version 4 / Version 2 File size : 3.94 GiB Duration : 2h 5mn Overall bit rate : 4 491 Kbps Movie name : Tiberiumsun69 Encoded date : UTC 2015-10-18 12:09:34 Writing application : mkvmerge v8.3.0 ('Over the Horizon') 64bit Writing library : libebml v1.3.1 + libmatroska v1.4.2 Attachment : Yes

    Video ID : 1 Format : AVC Format/Info : Advanced Video Codec Format profile : [email protected] Format settings, CABAC : Yes Format settings, ReFrames : 4 frames Codec ID : V_MPEG4/ISO/AVC Duration : 2h 5mn Bit rate : 3 845 Kbps Width : 1 024 pixels Height : 432 pixels Display aspect ratio : 2.35:1 Frame rate : 59.940 fps Color space : YUV Chroma subsampling : 4:2:0 Bit depth : 8 bits Scan type : Progressive Bits/(Pixel*Frame) : 0.145 Stream size : 3.30 GiB (84%) Title : Tiberiumsun69 Writing library : x264 core 146 r2538 121396c Encoding settings : cabac=1 / ref=3 / deblock=1:0:0 / analyse=0x3:0x113 / me=umh / subme=9 / psy=1 / psy_rd=1.00:0.10 / mixed_ref=1 / me_range=32 / chroma_me=1 / trellis=2 / 8x8dct=1 / cqm=0 / deadzone=21,11 / fast_pskip=0 / chroma_qp_offset=-3 / threads=12 / lookahead_threads=3 / sliced_threads=0 / nr=0 / decimate=1 / interlaced=0 / bluray_compat=0 / constrained_intra=0 / bframes=16 / b_pyramid=2 / b_adapt=2 / b_bias=0 / direct=3 / weightb=1 / open_gop=0 / weightp=2 / keyint=600 / keyint_min=59 / scenecut=40 / intra_refresh=0 / rc_lookahead=40 / rc=2pass / mbtree=0 / bitrate=3845 / ratetol=1.0 / qcomp=0.60 / qpmin=0 / qpmax=69 / qpstep=4 / cplxblur=20.0 / qblur=0.5 / vbv_maxrate=14000 / vbv_bufsize=14000 / nal_hrd=none / filler=0 / ip_ratio=1.40 / pb_ratio=1.30 / aq=1:1.00 Language : English Default : Yes Forced : No

    Audio ID : 2 Format : AC-3 Format/Info : Audio Coding 3 Mode extension : CM (complete main) Codec ID : A_AC3 Duration : 2h 5mn Bit rate mode : Constant Bit rate : 640 Kbps Channel(s) : 6 channels Channel positions : Front: L C R, Side: L R, LFE Sampling rate : 48.0 KHz Bit depth : 16 bits Compression mode : Lossy Stream size : 575 MiB (14%) Title : Дубляж Language : Russian Default : Yes Forced : No

    Text #1 ID : 3 Format : UTF-8 Codec ID : S_TEXT/UTF8 Codec ID/Info : UTF-8 Plain Text Title : Полные Language : Russian Default : No Forced : No

    Text #2 ID : 4 Format : UTF-8 Codec ID : S_TEXT/UTF8 Codec ID/Info : UTF-8 Plain Text Title : Полные Language : English Default : No Forced : No

    Menu 00:00:00.000 : en:00:00:00.000 00:07:40.334 : en:00:07:40.334 00:14:20.734 : en:00:14:20.734 00:20:31.563 : en:00:20:31.563 00:27:48.416 : en:00:27:48.416 00:34:54.801 : en:00:34:54.801 00:41:02.626 : en:00:41:02.626 00:46:28.786 : en:00:46:28.786 00:53:05.515 : en:00:53:05.515 01:01:00.239 : en:01:01:00.239 01:08:22.556 : en:01:08:22.556 01:14:43.812 : en:01:14:43.812 01:21:31.261 : en:01:21:31.261 01:31:01.706 : en:01:31:01.706 01:38:42.750 : en:01:38:42.750 01:45:41.084 : en:01:45:41.084 01:52:48.970 : en:01:52:48.970 01:58:00.114 : en:01:58:00.114

    Просьба к переливающим на другие сайты, в оформлении указывайте пожалуйста авторство группы

    krutor.org

    / The Terminator ( / James Cameron) [1984, , , / / , BDRip 720p / DXVA / DVD9] [ / Remastered] Dub + MVO (DDV, ) + AVO (, , ) + Subs Rus Eng

    General Format : Matroska Format version : Version 2 File size : 7.95 GiB Duration : 1h 47mn Overall bit rate : 10.6 Mbps Movie name : Terminator (1984) Writing application : mkvmerge v3.4.0 ('Rapunzel') Jun 2 2010 23:27:56 Writing library : libebml v0.8.1 + libmatroska v0.9.0

    Video

    ID : 1 Format : AVC Format/Info : Advanced Video Codec Format profile : [email protected] Format settings, CABAC : Yes Format settings, ReFrames : 9 frames Codec ID : V_MPEG4/ISO/AVC Duration : 1h 47mn Bit rate : 7 490 Kbps Width : 1 280 pixels Height : 696 pixels Display aspect ratio : 1.85:1 Frame rate : 23.976 fps Color space : YUV Chroma subsampling : 4:2:0 Bit depth : 8 bits Scan type : Progressive Bits/(Pixel*Frame) : 0.351 Stream size : 5.44 GiB (68%) Title : BDRip 720p by nabby_3 Writing library : x264 core 125 r2200 999b753 Encoding settings : cabac=1 / ref=9 / deblock=1:-3:-2 / analyse=0x3:0x133 / me=umh / subme=11 / psy=1 / psy_rd=1.20:0.10 / mixed_ref=1 / me_range=32 / chroma_me=1 / trellis=2 / 8x8dct=1 / cqm=0 / deadzone=21,11 / fast_pskip=0 / chroma_qp_offset=-3 / threads=9 / lookahead_threads=1 / sliced_threads=0 / nr=0 / decimate=1 / interlaced=0 / bluray_compat=0 / constrained_intra=0 / bframes=9 / b_pyramid=2 / b_adapt=2 / b_bias=0 / direct=3 / weightb=1 / open_gop=0 / weightp=2 / keyint=240 / keyint_min=22 / scenecut=40 / intra_refresh=0 / rc=2pass / mbtree=0 / bitrate=7490 / ratetol=1.0 / qcomp=0.70 / qpmin=0 / qpmax=69 / qpstep=4 / cplxblur=20.0 / qblur=0.5 / ip_ratio=1.40 / pb_ratio=1.30 / aq=2:0.85 Language : English Default : No Forced : No

    Audio #1

    ID : 2 Format : AC-3 Format/Info : Audio Coding 3 Mode extension : CM (complete main) Format settings, Endianness : Big Codec ID : A_AC3 Duration : 1h 47mn Bit rate mode : Constant Bit rate : 448 Kbps Channel(s) : 6 channels Channel positions : Front: L C R, Side: L R, LFE Sampling rate : 48.0 KHz Bit depth : 16 bits Compression mode : Lossy Stream size : 343 MiB (4%) Title : Dub / AC3 / 5.1 ch / 448 kbps Language : Russian Default : Yes Forced : No

    Audio #2

    ID : 3 Format : AC-3 Format/Info : Audio Coding 3 Mode extension : CM (complete main) Format settings, Endianness : Big Codec ID : A_AC3 Duration : 1h 47mn Bit rate mode : Constant Bit rate : 448 Kbps Channel(s) : 6 channels Channel positions : Front: L C R, Side: L R, LFE Sampling rate : 48.0 KHz Bit depth : 16 bits Compression mode : Lossy Stream size : 343 MiB (4%) Title : DDV / AC3 / 5.1 ch / 448 kbps Language : Russian Default : No Forced : No

    Audio #3

    ID : 4 Format : AC-3 Format/Info : Audio Coding 3 Mode extension : CM (complete main) Format settings, Endianness : Big Codec ID : A_AC3 Duration : 1h 47mn Bit rate mode : Constant Bit rate : 448 Kbps Channel(s) : 6 channels Channel positions : Front: L C R, Side: L R, LFE Sampling rate : 48.0 KHz Bit depth : 16 bits Compression mode : Lossy Stream size : 343 MiB (4%) Title : ORT / AC3 / 5.1 ch / 448 kbps Language : Russian Default : No Forced : No

    Audio #4

    ID : 5 Format : AC-3 Format/Info : Audio Coding 3 Mode extension : CM (complete main) Format settings, Endianness : Big Codec ID : A_AC3 Duration : 1h 47mn Bit rate mode : Constant Bit rate : 448 Kbps Channel(s) : 6 channels Channel positions : Front: L C R, Side: L R, LFE Sampling rate : 48.0 KHz Bit depth : 16 bits Compression mode : Lossy Stream size : 343 MiB (4%) Title : Puchkov / AC3 / 5.1 ch / 448 kbps Language : Russian Default : No Forced : No

    Audio #5

    ID : 6 Format : AC-3 Format/Info : Audio Coding 3 Mode extension : CM (complete main) Format settings, Endianness : Big Codec ID : A_AC3 Duration : 1h 47mn Bit rate mode : Constant Bit rate : 448 Kbps Channel(s) : 6 channels Channel positions : Front: L C R, Side: L R, LFE Sampling rate : 48.0 KHz Bit depth : 16 bits Compression mode : Lossy Stream size : 343 MiB (4%) Title : Gavrilov / AC3 / 5.1 ch / 448 kbps Language : Russian Default : No Forced : No

    Audio #6

    ID : 7 Format : AC-3 Format/Info : Audio Coding 3 Mode extension : CM (complete main) Format settings, Endianness : Big Codec ID : A_AC3 Duration : 1h 47mn Bit rate mode : Constant Bit rate : 448 Kbps Channel(s) : 6 channels Channel positions : Front: L C R, Side: L R, LFE Sampling rate : 48.0 KHz Bit depth : 16 bits Compression mode : Lossy Stream size : 343 MiB (4%) Title : Serbin / AC3 / 5.1 ch / 448 kbps Language : Russian Default : No Forced : No

    Audio #7

    ID : 8 Format : AC-3 Format/Info : Audio Coding 3 Mode extension : CM (complete main) Format settings, Endianness : Big Codec ID : A_AC3 Duration : 1h 47mn Bit rate mode : Constant Bit rate : 448 Kbps Channel(s) : 6 channels Channel positions : Front: L C R, Side: L R, LFE Sampling rate : 48.0 KHz Bit depth : 16 bits Compression mode : Lossy Stream size : 343 MiB (4%) Title : Original / AC3 / 5.1 ch / 448 kbps Language : English Default : No Forced : No

    Text #1

    ID : 9 Format : UTF-8 Codec ID : S_TEXT/UTF8 Codec ID/Info : UTF-8 Plain Text Title : BluRay CEE Language : Russian Default : No Forced : No

    Text #2

    ID : 10 Format : UTF-8 Codec ID : S_TEXT/UTF8 Codec ID/Info : UTF-8 Plain Text Title : Puchkov Language : Russian Default : No Forced : No

    Text #3

    ID : 11 Format : UTF-8 Codec ID : S_TEXT/UTF8 Codec ID/Info : UTF-8 Plain Text Title : DDV Language : Russian Default : No Forced : No

    Text #4

    ID : 12 Format : UTF-8 Codec ID : S_TEXT/UTF8 Codec ID/Info : UTF-8 Plain Text Title : Original Language : English Default : No Forced : No

    Menu

    00:00:00.000 : en: 00:06:14.937 : en: 00:13:29.246 : en: 00:14:55.749 : en: 00:22:33.540 : en: 00:29:33.710 : en: 00:38:31.038 : en: 00:41:09.113 : en: 00:47:30.410 : en: 00:54:25.492 : en: 01:03:37.626 : en: 01:09:20.135 : en: 01:17:02.722 : en: 01:26:08.643 : en: 01:32:03.289 : en: 01:35:58.774 : en:

    unionpeer.com


    Смотрите также