Скачать трилогию хоббит режиссерская версия через торрент


Скачать торрент Хоббит: Трилогия / The Hobbit: Trilogy (2012-2014) BDRip 1080p от HDReactor

Название: Хоббит: Нежданное путешествие Оригинальное название: The Hobbit: An Unexpected Journey Год выпуска: 2012 Страна: США, Новая Зеландия Жанр: фэнтези, приключения Продолжительность: 03:02:31 Перевод: Дубляж Режиссер: Питер Джексон / Peter Jackson В ролях: Мартин Фриман (Bilbo), Иэн МакКеллен (Gandalf), Ричард Армитедж (Thorin), Джеймс Несбитт (Bofur), Кен Стотт (Balin), Грэм МакТавиш (Dwalin), Дин О’Горман (Fili), Эйдан Тернер (Kili), Стивен Хантер (Bombur), Сильвестр МакКой (Radagast), Джед Брофи (Nori), Марк Хэдлоу (Dori / Bert Troll)

Описание: Фильм повествует о путешествии Бильбо Бэггинса, который пускается в грандиозный поход, целью которого является отвоевание утраченного королевства гномов Эребор у зловещего дракона Смауга. Совершенно неожиданно с хоббитом налаживает контакт волшебник Гэндальф Серый. Так Бильбо находит себя, присоединяясь к компании тринадцати гномов, возглавляемых легендарным воином, Торином Дубощитом. Их путешествие проляжет через Дикий Край, через предательские земли, населенные гоблинами и орками, смертоносными варгами и гигантскими пауками, народом, меняющим шкуры, и волшебниками. И хотя их цель находится на Востоке, среди пустошей Одинокой Горы, сначала им придется выбраться из туннелей гоблинов, где Бильбо встретит существо, которое изменит его жизнь навсегда... Голлума. Здесь, один на один с Голлумом, на берегу подземного озера, непритязательный Бильбо Бэггинс обнаружит не только скрытые в глубине души хитрость и отвагу, которые удивят даже его, но и завладеет «прелестным» колечком Голлума, которое обладает нежданными и полезными свойствами... Простое золотое кольцо, c которым связана судьба всего Средиземья, нитями, о которых Бильбо не мог даже вообразить.

Качество: BDRip (1080p) Видео: MPEG-4 AVC, 9206 Кбит/с, 1920x800 Аудио #1: Русский (AC3, 6 ch, 448 Кбит/с) Аудио #2: Английский (AC3, 6 ch, 640 Кбит/с) Субтитры: русские (Форсированные), русские (Полные)

МедиаИнфо

Формат : Matroska Версия формата : Version 2 Размер файла : 11,7 Гбайт Продолжительность : 3 ч. 2 м. Общий поток : 9206 Кбит/сек Название фильма : ~V ad~ Дата кодирования : UTC 2013-11-11 06:04:22 Программа кодирования : mkvmerge v6.5.0 ('Isn't she lovely') built on Oct 20 2013 12:50:05 Библиотека кодирования : libebml v1.3.0 + libmatroska v1.4.1

Видео Идентификатор : 1 Формат : AVC Формат/Информация : Advanced Video Codec Профиль формата : [email protected] Параметр CABAC формата : Да Параметр ReFrames формата : 5 кадров Идентификатор кодека : V_MPEG4/ISO/AVC Продолжительность : 3 ч. 2 м. Битрейт : 8119 Кбит/сек Ширина : 1920 пикселей Высота : 800 пикселей Соотношение сторон : 2,40:1 Режим частоты кадров : Постоянный Частота кадров : 23,976 кадра/сек Цветовое пространство : YUV Субдискретизация насыщенности : 4:2:0 Битовая глубина : 8 бит Тип развёртки : Прогрессивная Бит/(Пиксели*Кадры) : 0.220 Размер потока : 10,1 Гбайт (86%) Заголовок : ~V~ Библиотека кодирования : x264 core 138 r2359+704+48 3f879a0 tMod [[email protected] X86_64] Настройки программы : cabac=1 / ref=5 / deblock=1:-3:-3 / analyse=0x3:0x133 / me=umh / subme=11 / psy=1 / fade_compensate=0.00 / psy_rd=1.00:0.00 / mixed_ref=1 / me_range=32 / chroma_me=1 / trellis=2 / 8x8dct=1 / cqm=0 / deadzone=21,11 / fast_pskip=0 / chroma_qp_offset=-2 / threads=12 / lookahead_threads=1 / sliced_threads=0 / nr=0 / decimate=0 / interlaced=0 / bluray_compat=0 / constrained_intra=0 / fgo=0 / bframes=9 / b_pyramid=2 / b_adapt=2 / b_bias=0 / direct=3 / weightb=1 / open_gop=0 / weightp=2 / keyint=240 / keyint_min=23 / scenecut=40 / intra_refresh=0 / rc=2pass / mbtree=0 / bitrate=8119 / ratetol=1.0 / qcomp=0.60 / qpmin=0:0:0 / qpmax=69:69:69 / qpstep=4 / cplxblur=20.0 / qblur=0.5 / ip_ratio=1.40 / pb_ratio=1.30 / aq=2:0.80 / aq-sensitivity=10.00 / aq-factor=1.00:1.00:1.00 / aq2=0 / aq3=0 Язык : English Default : Да Forced : Нет

Аудио #1 Идентификатор : 2 Формат : AC-3 Формат/Информация : Audio Coding 3 Расширение режима : CM (complete main) Параметр Endianness формата : Big Идентификатор кодека : A_AC3 Продолжительность : 3 ч. 2 м. Вид битрейта : Постоянный Битрейт : 448 Кбит/сек Каналы : 6 каналов Расположение каналов : Front: L C R, Side: L R, LFE Частота : 48,0 КГц Битовая глубина : 16 бит Метод сжатия : С потерями Размер потока : 585 Мбайт (5%) Заголовок : AC3.448Kbps (6ch) Russian (Дубляж) Язык : Russian Default : Да Forced : Нет

Аудио #2 Идентификатор : 3 Формат : AC-3 Формат/Информация : Audio Coding 3 Расширение режима : CM (complete main) Параметр Endianness формата : Big Идентификатор кодека : A_AC3 Продолжительность : 3 ч. 2 м. Вид битрейта : Постоянный Битрейт : 640 Кбит/сек Каналы : 6 каналов Расположение каналов : Front: L C R, Side: L R, LFE Частота : 48,0 КГц Битовая глубина : 16 бит Метод сжатия : С потерями Размер потока : 836 Мбайт (7%) Заголовок : AC3.640Kbps (6ch) English Язык : English Default : Нет Forced : Нет

Текст #1 Идентификатор : 4 Формат : UTF-8 Идентификатор кодека : S_TEXT/UTF8 Идентификатор кодека/Информация : UTF-8 Plain Text Заголовок : Russian (Full) Язык : Russian Default : Нет Forced : Нет

Текст #2 Идентификатор : 5 Формат : UTF-8 Идентификатор кодека : S_TEXT/UTF8 Идентификатор кодека/Информация : UTF-8 Plain Text Заголовок : Russian (Forced) Язык : Russian Default : Да Forced : Нет

Меню 00:00:00.000 : en:Prologue: The Fall of Erebor 00:10:11.903 : en:"In a Hole in the Ground There Lived a Hobbit" 00:14:08.723 : en:Very Old Friends 00:17:27.255 : en:Mr. Baggins 00:18:44.623 : en:An Unexpected Party 00:23:16.604 : en:"Blunt the Knives" 00:27:59.469 : en:A Map, A Key and A Contract 00:36:04.871 : en:"Misty Mountains" 00:41:17.266 : en:"...The World Ahead" 00:46:30.830 : en:The Battle of Azanulbizar 00:53:04.181 : en:Radagast the Brown 00:58:07.651 : en:Trollshaws 00:59:55.300 : en:Roast Mutton 01:10:42.405 : en:A Troll-hoard 01:15:01.831 : en:The Hill of Sorcery 01:18:52.811 : en:Warg-scouts 01:24:56.925 : en:Rivendell 01:30:34.429 : en:A Short Rest 01:34:10.603 : en:Moon Runes 01:37:24.464 : en:The Defiler 01:39:03.479 : en:The Last Homely House 01:41:40.803 : en:The White Council 01:50:22.533 : en:"Why the Halfling?" 01:52:59.773 : en:Over Hill 01:59:06.348 : en:Under Hill 02:03:57.513 : en:The Great Goblin 02:09:51.575 : en:Riddles in the Dark 02:23:21.426 : en:Biter and Beater 02:25:18.877 : en:The Ring 02:26:31.199 : en:Escape from Goblin Town 02:30:52.919 : en:The Pity of Bilbo 02:33:00.546 : en:"Home is Behind..." 02:35:52.593 : en:Out of the Frying Pan... 02:46:51.210 : en:A Good Omen 02:52:21.373 : en:Credits

х264

x264 [info]: frame I:2071 Avg QP:15.40 size:196134 x264 [info]: frame P:65255 Avg QP:18.40 size: 81270 x264 [info]: frame B:195221 Avg QP:20.22 size: 27666

Хоббит: Пустошь Смауга

Название: Хоббит: Пустошь Смауга Оригинальное название: The Hobbit: The Desolation of Smaug Год выпуска: 2013 Страна: США, Новая Зеландия Жанр: фэнтези, приключения Продолжительность: 03:06:35 Перевод: Дубляж Режиссер: Питер Джексон / Peter Jackson В ролях: Мартин Фриман (Bilbo), Ричард Армитедж (Thorin), Иэн МакКеллен (Gandalf), Эванджелин Лилли (Tauriel), Орландо Блум (Legolas), Люк Эванс (Bard / Girion), Бенедикт Камбербэтч (Smaug / Necromancer, озвучка), Ли Пейс (Thranduil), Кен Стотт (Balin), Эйдан Тернер (Kili), Грэм МакТавиш (Dwalin), Джеймс Несбитт (Bofur)

Описание: Продолжение путешествия хоббита Бильбо Бэггинса, волшебника Гэндальфа и 13 отважных гномов. Их компания обязана завершить своё путешествие к Одинокой горе. Там они должны встретиться с величайшей опасностью из всех - созданием куда более ужасающим, чем все их прошлые противники, которое проверит на прочность не только их мужество, но крепость их дружбы и правильность выбранного пути, - драконом Смаугом.

Качество: BDRip (1080p) Видео: MPEG-4 AVC, 7764 Кбит/с, 1920x800 Аудио #1: Русский (AC3, 6 ch, 448 Кбит/с) Аудио #2: Английский (AC3, 6 ch, 640 Кбит/с) Субтитры: русские (Форсированные), русские (Полные)

МедиаИнфо

Формат : Matroska Версия формата : Version 2 Размер файла : 11,5 Гбайт Продолжительность : 3 ч. 6 м. Общий поток : 8853 Кбит/сек Название фильма : ~V ad~ Дата кодирования : UTC 2014-11-08 01:59:07 Программа кодирования : mkvmerge v6.1.0 ('Old Devil') built on Mar 4 2013 09:10:42 Библиотека кодирования : libebml v1.3.0 + libmatroska v1.4.0

Видео Идентификатор : 1 Формат : AVC Формат/Информация : Advanced Video Codec Профиль формата : [email protected] Параметр CABAC формата : Да Параметр ReFrames формата : 5 кадров Идентификатор кодека : V_MPEG4/ISO/AVC Продолжительность : 3 ч. 6 м. Битрейт : 7764 Кбит/сек Ширина : 1920 пикселей Высота : 800 пикселей Соотношение сторон : 2,40:1 Режим частоты кадров : Постоянный Частота кадров : 23,976 кадра/сек Цветовое пространство : YUV Субдискретизация насыщенности : 4:2:0 Битовая глубина : 8 бит Тип развёртки : Прогрессивная Бит/(Пиксели*Кадры) : 0.211 Размер потока : 9,89 Гбайт (86%) Заголовок : ~V~ Библиотека кодирования : x264 core 142 r2409+42 04be48a tMod [[email protected] X86_64] Настройки программы : cabac=1 / ref=5 / deblock=1:-3:-3 / analyse=0x3:0x133 / me=umh / subme=11 / psy=1 / fade_compensate=0.00 / psy_rd=1.00:0.00 / mixed_ref=1 / me_range=32 / chroma_me=1 / trellis=2 / 8x8dct=1 / cqm=0 / deadzone=21,11 / fast_pskip=0 / chroma_qp_offset=-2 / threads=12 / lookahead_threads=1 / sliced_threads=0 / nr=0 / decimate=0 / interlaced=0 / bluray_compat=0 / constrained_intra=0 / fgo=0 / bframes=9 / b_pyramid=2 / b_adapt=2 / b_bias=0 / direct=3 / weightb=1 / open_gop=0 / weightp=2 / keyint=240 / keyint_min=23 / scenecut=40 / intra_refresh=0 / rc=2pass / mbtree=0 / bitrate=7764 / ratetol=1.0 / qcomp=0.60 / qpmin=0:0:0 / qpmax=69:69:69 / qpstep=4 / cplxblur=20.0 / qblur=0.5 / ip_ratio=1.40 / pb_ratio=1.30 / aq=4:0.80 / aq-sensitivity=11.00 / aq-factor=1.00:1.00:1.00 / aq2=1:0.70 / aq2-sensitivity=10.00 / aq2-factor=1.00:1.00:1.00 / aq3=1:[0.60:0.60]:[0.60:0.60]:[0.60:0.60]:[0.60:0.60] / aq3-sensitivity=9.00 / aq3-factor=[1.00:1.00]:[1.00:1.00]:[1.00:1.00] / aq3-boundary=192:64:24 Язык : English Default : Да Forced : Нет

Аудио #1 Идентификатор : 2 Формат : AC-3 Формат/Информация : Audio Coding 3 Расширение режима : CM (complete main) Параметр Endianness формата : Big Идентификатор кодека : A_AC3 Продолжительность : 3 ч. 6 м. Вид битрейта : Постоянный Битрейт : 448 Кбит/сек Каналы : 6 каналов Расположение каналов : Front: L C R, Side: L R, LFE Частота : 48,0 КГц Битовая глубина : 16 бит Метод сжатия : С потерями Размер потока : 598 Мбайт (5%) Заголовок : AC3.448Kbps (6ch) Russian (Дубляж) Язык : Russian Default : Да Forced : Нет

Аудио #2 Идентификатор : 3 Формат : AC-3 Формат/Информация : Audio Coding 3 Расширение режима : CM (complete main) Параметр Endianness формата : Big Идентификатор кодека : A_AC3 Продолжительность : 3 ч. 6 м. Вид битрейта : Постоянный Битрейт : 640 Кбит/сек Каналы : 6 каналов Расположение каналов : Front: L C R, Side: L R, LFE Частота : 48,0 КГц Битовая глубина : 16 бит Метод сжатия : С потерями Размер потока : 854 Мбайт (7%) Заголовок : AC3.640Kbps (6ch) English Язык : English Default : Нет Forced : Нет

Текст #1 Идентификатор : 4 Формат : UTF-8 Идентификатор кодека : S_TEXT/UTF8 Идентификатор кодека/Информация : UTF-8 Plain Text Заголовок : Russian (Full) Язык : Russian Default : Нет Forced : Нет

Текст #2 Идентификатор : 5 Формат : UTF-8 Идентификатор кодека : S_TEXT/UTF8 Идентификатор кодека/Информация : UTF-8 Plain Text Заголовок : Russian (Forced) Язык : Russian Default : Да Forced : Нет

Меню 00:00:00.000 : en:The Quest for Erebor** 00:07:33.411 : en:Wilderland 00:12:00.302 : en:The Master Summons 00:12:59.445 : en:A Commander of Legions 00:15:55.371 : en:Queer Lodgings* 00:20:56.922 : en:Last of the Skin-changers 00:23:15.435 : en:Where the Shadows Lie* 00:25:52.676 : en:The Elven-gate** 00:29:59.255 : en:Mirkwood** 00:38:14.041 : en:Flies and Spiders 00:46:43.842 : en:The Woodland Realm 00:49:46.316 : en:The Elvenking 00:53:19.529 : en:King and Captain 00:55:10.223 : en:Feast of Starlight 00:58:07.859 : en:Barrels Out of Bond 01:08:42.326 : en:The High Fells 01:12:22.338 : en:Bard the Bowman 01:15:45.707 : en:The Nature of Evil 01:19:10.162 : en:Smuggled Cargo 01:22:46.836 : en:Lake-town 01:25:09.687 : en:The Master of Lake-town** 01:28:07.740 : en:The World of Men** 01:31:15.553 : en:The Home of Bard 01:36:02.756 : en:"It Is Our Fight" 01:37:35.891 : en:The Prophecy** 01:40:35.404 : en:A Warm Welcome** 01:45:16.518 : en:The Parting of the Company** 01:48:44.476 : en:The Lonely Mountain** 01:50:31.750 : en:A Spell of Concealment** 01:52:36.541 : en:The Hidden Door 01:53:08.448 : en:Son of Thror* 01:59:16.357 : en:On the Doorstep 02:07:11.832 : en:Kingsfoil 02:07:39.109 : en:The Courage of Hobbits 02:09:22.671 : en:The Enemy Revealed** 02:12:48.585 : en:Inside Information 02:22:00.845 : en:The Black Arrow 02:22:43.429 : en:In the Dragon's Lair 02:23:17.922 : en:Under Arrest 02:24:56.396 : en:Bilbo the Burgler 02:26:45.087 : en:Smaug the Magnificent 02:29:18.824 : en:Orc Attach 02:33:12.975 : en:Confrontations 02:34:57.621 : en:Elvish Medicine 02:36:13.155 : en:Hunter and Hunted 02:37:45.956 : en:"She Walks In Starlight" 02:39:08.830 : en:A Desperate Plan 02:41:39.940 : en:Duel in Lake-town 02:44:06.002 : en:The Forges Relit 02:51:16.683 : en:Smaug the Golden 02:56:05.555 : en:Credits

х264

x264 [info]: frame I:2289 Avg QP:15.47 size:176178 x264 [info]: frame P:64527 Avg QP:17.62 size: 73598 x264 [info]: frame B:201593 Avg QP:18.30 size: 28331

Хоббит: Битва пяти воинств

Название: Хоббит: Битва пяти воинств Оригинальное название: The Hobbit: The Battle of the Five Armies Год выпуска: 2014 Страна: Новая Зеландия, США Жанр: фэнтези, приключения Продолжительность: 02:44:03 Перевод: Дубляж Режиссер: Питер Джексон / Peter Jackson В ролях: Мартин Фриман (Bilbo Baggins), Иэн МакКеллен (Gandalf), Ричард Армитедж (Thorin), Люк Эванс (Bard), Эванджелин Лилли (Tauriel), Ли Пейс (Thranduil), Орландо Блум (Legolas), Бенедикт Камбербэтч (Smaug / Necromancer, озвучка), Кен Стотт (Balin), Эйдан Тернер (Kili), Грэм МакТавиш (Dwalin), Уильям Кирчер (Bifur)

Описание: Когда отряд из тринадцати гномов нанимал хоббита Бильбо Бэгинса в качестве взломщика и четырнадцатого, «счастливого», участника похода к Одинокой горе, Бильбо полагал, что его приключения закончатся, когда он выполнит свою задачу - найдет сокровище, которое так необходимо предводителю гномов Торину. Путешествие в Эребор, захваченное драконом Смаугом королевство гномов, оказалось еще более опасным, чем предполагали гномы и даже Гэндальф - мудрый волшебник, протянувший Торину и его отряду руку помощи. В погоню за гномами устремилась армия орков, ведомых пробудившимся в руинах древним злом, а эльфы и люди, с которыми Бильбо и его товарищам пришлось иметь дело во время путешествия и которые пострадали от последствий желания гномов вернуть свой дом, предъявили права на щедрое вознаграждение - часть сокровищ Одинокой горы. Скоро неподалеку от Одинокой горы встретятся пять армий, и лишь кровопролитная битва определит результаты смелого гномьего похода.

Качество: BDRip (1080p) Видео: MPEG-4 AVC, 9074 Кбит/с, 1920x800 Аудио #1: Русский (AC3, 6 ch, 384 Кбит/с) Аудио #2: Английский (AC3, 6 ch, 640 Кбит/с) Субтитры: русские (Форсированные), русские (Полные)

МедиаИнфо

Формат : Matroska Версия формата : Version 2 Размер файла : 11,6 Гбайт Продолжительность : 2 ч. 44 м. Общий поток : 10,1 Мбит/сек Название фильма : ~V ad~ Дата кодирования : UTC 2015-11-14 16:22:16 Программа кодирования : mkvmerge v6.5.0 ('Isn't she lovely') built on Oct 20 2013 12:50:05 Библиотека кодирования : libebml v1.3.0 + libmatroska v1.4.1

Видео Идентификатор : 1 Формат : AVC Формат/Информация : Advanced Video Codec Профиль формата : [email protected] Параметр CABAC формата : Да Параметр ReFrames формата : 5 кадров Идентификатор кодека : V_MPEG4/ISO/AVC Продолжительность : 2 ч. 44 м. Битрейт : 9074 Кбит/сек Ширина : 1920 пикселей Высота : 800 пикселей Соотношение сторон : 2,40:1 Режим частоты кадров : Постоянный Частота кадров : 23,976 кадра/сек Цветовое пространство : YUV Субдискретизация насыщенности : 4:2:0 Битовая глубина : 8 бит Тип развёртки : Прогрессивная Бит/(Пиксели*Кадры) : 0.246 Размер потока : 10,2 Гбайт (88%) Заголовок : ~V~ Библиотека кодирования : x264 core 148 r2579+50 65f745f t_mod_Custom [[email protected] X86_64] Настройки программы : cabac=1 / ref=5 / deblock=1:-3:-3 / analyse=0x3:0x133 / me=umh / subme=11 / psy=1 / fade_compensate=0.00 / psy_rd=1.00:0.00 / mixed_ref=1 / me_range=32 / chroma_me=1 / trellis=2 / 8x8dct=1 / cqm=0 / deadzone=21,11 / fast_pskip=0 / chroma_qp_offset=-2 / threads=12 / lookahead_threads=1 / sliced_threads=0 / nr=0 / decimate=0 / interlaced=0 / bluray_compat=0 / constrained_intra=0 / fgo=0 / bframes=8 / b_pyramid=2 / b_adapt=2 / b_bias=0 / direct=3 / weightb=1 / open_gop=0 / weightp=2 / keyint=240 / keyint_min=23 / scenecut=40 / intra_refresh=0 / rc=2pass / mbtree=0 / bitrate=9074 / ratetol=1.0 / qcomp=0.60 / qpmin=0:0:0 / qpmax=69:69:69 / qpstep=4 / cplxblur=20.0 / qblur=0.5 / ip_ratio=1.40 / pb_ratio=1.30 / aq=3:0.90 / aq-sensitivity=11.00 / aq-factor=1.00:1.00:1.00 / aq2=1:0.60 / aq2-sensitivity=10.00 / aq2-factor=1.00:1.00:1.00 / aq3=1:[0.60:0.60]:[0.60:0.60]:[0.60:0.60]:[0.60:0.60] / aq3-sensitivity=9.00 / aq3-factor=[1.00:1.00]:[1.00:1.00]:[1.00:1.00] / aq3-boundary=192:64:24 Язык : English Default : Да Forced : Нет

Аудио #1 Идентификатор : 2 Формат : AC-3 Формат/Информация : Audio Coding 3 Расширение режима : CM (complete main) Параметр Endianness формата : Big Идентификатор кодека : A_AC3 Продолжительность : 2 ч. 44 м. Вид битрейта : Постоянный Битрейт : 384 Кбит/сек Каналы : 6 каналов Расположение каналов : Front: L C R, Side: L R, LFE Частота : 48,0 КГц Метод сжатия : С потерями Задержка видео : 1 с. 0 мс. Размер потока : 451 Мбайт (4%) Заголовок : AC3.384Kbps (6ch) Russian (Дубляж) Язык : Russian Default : Да Forced : Нет

Аудио #2 Идентификатор : 3 Формат : AC-3 Формат/Информация : Audio Coding 3 Расширение режима : CM (complete main) Параметр Endianness формата : Big Идентификатор кодека : A_AC3 Продолжительность : 2 ч. 44 м. Вид битрейта : Постоянный Битрейт : 640 Кбит/сек Каналы : 6 каналов Расположение каналов : Front: L C R, Side: L R, LFE Частота : 48,0 КГц Метод сжатия : С потерями Размер потока : 751 Мбайт (6%) Заголовок : AC3.640Kbps (6ch) English Язык : English Default : Нет Forced : Нет

Текст #1 Идентификатор : 4 Формат : UTF-8 Идентификатор кодека : S_TEXT/UTF8 Идентификатор кодека/Информация : UTF-8 Plain Text Заголовок : Russian (Full) Язык : Russian Default : Нет Forced : Нет

Текст #2 Идентификатор : 5 Формат : UTF-8 Идентификатор кодека : S_TEXT/UTF8 Идентификатор кодека/Информация : UTF-8 Plain Text Заголовок : Russian (Forced) Язык : Russian Default : Да Forced : Нет

Меню 00:00:00.000 : en:Chapter 01 00:05:12.061 : en:Chapter 02 00:12:47.016 : en:Chapter 03 00:13:18.964 : en:Chapter 04 00:18:57.219 : en:Chapter 05 00:23:42.003 : en:Chapter 06 00:24:56.119 : en:Chapter 07 00:26:04.354 : en:Chapter 08 00:27:32.984 : en:Chapter 09 00:35:45.351 : en:Chapter 10 00:36:41.073 : en:Chapter 11 00:40:41.856 : en:Chapter 12 00:42:01.101 : en:Chapter 13 00:43:11.714 : en:Chapter 14 00:46:15.981 : en:Chapter 15 00:51:27.584 : en:Chapter 16 00:54:57.752 : en:Chapter 17 00:56:14.496 : en:Chapter 18 00:58:31.257 : en:Chapter 19 01:00:26.664 : en:Chapter 20 01:02:43.217 : en:Chapter 21 01:06:10.007 : en:Chapter 22 01:12:23.047 : en:Chapter 23 01:17:22.512 : en:Chapter 24 01:20:36.289 : en:Chapter 25 01:24:57.175 : en:Chapter 26 01:28:41.649 : en:Chapter 27 01:30:52.238 : en:Chapter 28 01:33:01.909 : en:Chapter 29 01:35:12.790 : en:Chapter 30 01:38:32.448 : en:Chapter 31 01:39:42.851 : en:Chapter 32 01:41:00.554 : en:Chapter 33 01:45:03.338 : en:Chapter 34 01:47:13.260 : en:Chapter 35 01:49:05.038 : en:Chapter 36 01:50:02.762 : en:Chapter 37 01:52:59.564 : en:Chapter 38 01:53:51.241 : en:Chapter 39 01:57:15.028 : en:Chapter 40 02:05:38.447 : en:Chapter 41 02:12:06.668 : en:Chapter 42 02:15:26.201 : en:Chapter 43 02:18:32.429 : en:Chapter 44 02:20:07.357 : en:Chapter 45 02:22:26.871 : en:Chapter 46 02:26:11.512 : en:Chapter 47 02:30:54.420 : en:Chapter 48

х264

x264 [info]: frame I:2005 Avg QP:16.32 size:201077 x264 [info]: frame P:65167 Avg QP:18.20 size: 83132 x264 [info]: frame B:168813 Avg QP:19.79 size: 31790

10 из 10

голосов: 1

m-torrent.org

Хоббит+Трилогия торрент скачать | Скачать торренты в BDRip и HDRip качестве

Хоббит: Трилогия / The Hobbit: Trilogy (2012-2014) BDRip 1080p от HDReactor | Extended Cut34.85 GBХоббит (Трилогия) / The Hobbit: Trilogy / 2012-2014 / ДБ / HDRip / 9.76 ГБ9.76 GBХоббит / The Hobbit (2012, 2013,2014) BDRip [H.264/720p-LQ] [Трилогия] [Extended Edition]13.1 GBХоббит (Расширенная Версия) (Трилогия) / The Hobbit (Extended Version) (Trilogy) / 2012-2014 / ДБ, СТ / BDRip (1080p) / 34.92 ГБ34.92 GBХоббит: Трилогия / The Hobbit: Trilogy (2012-2014) BDRemux [H.264/1080p] [Extended Edition]103 GBХоббит / The Hobbit (2012-2014) BDRip [H.265/1080p] [Extended Edition] [Трилогия]27.6 GBХоббит: Трилогия / The Hobbit: Trilogy (2012-2014) BDRip [H.264/1080p] [Extended Edition]34.9 GBХоббит: Трилогия / The Hobbit: Trilogy (2012-2014) BDRip-AVC от R.G. HD-Films | 60 fps11.94 GBХоббит: Трилогия / The Hobbit: Trilogy (2012-2014) BDRip 720p | D, А | Расширенная версия31.25 GBХоббит: Трилогия / The Hobbit: Trilogy (2012-2014) BDRip-AVC от HELLYWOOD | Лицензия8.82 GBХоббит (Трилогия) (Расширенная версия) / The Hobbit: Trilogy (Extended Version) / 2012-2014 / ДБ, СТ / BDRip / 6.54 ГБ6.54 GBХоббит (Трилогия) (Расширенная версия) / The Hobbit: Trilogy (Extended Version) / 2012-2014 / ДБ, СТ / BDRip / 4.4 ГБ4.4 GBХоббит (Расширенная Версия) (Трилогия) / The Hobbit (Extended Version) (Trilogy) / 2012-2014 / ДБ, СТ / BDRip (720p) / 27.89 ГБ27.89 GBХоббит (Расширенная Версия) (Трилогия) / The Hobbit (Extended Version) (Trilogy) / 2012-2014 / ДБ, СТ / HEVC / BDRip (1080p) / 27.64 ГБ27.64 GBХоббит (Трилогия) / The Hobbit: Trilogy / 2012-2014 / ДБ, СТ / HDRip / 8.21 ГБ8.21 GBХоббит (Расширенная Версия) (Трилогия) / The Hobbit (Extended Version) (Trilogy) / 2012-2014 / ДБ, ПМ, АП (Сербин, Горчаков), СТ / BDRip (720p) / 32.9 ГБ32.9 GB(Score) Хоббит Трилогия / The Hobbit Trilogy (Special Editions) [WEB, 24bit] (Howard Shore) - 2012-2014, FLAC (tracks), lossless3.89 GBХоббит: Трилогия / The Hobbit: Trilogy (2012-2014) BDRip-AVC от MediaClub | D13.36 GBХоббит (Расширенная Версия) (Трилогия) / The Hobbit (Extended Version) (Trilogy) / 2012-2014 / ДБ, АП (Сербин, Горчаков), СТ / Blu-Ray Remux (1080p) / 102.75 ГБ102.75 GBХоббит: Трилогия / The Hobbit: Trilogy (2012/2013/2014) BDRip [H.264/720p]34.8 GBТолкин Джон Р. Р. - Хоббит, или туда и обратно. Трилогия «Властелин колец» [Гришина Анна, Стабуров Роман, Ярмолинец Семён, 2004, 256 кбит/с]3.71 GB(Score) Хоббит. Трилогия / The Hobbit. Trilogy - Special Edition (by Howard Shore) - 2012-2014 г., MP3 (tracks) 320 kbps855.1 MBХоббит: Трилогия / The Hobbit: Trilogy (Питер Джексон / Peter Jackson) [2012-2014 г., фэнтези, приключения, BDRip-AVC] Dub (Rus, Ukr) + Original (Eng) + Subs13.36 GBХоббит (Режиссерская версия) (Трилогия) / The Hobbit (Director's Cut) (Trilogy) / 2012-2014 / ДБ, АП (Сербин, Горчаков), СТ / BDRip (720p) / 31.25 ГБ31.25 GBДжон Толкиен | Хоббит; Трилогия Властелин колец (Хранители, Две башни, Возвращение короля) [2004]2.22 GBХоббит (Трилогия) Расширенные версии_2012-2014 / The Hobbit: Trilogy / ДБ, СТ / 3 x DVD-9 / 23.81 ГБ23.81 GBХоббит (Трилогия) / The Hobbit: Trilogy / 2012-2014 / ДБ, СТ / 3D (HSBS) / BDRip (1080p) / 52.84 ГБ52.84 GBХоббит (Трилогия) / The Hobbit: Trilogy / 2012-2014 / ДБ, СТ / BDRip (AVC) / 13.36 ГБ13.36 GBТерминатор (трилогия) в переводе "Держиморда Филмс" (Хоббит) (2010) DVDRip5.47 GBТолкин Джон Р.Р. Властелин колец(Трилогия) + Хоббит (English)756.2 MBХоббит: Трилогия / The Hobbit: Trilogy (Питер Джексон / Peter Jackson) [2012-2014, фэнтези, приключения, AC3, NTSC] [Extended Cut / Расширенная версия] Dub (Ukr / вставки Original) + Sub (Ukr)1.67 GBХоббит (Режиссерская версия) (Трилогия) / The Hobbit (Director's Cut) (Trilogy) / 2012-2014 / ДБ, АП (Сербин), СТ / BDRip (720p) / 34.77 ГБ34.77 GBХоббит (Трилогия) / The Hobbit: Trilogy / 2012-2014 / ДБ, АП (Сербин), СТ / 3D (HOU) / BDRip (1080p) / 41.6 ГБ41.6 GBХоббит: Трилогия / The Hobbit: Trilogy (2012-2014) BDRip | Лицензия9.76 GBХоббит: Трилогия / The Hobbit: Trilogy (2012-2014) HDRip от Kaztorrents | КПК | Extended Cut | Лицензия2.72 GBХоббит: Трилогия / The Hobbit: Trilogy (2012-2014) BDRip 720p от HELLYWOOD | Расширенная версия | D, P, A32.9 GB tparser.org – торрент поисковик по популярным торрент трекерам. Находить и скачивать новинки кино в HDRip и BDRip качестве через tparser намного проще! Добро пожаловать на крупный торрент архив фильмов и игр tparser.org. Вам больше не придется искать торренты на основных торрент трекерах в поисках нужной раздачи – мы предлагаем найти и скачать фильмы в хорошем качестве прямо на нашем сайте. Наш сервис поиска торрентов в реальном времени собирает информацию с крупных торрент трекеров и сортирует полученные результаты в удобную таблицу. Скачивайте торренты без ограничений и без всяких регистраций на трекерах. Начните скачивать торрент Хоббит Трилогия прямо сейчас!

tparser.org

Хоббит 1, 2, 3 [Трилогия] [Расширенная версия] / The Hobbit Part I, II, III (2012-2014) BDRip » ALLBESTA.CC

Мартин Фриман, Эванджелин Лилли, Кейт Бланшетт, Элайджа Вуд, Хьюго Уивинг, Кристофер Ли, Иэн МакКеллен, Ричард Армитедж, Орландо Блум, Люк Эванс, Бенедикт Камбербэтч, Кен Стотт и др.

О фильме: «Хоббит» — поставленная режиссёром Питером Джексоном серия из трёх связанных единым сюжетом кинофильмов, представляющая собой экранизацию повести Дж. Р. Р. Толкина «Хоббит, или Туда и обратно». Фильмы являются вольной экранизацией повести Толкина «Хоббит, или Туда и обратно». Они рассказывают нам о приключениях хоббита Бильбо Бэггинса и тринадцати гномов по пути к Одинокой горе, а также являются приквелом к кинотрилогии «Властелин колец».

Страна: США, Новая Зеландия Студия: Metro-Goldwyn-Mayer (MGM), New Line Cinema, WingNut Films, 3Foot7Продолжительность: 03:02:31, 03:06:35, 02:24:28Перевод: Дублированный

ФайлКодек: AVI, XviD, AC3 Качество: BDRipВидео: 720x304 (2.37:1), 23.976 fps, XviD build 65 ~1254 kbps avg, 0.24 bit/pixel Звук: 48 kHz, AC3 Dolby Digital, 3/2 (L,C,R,l,r) + LFE ch, ~448 kbpsСубтитры: русские (на речь орков и эльфов) (вшитые)

[/spoiler] «Последнее путешествие в Средиземье»

Хоббит: Нежданное путешествие [Расширенная версия] / The Hobbit: An Unexpected Journey

Хоббит 1, 2, 3 [Трилогия] [Расширенная версия] / The Hobbit: Part I, II, III Перевод: Профессиональный (полное дублирование) [Лицензия]

Cубтитры: русские (на речь орков и эльфов) (вшитые)

Формат: BDRip, AVI, XviD, AC3

Страна: США, Новая Зеландия

Режиссер: Питер Джексон

Жанр: фэнтези, приключения

Продолжительность: 03:02:30

Год выпуска: 2012

В ролях: Мартин Фриман, Иэн МакКеллен, Ричард Армитэдж, Джеймс Несбитт, Кен Стотт, Грэм МакТавиш, Уильям Кирчер, Стивен Хантер, Дин О’Горман, Эйдан Тернер, Джон Коллен, Питер Хэмблтон

Описание: Фильм повествует о путешествии Бильбо Бэггинса, который пускается в грандиозный поход, целью которого является отвоевание утраченного королевства гномов Эребор у зловещего дракона Смога. Совершенно неожиданно с хоббитом налаживает контакт волшебник Гэндальф Серый. Так Бильбо находит себя, присоединяясь к компании тринадцати гномов, возглавляемых легендарным воином, Торином Дубощитом. Их путешествие проляжет через Дикий Край, через предательские земли, населенные гоблинами и орками, смертоносными варгами и гигантскими пауками, народом, меняющим шкуры, и волшебниками.

И хотя их цель находится на Востоке среди пустошей Одинокой Горы, сначала им придется выбраться из туннелей гоблинов, где Бильбо встретит существо, которое изменит его жизнь навсегда… Голлума.

Здесь, один на один с Голлумом, на берегу подземного озера, непритязательный Бильбо Бэггинс обнаружит не только скрытые в глубине души хитрость и отвагу, которые удивят даже его, но и завладеет «прелестным» колечком Голлума, которое обладает нежданными и полезными свойствами… Простое золотое кольцо, c которым связана судьба всего Средиземья, нитями, о которых Бильбо не мог даже вообразить.

Видео: 720x304 (2.37:1), 23.976 fps, XviD build 65 ~1254 kbps avg, 0.24 bit/pixel Аудио: 48 kHz, AC3 Dolby Digital, 3/2 (L,C,R,l,r) + LFE ch, ~448 kbps ========================================================================== Хоббит Хоббит: Пустошь Смауга [Расширенная версия] / The Hobbit: The Desolation of Smaug

Хоббит 1, 2, 3 [Трилогия] [Расширенная версия] / The Hobbit: Part I, II, III Перевод: Профессиональный (полное дублирование) [Лицензия]

Субтитры: русские (на речь орков и эльфов) (вшитые)

Формат: BDRip, AVI, XviD, AC3

Страна: США, Новая Зеландия

Режиссер: Питер Джексон

Жанр: фэнтези, приключения

Продолжительность: 03:06:34

Год выпуска: 2013

В ролях: Мартин Фриман, Иэн МакКеллен, Эванджелин Лилли, Ричард Армитедж, Кейт Бланшетт, Бенедикт Камбербэтч, Люк Эванс, Орландо Блум, Джеймс Несбитт, Кен Стотт, Грэм МакТавиш

Описание: Продолжение путешествия хоббита Бильбо Бэггинса, волшебника Гэндальфа и 13 отважных гномов. Их компания обязана завершить своё путешествие к Одинокой горе. Там они должны встретиться с величайшей опасностью из всех — созданием куда более ужасающим, чем все их прошлые противники, которое проверит на прочность не только их мужество, но крепость их дружбы и правильность выбранного пути, — драконом Смаугом.

Видео: 720x304 (2.37:1), 23.976 fps, XviD build 65 ~1280 kbps avg, 0.24 bit/pixel Аудио: 48 kHz, AC3 Dolby Digital, 3/2 (L,C,R,l,r) + LFE ch, ~384 kbps ============================================================================ Хоббит Хоббит: Битва пяти воинств / The Hobbit: The Battle of the Five Armies

Хоббит 1, 2, 3 [Трилогия] [Расширенная версия] / The Hobbit: Part I, II, III Перевод: Профессиональный (полное дублирование) [Лицензия]

Субтитры: русские (на речь орков и эльфов) (вшитые)

Формат: BDRip, AVI, XviD, AC3

Страна: Новая Зеландия, США

Режиссер: Питер Джексон

Жанр: фэнтези, приключения

Продолжительность: 02:24:28

Год выпуска: 2014

В ролях: Мартин Фриман, Эванджелин Лилли, Иэн МакКеллен, Ричард Армитедж, Люк Эванс, Ли Пейс, Орландо Блум, Бенедикт Камбербэтч, Кен Стотт, Эйдан Тернер

Описание: Когда отряд из тринадцати гномов нанимал хоббита Бильбо Бэгинса в качестве взломщика и четырнадцатого, «счастливого», участника похода к Одинокой горе, Бильбо полагал, что его приключения закончатся, когда он выполнит свою задачу — найдет сокровище, которое так необходимо предводителю гномов Торину. Путешествие в Эребор, захваченное драконом Смаугом королевство гномов, оказалось еще более опасным, чем предполагали гномы и даже Гэндальф — мудрый волшебник, протянувший Торину и его отряду руку помощи.

В погоню за гномами устремилась армия орков, ведомых пробудившимся в руинах древним злом, а эльфы и люди, с которыми Бильбо и его товарищам пришлось иметь дело во время путешествия и которые пострадали от последствий желания гномов вернуть свой дом, предъявили права на щедрое вознаграждение — часть сокровищ Одинокой горы. Скоро неподалеку от Одинокой горы встретятся пять армий, и лишь кровопролитная битва определит результаты смелого гномьего похода. [spoiler]

allbesta.cc

rutor.org :: Хоббит: Трилогия / The Hobbit: Trilogy (2012-2014) BDRip 1080p от HDReactor

main-rutor.org

О трилогии: С чего началось то, что навсегда изменило мир? С потери гномьим народом своего родного дома и горячего желания его вернуть, пронесенного даже сквозь года! А причем же здесь хоббит Бильбо Бэггинс? Ведь он не гном и с домом у него все в порядке - кладовые полны припасов, а шкафчики - маминой посуды! Почему волшебник Гэндальф выбрал именно его в спутники тринадцати гномам под предводительством легендарного воина Торина Дубощита? Что же на самом деле так глубоко спрятано в этом полурослике, и поможет ли это отважным гномам обрести то, ради чего они не раз будут готовы встречаться со смертью?

Хоббит: Нежданное путешествие

Название: Хоббит: Нежданное путешествиеОригинальное название: The Hobbit: An Unexpected JourneyГод выпуска: 2012Страна: США, Новая ЗеландияЖанр: фэнтези, приключенияПродолжительность: 03:02:31Перевод: ДубляжРежиссер: Питер Джексон / Peter JacksonВ ролях: Мартин Фриман (Bilbo), Иэн МакКеллен (Gandalf), Ричард Армитедж (Thorin), Джеймс Несбитт (Bofur), Кен Стотт (Balin), Грэм МакТавиш (Dwalin), Дин О’Горман (Fili), Эйдан Тернер (Kili), Стивен Хантер (Bombur), Сильвестр МакКой (Radagast), Джед Брофи (Nori), Марк Хэдлоу (Dori / Bert Troll)

Описание: Фильм повествует о путешествии Бильбо Бэггинса, который пускается в грандиозный поход, целью которого является отвоевание утраченного королевства гномов Эребор у зловещего дракона Смауга. Совершенно неожиданно с хоббитом налаживает контакт волшебник Гэндальф Серый. Так Бильбо находит себя, присоединяясь к компании тринадцати гномов, возглавляемых легендарным воином, Торином Дубощитом. Их путешествие проляжет через Дикий Край, через предательские земли, населенные гоблинами и орками, смертоносными варгами и гигантскими пауками, народом, меняющим шкуры, и волшебниками. И хотя их цель находится на Востоке, среди пустошей Одинокой Горы, сначала им придется выбраться из туннелей гоблинов, где Бильбо встретит существо, которое изменит его жизнь навсегда... Голлума. Здесь, один на один с Голлумом, на берегу подземного озера, непритязательный Бильбо Бэггинс обнаружит не только скрытые в глубине души хитрость и отвагу, которые удивят даже его, но и завладеет «прелестным» колечком Голлума, которое обладает нежданными и полезными свойствами... Простое золотое кольцо, c которым связана судьба всего Средиземья, нитями, о которых Бильбо не мог даже вообразить.

Качество: BDRip (1080p)Видео: MPEG-4 AVC, 9206 Кбит/с, 1920x800Аудио #1: Русский (AC3, 6 ch, 448 Кбит/с)Аудио #2: Английский (AC3, 6 ch, 640 Кбит/с)Субтитры: русские (Форсированные), русские (Полные)

МедиаИнфо

Формат : Matroska Версия формата : Version 2 Размер файла : 11,7 Гбайт Продолжительность : 3 ч. 2 м. Общий поток : 9206 Кбит/сек Название фильма : ~V ad~ Дата кодирования : UTC 2013-11-11 06:04:22 Программа кодирования : mkvmerge v6.5.0 ('Isn't she lovely') built on Oct 20 2013 12:50:05 Библиотека кодирования : libebml v1.3.0 + libmatroska v1.4.1

Видео Идентификатор : 1 Формат : AVC Формат/Информация : Advanced Video Codec Профиль формата : [email protected] Параметр CABAC формата : Да Параметр ReFrames формата : 5 кадров Идентификатор кодека : V_MPEG4/ISO/AVC Продолжительность : 3 ч. 2 м. Битрейт : 8119 Кбит/сек Ширина : 1920 пикселей Высота : 800 пикселей Соотношение сторон : 2,40:1 Режим частоты кадров : Постоянный Частота кадров : 23,976 кадра/сек Цветовое пространство : YUV Субдискретизация насыщенности : 4:2:0 Битовая глубина : 8 бит Тип развёртки : Прогрессивная Бит/(Пиксели*Кадры) : 0.220 Размер потока : 10,1 Гбайт (86%) Заголовок : ~V~ Библиотека кодирования : x264 core 138 r2359+704+48 3f879a0 tMod [[email protected] X86_64] Настройки программы : cabac=1 / ref=5 / deblock=1:-3:-3 / analyse=0x3:0x133 / me=umh / subme=11 / psy=1 / fade_compensate=0.00 / psy_rd=1.00:0.00 / mixed_ref=1 / me_range=32 / chroma_me=1 / trellis=2 / 8x8dct=1 / cqm=0 / deadzone=21,11 / fast_pskip=0 / chroma_qp_offset=-2 / threads=12 / lookahead_threads=1 / sliced_threads=0 / nr=0 / decimate=0 / interlaced=0 / bluray_compat=0 / constrained_intra=0 / fgo=0 / bframes=9 / b_pyramid=2 / b_adapt=2 / b_bias=0 / direct=3 / weightb=1 / open_gop=0 / weightp=2 / keyint=240 / keyint_min=23 / scenecut=40 / intra_refresh=0 / rc=2pass / mbtree=0 / bitrate=8119 / ratetol=1.0 / qcomp=0.60 / qpmin=0:0:0 / qpmax=69:69:69 / qpstep=4 / cplxblur=20.0 / qblur=0.5 / ip_ratio=1.40 / pb_ratio=1.30 / aq=2:0.80 / aq-sensitivity=10.00 / aq-factor=1.00:1.00:1.00 / aq2=0 / aq3=0 Язык : English Default : Да Forced : Нет

Аудио #1 Идентификатор : 2 Формат : AC-3 Формат/Информация : Audio Coding 3 Расширение режима : CM (complete main) Параметр Endianness формата : Big Идентификатор кодека : A_AC3 Продолжительность : 3 ч. 2 м. Вид битрейта : Постоянный Битрейт : 448 Кбит/сек Каналы : 6 каналов Расположение каналов : Front: L C R, Side: L R, LFE Частота : 48,0 КГц Битовая глубина : 16 бит Метод сжатия : С потерями Размер потока : 585 Мбайт (5%) Заголовок : AC3.448Kbps (6ch) Russian (Дубляж) Язык : Russian Default : Да Forced : Нет

Аудио #2 Идентификатор : 3 Формат : AC-3 Формат/Информация : Audio Coding 3 Расширение режима : CM (complete main) Параметр Endianness формата : Big Идентификатор кодека : A_AC3 Продолжительность : 3 ч. 2 м. Вид битрейта : Постоянный Битрейт : 640 Кбит/сек Каналы : 6 каналов Расположение каналов : Front: L C R, Side: L R, LFE Частота : 48,0 КГц Битовая глубина : 16 бит Метод сжатия : С потерями Размер потока : 836 Мбайт (7%) Заголовок : AC3.640Kbps (6ch) English Язык : English Default : Нет Forced : Нет

Текст #1 Идентификатор : 4 Формат : UTF-8 Идентификатор кодека : S_TEXT/UTF8 Идентификатор кодека/Информация : UTF-8 Plain Text Заголовок : Russian (Full) Язык : Russian Default : Нет Forced : Нет

Текст #2 Идентификатор : 5 Формат : UTF-8 Идентификатор кодека : S_TEXT/UTF8 Идентификатор кодека/Информация : UTF-8 Plain Text Заголовок : Russian (Forced) Язык : Russian Default : Да Forced : Нет

Меню 00:00:00.000 : en:Prologue: The Fall of Erebor 00:10:11.903 : en:"In a Hole in the Ground There Lived a Hobbit" 00:14:08.723 : en:Very Old Friends 00:17:27.255 : en:Mr. Baggins 00:18:44.623 : en:An Unexpected Party 00:23:16.604 : en:"Blunt the Knives" 00:27:59.469 : en:A Map, A Key and A Contract 00:36:04.871 : en:"Misty Mountains" 00:41:17.266 : en:"...The World Ahead" 00:46:30.830 : en:The Battle of Azanulbizar 00:53:04.181 : en:Radagast the Brown 00:58:07.651 : en:Trollshaws 00:59:55.300 : en:Roast Mutton 01:10:42.405 : en:A Troll-hoard 01:15:01.831 : en:The Hill of Sorcery 01:18:52.811 : en:Warg-scouts 01:24:56.925 : en:Rivendell 01:30:34.429 : en:A Short Rest 01:34:10.603 : en:Moon Runes 01:37:24.464 : en:The Defiler 01:39:03.479 : en:The Last Homely House 01:41:40.803 : en:The White Council 01:50:22.533 : en:"Why the Halfling?" 01:52:59.773 : en:Over Hill 01:59:06.348 : en:Under Hill 02:03:57.513 : en:The Great Goblin 02:09:51.575 : en:Riddles in the Dark 02:23:21.426 : en:Biter and Beater 02:25:18.877 : en:The Ring 02:26:31.199 : en:Escape from Goblin Town 02:30:52.919 : en:The Pity of Bilbo 02:33:00.546 : en:"Home is Behind..." 02:35:52.593 : en:Out of the Frying Pan... 02:46:51.210 : en:A Good Omen 02:52:21.373 : en:Credits

х264

x264 [info]: frame I:2071 Avg QP:15.40 size:196134 x264 [info]: frame P:65255 Avg QP:18.40 size: 81270 x264 [info]: frame B:195221 Avg QP:20.22 size: 27666

Хоббит: Пустошь Смауга

Название: Хоббит: Пустошь СмаугаОригинальное название: The Hobbit: The Desolation of SmaugГод выпуска: 2013Страна: США, Новая ЗеландияЖанр: фэнтези, приключенияПродолжительность: 03:06:35Перевод: ДубляжРежиссер: Питер Джексон / Peter JacksonВ ролях: Мартин Фриман (Bilbo), Ричард Армитедж (Thorin), Иэн МакКеллен (Gandalf), Эванджелин Лилли (Tauriel), Орландо Блум (Legolas), Люк Эванс (Bard / Girion), Бенедикт Камбербэтч (Smaug / Necromancer, озвучка), Ли Пейс (Thranduil), Кен Стотт (Balin), Эйдан Тернер (Kili), Грэм МакТавиш (Dwalin), Джеймс Несбитт (Bofur)

Описание: Продолжение путешествия хоббита Бильбо Бэггинса, волшебника Гэндальфа и 13 отважных гномов. Их компания обязана завершить своё путешествие к Одинокой горе. Там они должны встретиться с величайшей опасностью из всех - созданием куда более ужасающим, чем все их прошлые противники, которое проверит на прочность не только их мужество, но крепость их дружбы и правильность выбранного пути, - драконом Смаугом.

Качество: BDRip (1080p)Видео: MPEG-4 AVC, 7764 Кбит/с, 1920x800Аудио #1: Русский (AC3, 6 ch, 4480 Кбит/с)Аудио #2: Английский (AC3, 6 ch, 640 Кбит/с)Субтитры: русские (Форсированные), русские (Полные)

МедиаИнфо

Формат : Matroska Версия формата : Version 2 Размер файла : 11,5 Гбайт Продолжительность : 3 ч. 6 м. Общий поток : 8853 Кбит/сек Название фильма : ~V ad~ Дата кодирования : UTC 2014-11-08 01:59:07 Программа кодирования : mkvmerge v6.1.0 ('Old Devil') built on Mar 4 2013 09:10:42 Библиотека кодирования : libebml v1.3.0 + libmatroska v1.4.0

Видео Идентификатор : 1 Формат : AVC Формат/Информация : Advanced Video Codec Профиль формата : [email protected] Параметр CABAC формата : Да Параметр ReFrames формата : 5 кадров Идентификатор кодека : V_MPEG4/ISO/AVC Продолжительность : 3 ч. 6 м. Битрейт : 7764 Кбит/сек Ширина : 1920 пикселей Высота : 800 пикселей Соотношение сторон : 2,40:1 Режим частоты кадров : Постоянный Частота кадров : 23,976 кадра/сек Цветовое пространство : YUV Субдискретизация насыщенности : 4:2:0 Битовая глубина : 8 бит Тип развёртки : Прогрессивная Бит/(Пиксели*Кадры) : 0.211 Размер потока : 9,89 Гбайт (86%) Заголовок : ~V~ Библиотека кодирования : x264 core 142 r2409+42 04be48a tMod [[email protected] X86_64] Настройки программы : cabac=1 / ref=5 / deblock=1:-3:-3 / analyse=0x3:0x133 / me=umh / subme=11 / psy=1 / fade_compensate=0.00 / psy_rd=1.00:0.00 / mixed_ref=1 / me_range=32 / chroma_me=1 / trellis=2 / 8x8dct=1 / cqm=0 / deadzone=21,11 / fast_pskip=0 / chroma_qp_offset=-2 / threads=12 / lookahead_threads=1 / sliced_threads=0 / nr=0 / decimate=0 / interlaced=0 / bluray_compat=0 / constrained_intra=0 / fgo=0 / bframes=9 / b_pyramid=2 / b_adapt=2 / b_bias=0 / direct=3 / weightb=1 / open_gop=0 / weightp=2 / keyint=240 / keyint_min=23 / scenecut=40 / intra_refresh=0 / rc=2pass / mbtree=0 / bitrate=7764 / ratetol=1.0 / qcomp=0.60 / qpmin=0:0:0 / qpmax=69:69:69 / qpstep=4 / cplxblur=20.0 / qblur=0.5 / ip_ratio=1.40 / pb_ratio=1.30 / aq=4:0.80 / aq-sensitivity=11.00 / aq-factor=1.00:1.00:1.00 / aq2=1:0.70 / aq2-sensitivity=10.00 / aq2-factor=1.00:1.00:1.00 / aq3=1:[0.60:0.60]:[0.60:0.60]:[0.60:0.60]:[0.60:0.60] / aq3-sensitivity=9.00 / aq3-factor=[1.00:1.00]:[1.00:1.00]:[1.00:1.00] / aq3-boundary=192:64:24 Язык : English Default : Да Forced : Нет

Аудио #1 Идентификатор : 2 Формат : AC-3 Формат/Информация : Audio Coding 3 Расширение режима : CM (complete main) Параметр Endianness формата : Big Идентификатор кодека : A_AC3 Продолжительность : 3 ч. 6 м. Вид битрейта : Постоянный Битрейт : 448 Кбит/сек Каналы : 6 каналов Расположение каналов : Front: L C R, Side: L R, LFE Частота : 48,0 КГц Битовая глубина : 16 бит Метод сжатия : С потерями Размер потока : 598 Мбайт (5%) Заголовок : AC3.448Kbps (6ch) Russian (Дубляж) Язык : Russian Default : Да Forced : Нет

Аудио #2 Идентификатор : 3 Формат : AC-3 Формат/Информация : Audio Coding 3 Расширение режима : CM (complete main) Параметр Endianness формата : Big Идентификатор кодека : A_AC3 Продолжительность : 3 ч. 6 м. Вид битрейта : Постоянный Битрейт : 640 Кбит/сек Каналы : 6 каналов Расположение каналов : Front: L C R, Side: L R, LFE Частота : 48,0 КГц Битовая глубина : 16 бит Метод сжатия : С потерями Размер потока : 854 Мбайт (7%) Заголовок : AC3.640Kbps (6ch) English Язык : English Default : Нет Forced : Нет

Текст #1 Идентификатор : 4 Формат : UTF-8 Идентификатор кодека : S_TEXT/UTF8 Идентификатор кодека/Информация : UTF-8 Plain Text Заголовок : Russian (Full) Язык : Russian Default : Нет Forced : Нет

Текст #2 Идентификатор : 5 Формат : UTF-8 Идентификатор кодека : S_TEXT/UTF8 Идентификатор кодека/Информация : UTF-8 Plain Text Заголовок : Russian (Forced) Язык : Russian Default : Да Forced : Нет

Меню 00:00:00.000 : en:The Quest for Erebor** 00:07:33.411 : en:Wilderland 00:12:00.302 : en:The Master Summons 00:12:59.445 : en:A Commander of Legions 00:15:55.371 : en:Queer Lodgings* 00:20:56.922 : en:Last of the Skin-changers 00:23:15.435 : en:Where the Shadows Lie* 00:25:52.676 : en:The Elven-gate** 00:29:59.255 : en:Mirkwood** 00:38:14.041 : en:Flies and Spiders 00:46:43.842 : en:The Woodland Realm 00:49:46.316 : en:The Elvenking 00:53:19.529 : en:King and Captain 00:55:10.223 : en:Feast of Starlight 00:58:07.859 : en:Barrels Out of Bond 01:08:42.326 : en:The High Fells 01:12:22.338 : en:Bard the Bowman 01:15:45.707 : en:The Nature of Evil 01:19:10.162 : en:Smuggled Cargo 01:22:46.836 : en:Lake-town 01:25:09.687 : en:The Master of Lake-town** 01:28:07.740 : en:The World of Men** 01:31:15.553 : en:The Home of Bard 01:36:02.756 : en:"It Is Our Fight" 01:37:35.891 : en:The Prophecy** 01:40:35.404 : en:A Warm Welcome** 01:45:16.518 : en:The Parting of the Company** 01:48:44.476 : en:The Lonely Mountain** 01:50:31.750 : en:A Spell of Concealment** 01:52:36.541 : en:The Hidden Door 01:53:08.448 : en:Son of Thror* 01:59:16.357 : en:On the Doorstep 02:07:11.832 : en:Kingsfoil 02:07:39.109 : en:The Courage of Hobbits 02:09:22.671 : en:The Enemy Revealed** 02:12:48.585 : en:Inside Information 02:22:00.845 : en:The Black Arrow 02:22:43.429 : en:In the Dragon's Lair 02:23:17.922 : en:Under Arrest 02:24:56.396 : en:Bilbo the Burgler 02:26:45.087 : en:Smaug the Magnificent 02:29:18.824 : en:Orc Attach 02:33:12.975 : en:Confrontations 02:34:57.621 : en:Elvish Medicine 02:36:13.155 : en:Hunter and Hunted 02:37:45.956 : en:"She Walks In Starlight" 02:39:08.830 : en:A Desperate Plan 02:41:39.940 : en:Duel in Lake-town 02:44:06.002 : en:The Forges Relit 02:51:16.683 : en:Smaug the Golden 02:56:05.555 : en:Credits

х264

x264 [info]: frame I:2289 Avg QP:15.47 size:176178 x264 [info]: frame P:64527 Avg QP:17.62 size: 73598 x264 [info]: frame B:201593 Avg QP:18.30 size: 28331

Хоббит: Битва пяти воинств

Название: Хоббит: Битва пяти воинствОригинальное название: The Hobbit: The Battle of the Five ArmiesГод выпуска: 2014Страна: Новая Зеландия, СШАЖанр: фэнтези, приключенияПродолжительность: 02:44:03Перевод: ДубляжРежиссер: Питер Джексон / Peter JacksonВ ролях: Мартин Фриман (Bilbo Baggins), Иэн МакКеллен (Gandalf), Ричард Армитедж (Thorin), Люк Эванс (Bard), Эванджелин Лилли (Tauriel), Ли Пейс (Thranduil), Орландо Блум (Legolas), Бенедикт Камбербэтч (Smaug / Necromancer, озвучка), Кен Стотт (Balin), Эйдан Тернер (Kili), Грэм МакТавиш (Dwalin), Уильям Кирчер (Bifur)

Описание: Когда отряд из тринадцати гномов нанимал хоббита Бильбо Бэгинса в качестве взломщика и четырнадцатого, «счастливого», участника похода к Одинокой горе, Бильбо полагал, что его приключения закончатся, когда он выполнит свою задачу - найдет сокровище, которое так необходимо предводителю гномов Торину. Путешествие в Эребор, захваченное драконом Смаугом королевство гномов, оказалось еще более опасным, чем предполагали гномы и даже Гэндальф - мудрый волшебник, протянувший Торину и его отряду руку помощи. В погоню за гномами устремилась армия орков, ведомых пробудившимся в руинах древним злом, а эльфы и люди, с которыми Бильбо и его товарищам пришлось иметь дело во время путешествия и которые пострадали от последствий желания гномов вернуть свой дом, предъявили права на щедрое вознаграждение - часть сокровищ Одинокой горы. Скоро неподалеку от Одинокой горы встретятся пять армий, и лишь кровопролитная битва определит результаты смелого гномьего похода.

Качество: BDRip (1080p)Видео: MPEG-4 AVC, 9074 Кбит/с, 1920x800Аудио #1: Русский (AC3, 6 ch, 384 Кбит/с)Аудио #2: Английский (AC3, 6 ch, 640 Кбит/с)Субтитры: русские (Форсированные), русские (Полные)

МедиаИнфо

Формат : Matroska Версия формата : Version 2 Размер файла : 11,6 Гбайт Продолжительность : 2 ч. 44 м. Общий поток : 10,1 Мбит/сек Название фильма : ~V ad~ Дата кодирования : UTC 2015-11-14 16:22:16 Программа кодирования : mkvmerge v6.5.0 ('Isn't she lovely') built on Oct 20 2013 12:50:05 Библиотека кодирования : libebml v1.3.0 + libmatroska v1.4.1

Видео Идентификатор : 1 Формат : AVC Формат/Информация : Advanced Video Codec Профиль формата : [email protected] Параметр CABAC формата : Да Параметр ReFrames формата : 5 кадров Идентификатор кодека : V_MPEG4/ISO/AVC Продолжительность : 2 ч. 44 м. Битрейт : 9074 Кбит/сек Ширина : 1920 пикселей Высота : 800 пикселей Соотношение сторон : 2,40:1 Режим частоты кадров : Постоянный Частота кадров : 23,976 кадра/сек Цветовое пространство : YUV Субдискретизация насыщенности : 4:2:0 Битовая глубина : 8 бит Тип развёртки : Прогрессивная Бит/(Пиксели*Кадры) : 0.246 Размер потока : 10,2 Гбайт (88%) Заголовок : ~V~ Библиотека кодирования : x264 core 148 r2579+50 65f745f t_mod_Custom [[email protected] X86_64] Настройки программы : cabac=1 / ref=5 / deblock=1:-3:-3 / analyse=0x3:0x133 / me=umh / subme=11 / psy=1 / fade_compensate=0.00 / psy_rd=1.00:0.00 / mixed_ref=1 / me_range=32 / chroma_me=1 / trellis=2 / 8x8dct=1 / cqm=0 / deadzone=21,11 / fast_pskip=0 / chroma_qp_offset=-2 / threads=12 / lookahead_threads=1 / sliced_threads=0 / nr=0 / decimate=0 / interlaced=0 / bluray_compat=0 / constrained_intra=0 / fgo=0 / bframes=8 / b_pyramid=2 / b_adapt=2 / b_bias=0 / direct=3 / weightb=1 / open_gop=0 / weightp=2 / keyint=240 / keyint_min=23 / scenecut=40 / intra_refresh=0 / rc=2pass / mbtree=0 / bitrate=9074 / ratetol=1.0 / qcomp=0.60 / qpmin=0:0:0 / qpmax=69:69:69 / qpstep=4 / cplxblur=20.0 / qblur=0.5 / ip_ratio=1.40 / pb_ratio=1.30 / aq=3:0.90 / aq-sensitivity=11.00 / aq-factor=1.00:1.00:1.00 / aq2=1:0.60 / aq2-sensitivity=10.00 / aq2-factor=1.00:1.00:1.00 / aq3=1:[0.60:0.60]:[0.60:0.60]:[0.60:0.60]:[0.60:0.60] / aq3-sensitivity=9.00 / aq3-factor=[1.00:1.00]:[1.00:1.00]:[1.00:1.00] / aq3-boundary=192:64:24 Язык : English Default : Да Forced : Нет

Аудио #1 Идентификатор : 2 Формат : AC-3 Формат/Информация : Audio Coding 3 Расширение режима : CM (complete main) Параметр Endianness формата : Big Идентификатор кодека : A_AC3 Продолжительность : 2 ч. 44 м. Вид битрейта : Постоянный Битрейт : 384 Кбит/сек Каналы : 6 каналов Расположение каналов : Front: L C R, Side: L R, LFE Частота : 48,0 КГц Метод сжатия : С потерями Задержка видео : 1 с. 0 мс. Размер потока : 451 Мбайт (4%) Заголовок : AC3.384Kbps (6ch) Russian (Дубляж) Язык : Russian Default : Да Forced : Нет

Аудио #2 Идентификатор : 3 Формат : AC-3 Формат/Информация : Audio Coding 3 Расширение режима : CM (complete main) Параметр Endianness формата : Big Идентификатор кодека : A_AC3 Продолжительность : 2 ч. 44 м. Вид битрейта : Постоянный Битрейт : 640 Кбит/сек Каналы : 6 каналов Расположение каналов : Front: L C R, Side: L R, LFE Частота : 48,0 КГц Метод сжатия : С потерями Размер потока : 751 Мбайт (6%) Заголовок : AC3.640Kbps (6ch) English Язык : English Default : Нет Forced : Нет

Текст #1 Идентификатор : 4 Формат : UTF-8 Идентификатор кодека : S_TEXT/UTF8 Идентификатор кодека/Информация : UTF-8 Plain Text Заголовок : Russian (Full) Язык : Russian Default : Нет Forced : Нет

Текст #2 Идентификатор : 5 Формат : UTF-8 Идентификатор кодека : S_TEXT/UTF8 Идентификатор кодека/Информация : UTF-8 Plain Text Заголовок : Russian (Forced) Язык : Russian Default : Да Forced : Нет

Меню 00:00:00.000 : en:Chapter 01 00:05:12.061 : en:Chapter 02 00:12:47.016 : en:Chapter 03 00:13:18.964 : en:Chapter 04 00:18:57.219 : en:Chapter 05 00:23:42.003 : en:Chapter 06 00:24:56.119 : en:Chapter 07 00:26:04.354 : en:Chapter 08 00:27:32.984 : en:Chapter 09 00:35:45.351 : en:Chapter 10 00:36:41.073 : en:Chapter 11 00:40:41.856 : en:Chapter 12 00:42:01.101 : en:Chapter 13 00:43:11.714 : en:Chapter 14 00:46:15.981 : en:Chapter 15 00:51:27.584 : en:Chapter 16 00:54:57.752 : en:Chapter 17 00:56:14.496 : en:Chapter 18 00:58:31.257 : en:Chapter 19 01:00:26.664 : en:Chapter 20 01:02:43.217 : en:Chapter 21 01:06:10.007 : en:Chapter 22 01:12:23.047 : en:Chapter 23 01:17:22.512 : en:Chapter 24 01:20:36.289 : en:Chapter 25 01:24:57.175 : en:Chapter 26 01:28:41.649 : en:Chapter 27 01:30:52.238 : en:Chapter 28 01:33:01.909 : en:Chapter 29 01:35:12.790 : en:Chapter 30 01:38:32.448 : en:Chapter 31 01:39:42.851 : en:Chapter 32 01:41:00.554 : en:Chapter 33 01:45:03.338 : en:Chapter 34 01:47:13.260 : en:Chapter 35 01:49:05.038 : en:Chapter 36 01:50:02.762 : en:Chapter 37 01:52:59.564 : en:Chapter 38 01:53:51.241 : en:Chapter 39 01:57:15.028 : en:Chapter 40 02:05:38.447 : en:Chapter 41 02:12:06.668 : en:Chapter 42 02:15:26.201 : en:Chapter 43 02:18:32.429 : en:Chapter 44 02:20:07.357 : en:Chapter 45 02:22:26.871 : en:Chapter 46 02:26:11.512 : en:Chapter 47 02:30:54.420 : en:Chapter 48

х264

x264 [info]: frame I:2005 Avg QP:16.32 size:201077 x264 [info]: frame P:65167 Avg QP:18.20 size: 83132 x264 [info]: frame B:168813 Avg QP:19.79 size: 31790

Релиз от:

rutor.org :: Хоббит: Трилогия / The Hobbit: Trilogy (2012-2014) BDRip 720p | D, А

main-rutor.org

Хоббит: Нежданное путешествие / The Hobbit: An Unexpected Journey / 2012

Хоббит: Нежданное путешествие / The Hobbit: An Unexpected Journey

Страна: США Новая Зеландия Производство: Metro-Goldwyn-Mayer (MGM), New Line Cinema, WingNut FilmsГод выпуска: 2012Жанр: фэнтези, приключенияПродолжительность: 03:02:32

Режиссер: Питер ДжексонАвторы сценария: Фрэнсис Уолш, Филиппа Бойенс, Питер Джексон

В ролях: Мартин Фриман, Иэн МакКеллен, Ричард Армитедж, Джеймс Несбитт, Кен Стотт, Грэм МакТавиш, Дин О’Горман, Эйдан Тернер

Описание: Фильм повествует о путешествии Бильбо Бэггинса, который пускается в грандиозный поход, целью которого является отвоевание утраченного королевства гномов Эребор у зловещего дракона Смауга. Совершенно неожиданно с хоббитом налаживает контакт волшебник Гэндальф Серый. Так Бильбо находит себя, присоединяясь к компании тринадцати гномов, возглавляемых легендарным воином, Торином Дубощитом. Их путешествие проляжет через Дикий Край, через предательские земли, населенные гоблинами и орками, смертоносными варгами и гигантскими пауками, народом, меняющим шкуры, и волшебниками. И хотя их цель находится на Востоке, среди пустошей Одинокой Горы, сначала им придется выбраться из туннелей гоблинов, где Бильбо встретит существо, которое изменит его жизнь навсегда… Голлума.

Здесь, один на один с Голлумом, на берегу подземного озера, непритязательный Бильбо Бэггинс обнаружит не только скрытые в глубине души хитрость и отвагу, которые удивят даже его, но и завладеет «прелестным» колечком Голлума, которое обладает нежданными и полезными свойствами… Простое золотое кольцо, c которым связана судьба всего Средиземья, нитями, о которых Бильбо не мог даже вообразить...

Перевод №1: Профессиональный (полное дублирование)Перевод №2: Авторский (одноголосый, закадровый) | Юрий СербинПеревод №3: Авторский (одноголосый, закадровый) | Василий ГорчаковПеревод №4: Украинский профессиональный (полное дублирование)Субтитры: русские (forced + full), украинские (forced + full), английские (forced + full + SDH)

Качество: BDRip 720pФормат: МКVВидео кодек: AVCАудио кодек: АС3Видео: 1280x534 (2.40:1), 23.976 fps, MPEG-4 AVC ~5 982 kbps avg, 0.365 bit/pixelАудио №1: 48.0 kHz, AC3 Dolby Digital, 3/2 (L,C,R,l,r) + LFE ch, ~640.00 kbps | DUBАудио №2: 48.0 kHz, AC3 Dolby Digital, 3/2 (L,C,R,l,r) + LFE ch, ~640 kbps | СербинАудио №3: 48.0 kHz, AC3 Dolby Digital, 3/2 (L,C,R,l,r) + LFE ch, ~640 kbps | ГорчаковАудио №4: 48.0 kHz, AC3 Dolby Digital, 3/2 (L,C,R,l,r) + LFE ch, ~448.00 kbps | UKRАудио №5: 48.0 kHz, AC3 Dolby Digital, 3/2 (L,C,R,l,r) + LFE ch, ~640.00 kbps | ENGФормат субтитров: UTF-8 Plain Text

Бюджет: $180 000 000Дата премьеры (мир): 28 ноября 2012Дата премьеры (РФ): 19 декабря 2012, «Каро-Премьер»релиз на DVD, Blu-Ray: 11 апреля 2013, «CP Дистрибуция»

Media Info 1

Общее Уникальный идентификатор : 171223432003718486380276225630706697614 (0x80D06EF90C4B8A52B0FBBDF2C651858E) Полное имя : Hobbit.Nezhdannoe.Puteshestvie.2012.EC.3xRus.Ukr.Eng.BDRip.720p.-HELLYWOOD.mkv Формат : Matroska Версия формата : Version 4 / Version 2 Размер файла : 11,7 Гбайт Длительность : 3 ч. 2 м. Общий поток : 9173 Кбит/сек Название фильма : The Hobbit: An Unexpected Journey (2012) [Extended Cut] Дата кодирования : UTC 2016-06-13 13:36:43 Программа кодирования : mkvmerge v5.9.0 ('On The Loose') built on Dec 15 2012 16:39:58 Библиотека кодирования : libebml v1.3.0 + libmatroska v1.4.0

Видео Идентификатор : 1 Формат : AVC Формат/Информация : Advanced Video Кодек Профиль формата : [email protected] Параметр CABAC формата : Да Параметр ReFrames формата : 12 кадров Идентификатор кодека : V_MPEG4/ISO/AVC Длительность : 3 ч. 2 м. Битрейт : 5982 Кбит/сек Ширина : 1280 пикселей Высота : 534 пикселя Соотношение сторон : 2,40:1 Режим частоты кадров : Постоянный Частота кадров : 23,976 (24000/1001) кадра/сек Цветовое пространство : YUV Субдискретизация насыщенности : 4:2:0 Битовая глубина : 8 бит Тип развёртки : Прогрессивная Бит/(Пиксели*Кадры) : 0.365 Размер потока : 7,63 Гбайт (65%) Заголовок : serokuz74 Библиотека кодирования : x264 core 146 r2538kMod 121396c Настройки программы : cabac=1 / ref=12 / deblock=1:-3:-3 / analyse=0x3:0x133 / me=tesa / subme=11 / psy=1 / fade_compensate=0.00 / psy_rd=1.10:0.00 / mixed_ref=1 / me_range=32 / chroma_me=1 / trellis=2 / 8x8dct=1 / cqm=0 / deadzone=21,11 / fast_pskip=0 / chroma_qp_offset=-2 / threads=12 / lookahead_threads=2 / sliced_threads=0 / nr=0 / decimate=1 / interlaced=0 / bluray_compat=0 / constrained_intra=0 / fgo=0 / bframes=9 / b_pyramid=2 / b_adapt=2 / b_bias=0 / direct=3 / weightb=1 / open_gop=0 / weightp=2 / keyint=250 / keyint_min=23 / scenecut=40 / intra_refresh=0 / rc_lookahead=60 / rc=crf / mbtree=0 / crf=16.0000 / qcomp=0.80 / qpmin=0 / qpmax=69 / qpstep=4 / vbv_maxrate=50000 / vbv_bufsize=62500 / crf_max=0.0 / nal_hrd=none / filler=0 / ip_ratio=1.40 / pb_ratio=1.30 / aq=1:0.85 Язык : English Default : Да Forced : Нет Цветовой диапазон : Limited Коэффициенты матрицы : BT.709

Аудио #1 Идентификатор : 2 Формат : AC-3 Формат/Информация : Audio Coding 3 Расширение режима : CM (complete main) Параметр Endianness формата : Big Идентификатор кодека : A_AC3 Длительность : 3 ч. 2 м. Вид битрейта : Постоянный Битрейт : 640 Кбит/сек Каналы : 6 каналов Расположение каналов : Front: L C R, Side: L R, LFE Частота : 48,0 КГц Частота кадров : 31,250 кадров/сек (1536 spf) Метод сжатия : С потерями Размер потока : 836 Мбайт (7%) Заголовок : Dub | DD 5.1 @ 640 kbps Язык : Russian Default : Да Forced : Да

Аудио #2 Идентификатор : 3 Формат : AC-3 Формат/Информация : Audio Coding 3 Расширение режима : CM (complete main) Параметр Endianness формата : Big Идентификатор кодека : A_AC3 Длительность : 3 ч. 2 м. Вид битрейта : Постоянный Битрейт : 640 Кбит/сек Каналы : 6 каналов Расположение каналов : Front: L C R, Side: L R, LFE Частота : 48,0 КГц Частота кадров : 31,250 кадров/сек (1536 spf) Метод сжатия : С потерями Размер потока : 836 Мбайт (7%) Заголовок : AVO | DD 5.1 @ 640 kbps - Yu.Serbin Язык : Russian Default : Нет Forced : Нет

Аудио #3 Идентификатор : 4 Формат : AC-3 Формат/Информация : Audio Coding 3 Расширение режима : CM (complete main) Параметр Endianness формата : Big Идентификатор кодека : A_AC3 Длительность : 3 ч. 2 м. Вид битрейта : Постоянный Битрейт : 640 Кбит/сек Каналы : 6 каналов Расположение каналов : Front: L C R, Side: L R, LFE Частота : 48,0 КГц Частота кадров : 31,250 кадров/сек (1536 spf) Метод сжатия : С потерями Размер потока : 836 Мбайт (7%) Заголовок : AVO | DD 5.1 @ 640 kbps - V.Gorchakov Язык : Russian Default : Нет Forced : Нет

Аудио #4 Идентификатор : 5 Формат : AC-3 Формат/Информация : Audio Coding 3 Расширение режима : CM (complete main) Параметр Endianness формата : Big Идентификатор кодека : A_AC3 Длительность : 3 ч. 2 м. Вид битрейта : Постоянный Битрейт : 448 Кбит/сек Каналы : 6 каналов Расположение каналов : Front: L C R, Side: L R, LFE Частота : 48,0 КГц Частота кадров : 31,250 кадров/сек (1536 spf) Метод сжатия : С потерями Размер потока : 585 Мбайт (5%) Заголовок : Dub | DD 5.1 @ 640 kbps - Blu-ray CEE Язык : Ukrainian Default : Нет Forced : Нет

Аудио #5 Идентификатор : 6 Формат : AC-3 Формат/Информация : Audio Coding 3 Расширение режима : CM (complete main) Параметр Endianness формата : Big Идентификатор кодека : A_AC3 Длительность : 3 ч. 2 м. Вид битрейта : Постоянный Битрейт : 640 Кбит/сек Каналы : 6 каналов Расположение каналов : Front: L C R, Side: L R, LFE Частота : 48,0 КГц Частота кадров : 31,250 кадров/сек (1536 spf) Метод сжатия : С потерями Размер потока : 836 Мбайт (7%) Заголовок : Original | DD 5.1 @ 640 kbps Язык : English Default : Нет Forced : Нет

Текст #1 Идентификатор : 7 Формат : UTF-8 Идентификатор кодека : S_TEXT/UTF8 Идентификатор кодека/Информация : UTF-8 Plain Text Заголовок : Forced Язык : Russian Default : Да Forced : Да

Текст #2 Идентификатор : 8 Формат : UTF-8 Идентификатор кодека : S_TEXT/UTF8 Идентификатор кодека/Информация : UTF-8 Plain Text Заголовок : Full Язык : Russian Default : Нет Forced : Нет

Текст #3 Идентификатор : 9 Формат : UTF-8 Идентификатор кодека : S_TEXT/UTF8 Идентификатор кодека/Информация : UTF-8 Plain Text Заголовок : Forced Язык : Ukrainian Default : Нет Forced : Нет

Текст #4 Идентификатор : 10 Формат : UTF-8 Идентификатор кодека : S_TEXT/UTF8 Идентификатор кодека/Информация : UTF-8 Plain Text Заголовок : Full Язык : Ukrainian Default : Нет Forced : Нет

Текст #5 Идентификатор : 11 Формат : UTF-8 Идентификатор кодека : S_TEXT/UTF8 Идентификатор кодека/Информация : UTF-8 Plain Text Заголовок : Forced Язык : English Default : Нет Forced : Нет

Текст #6 Идентификатор : 12 Формат : UTF-8 Идентификатор кодека : S_TEXT/UTF8 Идентификатор кодека/Информация : UTF-8 Plain Text Заголовок : Full Язык : English Default : Нет Forced : Нет

Текст #7 Идентификатор : 13 Формат : UTF-8 Идентификатор кодека : S_TEXT/UTF8 Идентификатор кодека/Информация : UTF-8 Plain Text Заголовок : SDH Язык : English Default : Нет Forced : Нет

Меню 00:00:00.000 : en:en:Prologue: The Fall of Erebor 00:10:11.902 : en:en:"In a Hole in the Ground There Lived a Hobbit" 00:14:08.721 : en:en:Very Old Friends 00:17:27.250 : en:en:Mr. Baggins 00:18:44.623 : en:en:An Unexpected Party 00:23:16.603 : en:en:"Blunt the Knives" 00:27:59.469 : en:en:A Map, A Key and A Contract 00:36:04.871 : en:en:"Misty Mountains" 00:41:17.266 : en:en:"...The World Ahead" 00:46:30.829 : en:en:The Battle of Azanulbizar 00:53:04.181 : en:en:Radagast the Brown 00:58:07.650 : en:en:Trollshaws 00:59:55.300 : en:en:Roast Mutton 01:10:42.404 : en:en:A Troll-hoard 01:15:01.828 : en:en:The Hill of Sorcery 01:18:52.810 : en:en:Warg-scouts 01:24:56.925 : en:en:Rivendell 01:30:34.429 : en:en:A Short Rest 01:34:10.603 : en:en:Moon Runes 01:37:24.462 : en:en:The Defiler 01:39:03.479 : en:en:The Last Homely House 01:41:40.801 : en:en:The White Council 01:50:22.532 : en:en:"Why the Halfling?" 01:52:59.773 : en:en:Over Hill 01:59:06.345 : en:en:Under Hill 02:03:57.511 : en:en:The Great Goblin 02:09:51.573 : en:en:Riddles in the Dark 02:23:21.424 : en:en:Biter and Beater 02:25:18.876 : en:en:The Ring 02:26:31.199 : en:en:Escape from Goblin Town 02:30:52.915 : en:en:The Pity of Bilbo 02:33:00.546 : en:en:"Home is Behind..." 02:35:52.593 : en:en:Out of the Frying Pan... 02:46:51.209 : en:en:A Good Omen 02:52:21.370 : en:en:Credits

Хоббит: Пустошь Смауга / The Hobbit: The Desolation of Smaug / 2013

Хоббит: Пустошь Смауга / The Hobbit: The Desolation of Smaug

Страна: США Новая Зеландия Производство: Metro-Goldwyn-Mayer (MGM), New Line Cinema, WingNut FilmsГод выпуска: 2013Жанр: фэнтези, приключенияПродолжительность: 03:06:37

Режиссер: Питер ДжексонАвторы сценария: Фрэнсис Уолш, Филиппа Бойенс, Питер Джексон

В ролях: Мартин Фриман, Ричард Армитедж, Иэн МакКеллен, Эванджелин Лилли, Орландо Блум, Люк Эванс, Бенедикт Камбербэтч, Ли Пейс, Кен Стотт

Описание: Продолжение путешествия хоббита Бильбо Бэггинса, волшебника Гэндальфа и 13 отважных гномов. Их компания обязана завершить своё путешествие к Одинокой горе. Там они должны встретиться с величайшей опасностью из всех — созданием куда более ужасающим, чем все их прошлые противники, которое проверит на прочность не только их мужество, но крепость их дружбы и правильность выбранного пути, — драконом Смаугом...

Перевод №1: Профессиональный (полное дублирование)Перевод №2: Авторский (одноголосый, закадровый) | Юрий СербинПеревод №3: Авторский (одноголосый, закадровый) | Василий ГорчаковПеревод №4: Украинский профессиональный (полное дублирование)Субтитры: русские (forced + full), украинские (forced + full), английские (forced + full + SDH)

Качество: BDRip 720pФормат: МКVВидео кодек: AVCАудио кодек: АС3Видео: 1280x534 (2.40:1), 23.976 fps, MPEG-4 AVC ~4 376 kbps avg, 0.267 bit/pixelАудио №1: 48.0 kHz, AC3 Dolby Digital, 3/2 (L,C,R,l,r) + LFE ch, ~640.00 kbps | DUBАудио №2: 48.0 kHz, AC3 Dolby Digital, 3/2 (L,C,R,l,r) + LFE ch, ~640 kbps | СербинАудио №3: 48.0 kHz, AC3 Dolby Digital, 3/2 (L,C,R,l,r) + LFE ch, ~640 kbps | ГорчаковАудио №4: 48.0 kHz, AC3 Dolby Digital, 3/2 (L,C,R,l,r) + LFE ch, ~448.00 kbps | UKRАудио №5: 48.0 kHz, AC3 Dolby Digital, 3/2 (L,C,R,l,r) + LFE ch, ~640.00 kbps | ENGФормат субтитров: UTF-8 Plain Text

Бюджет: $225 000 000Дата премьеры (мир): 2 декабря 2013Дата премьеры (РФ): 18 декабря 2013, «Каро-Премьер»релиз на DVD, Blu-Ray: 17 апреля 2014, «CP Дистрибуция»

Media Info 2

Общее Уникальный идентификатор : 216031213393904446896299694964753625978 (0xA2861928DCCFB7939BDFA2BD33DCF37A) Полное имя : Hobbit.Pustosh'.Smauga.2013.EC.3xRus.Ukr.Eng.BDRip.720p.-HELLYWOOD.mkv Формат : Matroska Версия формата : Version 4 / Version 2 Размер файла : 9,62 Гбайт Длительность : 3 ч. 6 м. Общий поток : 7384 Кбит/сек Название фильма : The Hobbit: The Desolation Of Smaug (2013) [Exteded Cut] Дата кодирования : UTC 2016-06-13 14:08:54 Программа кодирования : mkvmerge v5.9.0 ('On The Loose') built on Dec 15 2012 16:39:58 Библиотека кодирования : libebml v1.3.0 + libmatroska v1.4.0

Видео Идентификатор : 1 Формат : AVC Формат/Информация : Advanced Video Кодек Профиль формата : [email protected] Параметр CABAC формата : Да Параметр ReFrames формата : 8 кадров Идентификатор кодека : V_MPEG4/ISO/AVC Длительность : 3 ч. 6 м. Битрейт : 4376 Кбит/сек Ширина : 1280 пикселей Высота : 534 пикселя Соотношение сторон : 2,40:1 Режим частоты кадров : Постоянный Частота кадров : 23,976 (24000/1001) кадра/сек Цветовое пространство : YUV Субдискретизация насыщенности : 4:2:0 Битовая глубина : 8 бит Тип развёртки : Прогрессивная Бит/(Пиксели*Кадры) : 0.267 Размер потока : 5,51 Гбайт (57%) Заголовок : potroks Библиотека кодирования : x264 core 128 r2216M 198a7ea Настройки программы : cabac=1 / ref=9 / deblock=1:-2:-2 / analyse=0x3:0x133 / me=umh / subme=11 / psy=1 / psy_rd=1.07:0.05 / mixed_ref=1 / me_range=48 / chroma_me=1 / trellis=2 / 8x8dct=1 / cqm=0 / deadzone=21,11 / fast_pskip=0 / chroma_qp_offset=-3 / threads=6 / lookahead_threads=1 / sliced_threads=0 / nr=0 / decimate=0 / interlaced=0 / bluray_compat=0 / constrained_intra=0 / bframes=10 / b_pyramid=1 / b_adapt=2 / b_bias=0 / direct=3 / weightb=1 / open_gop=0 / weightp=2 / keyint=250 / keyint_min=23 / scenecut=40 / intra_refresh=0 / rc_lookahead=150 / rc=2pass / mbtree=0 / bitrate=4376 / ratetol=1.0 / qcomp=0.70 / qpmin=0 / qpmax=69 / qpstep=4 / cplxblur=20.0 / qblur=0.5 / vbv_maxrate=50000 / vbv_bufsize=62500 / nal_hrd=none / ip_ratio=1.35 / pb_ratio=1.25 / aq=1:0.75 Язык : English Default : Да Forced : Нет

Аудио #1 Идентификатор : 2 Формат : AC-3 Формат/Информация : Audio Coding 3 Расширение режима : CM (complete main) Параметр Endianness формата : Big Идентификатор кодека : A_AC3 Длительность : 3 ч. 6 м. Вид битрейта : Постоянный Битрейт : 640 Кбит/сек Каналы : 6 каналов Расположение каналов : Front: L C R, Side: L R, LFE Частота : 48,0 КГц Частота кадров : 31,250 кадров/сек (1536 spf) Метод сжатия : С потерями Размер потока : 854 Мбайт (9%) Заголовок : Dub | DD 5.1 @ 640 kbps Язык : Russian Default : Да Forced : Нет

Аудио #2 Идентификатор : 3 Формат : AC-3 Формат/Информация : Audio Coding 3 Расширение режима : CM (complete main) Параметр Endianness формата : Big Идентификатор кодека : A_AC3 Длительность : 3 ч. 6 м. Вид битрейта : Постоянный Битрейт : 640 Кбит/сек Каналы : 6 каналов Расположение каналов : Front: L C R, Side: L R, LFE Частота : 48,0 КГц Частота кадров : 31,250 кадров/сек (1536 spf) Метод сжатия : С потерями Размер потока : 854 Мбайт (9%) Заголовок : AVO | DD 5.1 @ 640 kbps - Yu.Serbin Язык : Russian Default : Нет Forced : Нет

Аудио #3 Идентификатор : 4 Формат : AC-3 Формат/Информация : Audio Coding 3 Расширение режима : CM (complete main) Параметр Endianness формата : Big Идентификатор кодека : A_AC3 Длительность : 3 ч. 6 м. Вид битрейта : Постоянный Битрейт : 640 Кбит/сек Каналы : 6 каналов Расположение каналов : Front: L C R, Side: L R, LFE Частота : 48,0 КГц Частота кадров : 31,250 кадров/сек (1536 spf) Метод сжатия : С потерями Размер потока : 854 Мбайт (9%) Заголовок : AVO | DD 5.1 @ 640 kbps - V.Gorchakov Язык : Russian Default : Нет Forced : Нет

Аудио #4 Идентификатор : 5 Формат : AC-3 Формат/Информация : Audio Coding 3 Расширение режима : CM (complete main) Параметр Endianness формата : Big Идентификатор кодека : A_AC3 Длительность : 3 ч. 6 м. Вид битрейта : Постоянный Битрейт : 448 Кбит/сек Каналы : 6 каналов Расположение каналов : Front: L C R, Side: L R, LFE Частота : 48,0 КГц Частота кадров : 31,250 кадров/сек (1536 spf) Метод сжатия : С потерями Размер потока : 598 Мбайт (6%) Заголовок : Dub | DD 5.1 @ 448 kbps - Blu-Ray CEE Язык : Ukrainian Default : Нет Forced : Нет

Аудио #5 Идентификатор : 6 Формат : AC-3 Формат/Информация : Audio Coding 3 Расширение режима : CM (complete main) Параметр Endianness формата : Big Идентификатор кодека : A_AC3 Длительность : 3 ч. 6 м. Вид битрейта : Постоянный Битрейт : 640 Кбит/сек Каналы : 6 каналов Расположение каналов : Front: L C R, Side: L R, LFE Частота : 48,0 КГц Частота кадров : 31,250 кадров/сек (1536 spf) Метод сжатия : С потерями Размер потока : 854 Мбайт (9%) Заголовок : Original | DD 5.1 @ 640 kbps Язык : English Default : Нет Forced : Нет

Текст #1 Идентификатор : 7 Формат : UTF-8 Идентификатор кодека : S_TEXT/UTF8 Идентификатор кодека/Информация : UTF-8 Plain Text Заголовок : Forced Язык : Russian Default : Да Forced : Нет

Текст #2 Идентификатор : 8 Формат : UTF-8 Идентификатор кодека : S_TEXT/UTF8 Идентификатор кодека/Информация : UTF-8 Plain Text Заголовок : Full Язык : Russian Default : Нет Forced : Нет

Текст #3 Идентификатор : 9 Формат : UTF-8 Идентификатор кодека : S_TEXT/UTF8 Идентификатор кодека/Информация : UTF-8 Plain Text Заголовок : Forced Язык : Ukrainian Default : Нет Forced : Нет

Текст #4 Идентификатор : 10 Формат : UTF-8 Идентификатор кодека : S_TEXT/UTF8 Идентификатор кодека/Информация : UTF-8 Plain Text Заголовок : Full Язык : Ukrainian Default : Нет Forced : Нет

Текст #5 Идентификатор : 11 Формат : UTF-8 Идентификатор кодека : S_TEXT/UTF8 Идентификатор кодека/Информация : UTF-8 Plain Text Заголовок : Full Язык : English Default : Нет Forced : Нет

Текст #6 Идентификатор : 12 Формат : UTF-8 Идентификатор кодека : S_TEXT/UTF8 Идентификатор кодека/Информация : UTF-8 Plain Text Заголовок : SDH Язык : English Default : Нет Forced : Нет

Текст #7 Идентификатор : 13 Формат : UTF-8 Идентификатор кодека : S_TEXT/UTF8 Идентификатор кодека/Информация : UTF-8 Plain Text Заголовок : SDH-Colored Язык : English Default : Нет Forced : Нет

Меню 00:00:00.000 : en:00:00:00.000 00:07:33.411 : en:00:07:33.411 00:12:00.303 : en:00:12:00.303 00:12:59.445 : en:00:12:59.445 00:15:55.371 : en:00:15:55.371 00:20:56.922 : en:00:20:56.922 00:23:15.436 : en:00:23:15.436 00:25:52.676 : en:00:25:52.676 00:29:59.256 : en:00:29:59.256 00:38:14.042 : en:00:38:14.042 00:46:43.843 : en:00:46:43.843 00:49:46.317 : en:00:49:46.317 00:53:19.530 : en:00:53:19.530 00:55:10.224 : en:00:55:10.224 00:58:07.859 : en:00:58:07.859 01:08:42.327 : en:01:08:42.327 01:12:22.338 : en:01:12:22.338 01:15:45.708 : en:01:15:45.708 01:19:10.162 : en:01:19:10.162 01:22:46.837 : en:01:22:46.837 01:25:09.688 : en:01:25:09.688 01:28:07.741 : en:01:28:07.741 01:31:15.553 : en:01:31:15.553 01:36:02.757 : en:01:36:02.757 01:37:35.892 : en:01:37:35.892 01:40:35.404 : en:01:40:35.404 01:45:16.519 : en:01:45:16.519 01:48:44.476 : en:01:48:44.476 01:50:31.750 : en:01:50:31.750 01:52:36.541 : en:01:52:36.541 01:53:08.448 : en:01:53:08.448 01:59:16.358 : en:01:59:16.358 02:07:11.833 : en:02:07:11.833 02:07:39.110 : en:02:07:39.110 02:09:22.672 : en:02:09:22.672 02:12:48.586 : en:02:12:48.586 02:22:00.846 : en:02:22:00.846 02:22:43.430 : en:02:22:43.430 02:23:17.923 : en:02:23:17.923 02:24:56.396 : en:02:24:56.396 02:26:45.088 : en:02:26:45.088 02:29:18.825 : en:02:29:18.825 02:33:12.975 : en:02:33:12.975 02:34:57.622 : en:02:34:57.622 02:36:13.155 : en:02:36:13.155 02:37:45.956 : en:02:37:45.956 02:39:08.831 : en:02:39:08.831 02:41:39.940 : en:02:41:39.940 02:44:06.003 : en:02:44:06.003 02:51:16.683 : en:02:51:16.683 02:56:05.555 : en:02:56:05.555

Хоббит: Битва пяти воинств / The Hobbit: The Battle of the Five Armies / 2014

Хоббит: Битва пяти воинств / The Hobbit: The Battle of the Five Armies

Страна: США Новая Зеландия Производство: Metro-Goldwyn-Mayer (MGM), New Line Cinema, WingNut Films, 3Foot7Год выпуска: 2014Жанр: фэнтези, приключенияПродолжительность: 02:44:03

Режиссер: Питер ДжексонАвторы сценария: Фрэнсис Уолш, Филиппа Бойенс, Питер Джексон

В ролях: Мартин Фриман, Иэн МакКеллен, Ричард Армитедж, Люк Эванс, Эванджелин Лилли, Ли Пейс, Орландо Блум, Бенедикт Камбербэтч, Кен Стотт

Описание: Когда отряд из тринадцати гномов нанимал хоббита Бильбо Бэгинса в качестве взломщика и четырнадцатого, «счастливого», участника похода к Одинокой горе, Бильбо полагал, что его приключения закончатся, когда он выполнит свою задачу — найдет сокровище, которое так необходимо предводителю гномов Торину. Путешествие в Эребор, захваченное драконом Смаугом королевство гномов, оказалось еще более опасным, чем предполагали гномы и даже Гэндальф — мудрый волшебник, протянувший Торину и его отряду руку помощи.

В погоню за гномами устремилась армия орков, ведомых пробудившимся в руинах древним злом, а эльфы и люди, с которыми Бильбо и его товарищам пришлось иметь дело во время путешествия и которые пострадали от последствий желания гномов вернуть свой дом, предъявили права на щедрое вознаграждение — часть сокровищ Одинокой горы. Скоро неподалеку от Одинокой горы встретятся пять армий, и лишь кровопролитная битва определит результаты смелого гномьего похода...

Перевод №1: Профессиональный (полное дублирование)Перевод №2: Авторский (одноголосый, закадровый) | Юрий СербинПеревод №3: Авторский (одноголосый, закадровый) | Василий ГорчаковПеревод №4: Украинский профессиональный (полное дублирование)Субтитры: русские (forced + iTunes), украинские (forced + iTunes), английские (full + SDH)

Качество: BDRip 720pФормат: МКVВидео кодек: AVCАудио кодек: АС3Видео: 1280x534 (2.40:1), 23.976 fps, MPEG-4 AVC ~6 042 kbps avg, 0.369 bit/pixelАудио №1: 48.0 kHz, AC3 Dolby Digital, 3/2 (L,C,R,l,r) + LFE ch, ~448.00 kbps | DUBАудио №2: 48.0 kHz, AC3 Dolby Digital, 3/2 (L,C,R,l,r) + LFE ch, ~640 kbps | СербинАудио №3: 48.0 kHz, AC3 Dolby Digital, 3/2 (L,C,R,l,r) + LFE ch, ~448 kbps | ГорчаковАудио №4: 48.0 kHz, AC3 Dolby Digital, 3/2 (L,C,R,l,r) + LFE ch, ~448.00 kbps | UKRАудио №5: 48.0 kHz, AC3 Dolby Digital, 3/2 (L,C,R,l,r) + LFE ch, ~640.00 kbps | ENGФормат субтитров: UTF-8 Plain Text

Бюджет: $250 000 000Дата премьеры (мир): 1 декабря 2014Дата премьеры (РФ): 11 декабря 2014, «Каро-Премьер»релиз на DVD, Blu-Ray: 26 марта 2015, «CP Дистрибуция», «Lizard Cinema Trade»

Media Info 3

Общее Уникальный идентификатор : 177644244181542703835222403301057127061 (0x85A509745B901DBDBF438DA0F6EE6295) Полное имя : Hobbit.Bitva.Pyati.Voinstv.2014.EC.3xRus.Ukr.Eng.BDRip.720p.-HELLYWOOD.mkv Формат : Matroska Версия формата : Version 4 / Version 2 Размер файла : 9,93 Гбайт Длительность : 2 ч. 44 м. Общий поток : 8667 Кбит/сек Название фильма : The Hobbit: The Battle of the Five Armies (2014) [Extended Cut] Дата кодирования : UTC 2016-06-13 13:05:43 Программа кодирования : mkvmerge v5.9.0 ('On The Loose') built on Dec 15 2012 16:39:58 Библиотека кодирования : libebml v1.3.0 + libmatroska v1.4.0

Видео Идентификатор : 1 Формат : AVC Формат/Информация : Advanced Video Кодек Профиль формата : [email protected] Параметр CABAC формата : Да Параметр ReFrames формата : 9 кадров Идентификатор кодека : V_MPEG4/ISO/AVC Длительность : 2 ч. 44 м. Битрейт : 6042 Кбит/сек Ширина : 1280 пикселей Высота : 534 пикселя Соотношение сторон : 2,40:1 Режим частоты кадров : Постоянный Частота кадров : 23,976 кадра/сек Цветовое пространство : YUV Субдискретизация насыщенности : 4:2:0 Битовая глубина : 8 бит Тип развёртки : Прогрессивная Бит/(Пиксели*Кадры) : 0.369 Размер потока : 6,73 Гбайт (68%) Заголовок : potroks Библиотека кодирования : x264 core 146 r2538 121396c Настройки программы : cabac=1 / ref=9 / deblock=1:-3:-3 / analyse=0x3:0x113 / me=umh / subme=11 / psy=1 / psy_rd=1.00:0.05 / mixed_ref=1 / me_range=48 / chroma_me=1 / trellis=2 / 8x8dct=1 / cqm=0 / deadzone=21,11 / fast_pskip=0 / chroma_qp_offset=-3 / threads=9 / lookahead_threads=2 / sliced_threads=0 / nr=0 / decimate=0 / interlaced=0 / bluray_compat=0 / constrained_intra=0 / bframes=10 / b_pyramid=2 / b_adapt=2 / b_bias=0 / direct=3 / weightb=1 / open_gop=0 / weightp=2 / keyint=250 / keyint_min=23 / scenecut=40 / intra_refresh=0 / rc_lookahead=60 / rc=2pass / mbtree=0 / bitrate=6042 / ratetol=1.0 / qcomp=0.70 / qpmin=0 / qpmax=69 / qpstep=4 / cplxblur=20.0 / qblur=0.5 / vbv_maxrate=14000 / vbv_bufsize=14000 / nal_hrd=none / filler=0 / ip_ratio=1.35 / pb_ratio=1.25 / aq=1:0.80 Язык : English Default : Да Forced : Нет

Аудио #1 Идентификатор : 2 Формат : AC-3 Формат/Информация : Audio Coding 3 Расширение режима : CM (complete main) Параметр Endianness формата : Big Идентификатор кодека : A_AC3 Длительность : 2 ч. 44 м. Вид битрейта : Постоянный Битрейт : 448 Кбит/сек Каналы : 6 каналов Расположение каналов : Front: L C R, Side: L R, LFE Частота : 48,0 КГц Частота кадров : 31,250 кадров/сек (1536 spf) Метод сжатия : С потерями Размер потока : 526 Мбайт (5%) Заголовок : Dub | DD 5.1 @ 448 kbps - Blu-Ray CEE Язык : Russian Default : Да Forced : Нет

Аудио #2 Идентификатор : 3 Формат : AC-3 Формат/Информация : Audio Coding 3 Расширение режима : CM (complete main) Параметр Endianness формата : Big Идентификатор кодека : A_AC3 Длительность : 2 ч. 44 м. Вид битрейта : Постоянный Битрейт : 640 Кбит/сек Каналы : 6 каналов Расположение каналов : Front: L C R, Side: L R, LFE Частота : 48,0 КГц Частота кадров : 31,250 кадров/сек (1536 spf) Метод сжатия : С потерями Размер потока : 751 Мбайт (7%) Заголовок : AVO | DD 5.1 @ 640 kbps - Yu.Serbin Язык : Russian Default : Нет Forced : Нет

Аудио #3 Идентификатор : 4 Формат : AC-3 Формат/Информация : Audio Coding 3 Расширение режима : CM (complete main) Параметр Endianness формата : Big Идентификатор кодека : A_AC3 Длительность : 2 ч. 44 м. Вид битрейта : Постоянный Битрейт : 448 Кбит/сек Каналы : 6 каналов Расположение каналов : Front: L C R, Side: L R, LFE Частота : 48,0 КГц Частота кадров : 31,250 кадров/сек (1536 spf) Метод сжатия : С потерями Размер потока : 526 Мбайт (5%) Заголовок : AVO | DD 5.1 @ 448 kbps - V.Gorchakov Язык : Russian Default : Нет Forced : Нет

Аудио #4 Идентификатор : 5 Формат : AC-3 Формат/Информация : Audio Coding 3 Расширение режима : CM (complete main) Параметр Endianness формата : Big Идентификатор кодека : A_AC3 Длительность : 2 ч. 44 м. Вид битрейта : Постоянный Битрейт : 448 Кбит/сек Каналы : 6 каналов Расположение каналов : Front: L C R, Side: L R, LFE Частота : 48,0 КГц Частота кадров : 31,250 кадров/сек (1536 spf) Метод сжатия : С потерями Размер потока : 526 Мбайт (5%) Заголовок : Dub | DD 5.1 @ 448 kbps - Blu-Ray CEE Язык : Ukrainian Default : Нет Forced : Нет

Аудио #5 Идентификатор : 6 Формат : AC-3 Формат/Информация : Audio Coding 3 Расширение режима : CM (complete main) Параметр Endianness формата : Big Идентификатор кодека : A_AC3 Длительность : 2 ч. 44 м. Вид битрейта : Постоянный Битрейт : 640 Кбит/сек Каналы : 6 каналов Расположение каналов : Front: L C R, Side: L R, LFE Частота : 48,0 КГц Частота кадров : 31,250 кадров/сек (1536 spf) Метод сжатия : С потерями Размер потока : 751 Мбайт (7%) Заголовок : Original | DD 5.1 @ 640 kbps Язык : English Default : Нет Forced : Нет

Текст #1 Идентификатор : 7 Формат : UTF-8 Идентификатор кодека : S_TEXT/UTF8 Идентификатор кодека/Информация : UTF-8 Plain Text Заголовок : Forced Язык : Russian Default : Да Forced : Нет

Текст #2 Идентификатор : 8 Формат : UTF-8 Идентификатор кодека : S_TEXT/UTF8 Идентификатор кодека/Информация : UTF-8 Plain Text Заголовок : iTunes Язык : Russian Default : Нет Forced : Нет

Текст #3 Идентификатор : 9 Формат : UTF-8 Идентификатор кодека : S_TEXT/UTF8 Идентификатор кодека/Информация : UTF-8 Plain Text Заголовок : Forced Язык : Ukrainian Default : Нет Forced : Нет

Текст #4 Идентификатор : 10 Формат : UTF-8 Идентификатор кодека : S_TEXT/UTF8 Идентификатор кодека/Информация : UTF-8 Plain Text Заголовок : iTunes Язык : Ukrainian Default : Нет Forced : Нет

Текст #5 Идентификатор : 11 Формат : UTF-8 Идентификатор кодека : S_TEXT/UTF8 Идентификатор кодека/Информация : UTF-8 Plain Text Заголовок : Full Язык : English Default : Нет Forced : Нет

Текст #6 Идентификатор : 12 Формат : UTF-8 Идентификатор кодека : S_TEXT/UTF8 Идентификатор кодека/Информация : UTF-8 Plain Text Заголовок : SDH Язык : English Default : Нет Forced : Нет

Меню 00:00:00.000 : en:Fire and Water 00:05:12.061 : en:Bard the Dragon-Slayer 00:12:47.016 : en:Dungeons of the Dark Lord 00:13:18.964 : en:Shores of the Long Lake 00:18:57.219 : en:Not at Home 00:23:42.003 : en:Others will Now Look to the Mountain 00:24:56.119 : en:Legions of the Defiler 00:26:04.354 : en:The Mark of Gundabad 00:27:32.984 : en:Attack on Dol Guldur 00:35:45.351 : en:Summon Our Friends 00:36:41.073 : en:The King's Jewel 00:40:41.898 : en:The Ruins of Dale 00:42:01.144 : en:Erebor Fortified 00:43:11.756 : en:The Elvenking's Aid 00:46:16.148 : en:The Gathering of the Clouds 00:51:27.668 : en:A Token of Friendship 00:54:57.961 : en:The Shadow of Gundabad 00:56:14.830 : en:The Last Move in a Master Plan 00:58:31.299 : en:Bolg of the North 01:00:26.957 : en:The Night Watch 01:02:43.593 : en:A Thief in the Night 01:06:10.175 : en:An Honest Burglar 01:12:23.297 : en:Dain Ironfoot 01:17:22.555 : en:The Clouds Burst 01:20:36.331 : en:The Battle at Dale 01:24:57.217 : en:The Darkest Hour 01:28:41.775 : en:Dragon-Sickness 01:30:52.280 : en:The Return of Thorin Oakenshild 01:33:02.159 : en:Sons of Durin 01:35:12.832 : en:"To the King!" 01:38:32.489 : en:A Call to Arms 01:39:42.893 : en:Thorin's Plan 01:41:00.596 : en:The War Chariot 01:45:03.505 : en:Courage and Cowardice 01:47:13.635 : en:The Fifth Army 01:49:05.288 : en:Scouting Ravenhill 01:50:03.013 : en:Blood of the Eldar 01:52:59.606 : en:An Unforeseen Remedy 01:53:51.282 : en:The Fallen 01:57:15.236 : en:The Battle at Ravenhill 02:05:38.572 : en:To the Death 02:12:07.044 : en:Parting in Friendship 02:20:07.440 : en:King under the Mountain 02:22:27.205 : en:The Return Journey 02:26:11.596 : en:The Last Stage 02:30:54.462 : en:Credits

Релиз от:

rutor.org :: Хоббит: Трилогия / The Hobbit: Trilogy (2012-2014) HDRip от Kaztorrents | КПК | Extended Cut

main-rutor.org

Хоббит: Нежданное путешествие 2012

Хоббит: Нежданное путешествие Информация о фильме: Страна: США, Новая Зеландия Производство: Metro-Goldwyn-Mayer (MGM), New Line Cinema, WingNut Films Год выпуска: 2012 Жанр: фэнтези, приключения Режиссер: Питер Джексон В ролях: Мартин Фриман, Иэн МакКеллен, Ричард Армитедж, Джеймс Несбитт, Кен Стотт, Грэм МакТавиш, Дин О’Горман, Эйдан Тернер, Стивен Хантер, Сильвестр МакКой, Джед Брофи, Марк Хэдлоу Перевод: Профессиональный (дублированный) [Лицензия] Релиз от: Автор рипа: ProT1gR Описание: Фильм повествует о путешествии Бильбо Бэггинса, который пускается в грандиозный поход, целью которого является отвоевание утраченного королевства гномов Эребор у зловещего дракона Смауга. Совершенно неожиданно с хоббитом налаживает контакт волшебник Гэндальф Серый. Так Бильбо находит себя, присоединяясь к компании тринадцати гномов, возглавляемых легендарным воином, Торином Дубощитом. Их путешествие проляжет через Дикий Край, через предательские земли, населенные гоблинами и орками, смертоносными варгами и гигантскими пауками, народом, меняющим шкуры, и волшебниками. И хотя их цель находится на Востоке, среди пустошей Одинокой Горы, сначала им придется выбраться из туннелей гоблинов, где Бильбо встретит существо, которое изменит его жизнь навсегда… Голлума. Здесь, один на один с Голлумом, на берегу подземного озера, непритязательный Бильбо Бэггинс обнаружит не только скрытые в глубине души хитрость и отвагу, которые удивят даже его, но и завладеет «прелестным» колечком Голлума, которое обладает нежданными и полезными свойствами… Простое золотое кольцо, c которым связана судьба всего Средиземья, нитями, о которых Бильбо не мог даже вообразить. Качество: HDRip (Исходник: BDRip 1080p) Продолжительность: 03:02:31 Технические данные файла: Формат: MP4 Видео кодек: H.264 Аудио кодек: AAC-LC Видео: 640x268 (2:39:1), 23.976 fps, 600 kbps (0.146 bit/pixel) Аудио: 48.0 KHz, 2 ch, 128 kbps

Хоббит: Пустошь Смауга 2013

Хоббит: Пустошь Смауга Информация о фильме: Страна: США, Новая Зеландия Производство: Metro-Goldwyn-Mayer (MGM), New Line Cinema, WingNut Films Год выпуска: 2013 Жанр: фэнтези, приключения Режиссер: Питер Джексон В ролях: Мартин Фриман, Ричард Армитедж, Иэн МакКеллен, Эванджелин Лилли, Орландо Блум, Люк Эванс (Bard / Girion), Бенедикт Камбербэтч, Ли Пейс , Кен Стотт, Эйдан Тернер, Грэм МакТавиш , Джеймс Несбитт Перевод: Профессиональный (дублированный) [Лицензия] Релиз от: Автор рипа: ProT1gR Описание: Продолжение путешествия хоббита Бильбо Бэггинса, волшебника Гэндальфа и 13 отважных гномов. Их компания обязана завершить своё путешествие к Одинокой горе. Там они должны встретиться с величайшей опасностью из всех — созданием куда более ужасающим, чем все их прошлые противники, которое проверит на прочность не только их мужество, но крепость их дружбы и правильность выбранного пути, — драконом Смаугом. Качество: HDRip (Исходник: BDRip 1080p) Продолжительность: 03:06:35 Технические данные файла: Формат: MP4 Видео кодек: H.264 Аудио кодек: AAC-LC Видео: 640x268 (2:39:1), 23.976 fps, 600 kbps (0.146 bit/pixel) Аудио: 48.0 KHz, 2 ch, 128 kbps

Хоббит: Битва пяти воинств 2014

Хоббит: Битва пяти воинств Информация о фильме: Страна: США, Новая Зеландия Производство: 3Foot7, Metro-Goldwyn-Mayer (MGM), New Line Cinema, WingNut Films Год выпуска: 2014 Жанр: фэнтези, приключения Режиссер: Питер Джексон В ролях: Мартин Фриман, Иэн МакКеллен, Ричард Армитедж, Люк Эванс, Эванджелин Лилли, Ли Пейс, Орландо Блум, Бенедикт Камбербэтч, Кен Стотт, Эйдан Тернер, Грэм МакТавиш, Уильям Кирчер Перевод: Профессиональный (дублированный) [Лицензия] Релиз от: Автор рипа: ProT1gR Описание: Когда отряд из тринадцати гномов нанимал хоббита Бильбо Бэгинса в качестве взломщика и четырнадцатого, «счастливого», участника похода к Одинокой горе, Бильбо полагал, что его приключения закончатся, когда он выполнит свою задачу — найдет сокровище, которое так необходимо предводителю гномов Торину. Путешествие в Эребор, захваченное драконом Смаугом королевство гномов, оказалось еще более опасным, чем предполагали гномы и даже Гэндальф — мудрый волшебник, протянувший Торину и его отряду руку помощи. В погоню за гномами устремилась армия орков, ведомых пробудившимся в руинах древним злом, а эльфы и люди, с которыми Бильбо и его товарищам пришлось иметь дело во время путешествия и которые пострадали от последствий желания гномов вернуть свой дом, предъявили права на щедрое вознаграждение — часть сокровищ Одинокой горы. Скоро неподалеку от Одинокой горы встретятся пять армий, и лишь кровопролитная битва определит результаты смелого гномьего похода. Качество: HDRip (Исходник: BDRip 1080p) Продолжительность: 02:44:03 Технические данные файла: Формат: MP4 Видео кодек: H.264 Аудио кодек: AAC-LC Видео: 640x268 (2:39:1), 23.976 fps, 600 kbps (0.146 bit/pixel) Аудио: 48.0 KHz, 2 ch, 128 kbps

Хоббит: Трилогия 2012 - скачать бесплатно через торрент в хорошем качестве. Без регистрации

www.kinovit.net

Название: Хоббит: Трилогия / The Hobbit: Trilogy (2012-2014) HDRip от Kaztorrents | КПК | Extended Cut | Лицензия
Качество видео: HDRip (Исходник: BDRip 1080p)
Перевод: Профессиональный (дублированный) [Лицензия]
Формат видео: MP4
Видео: H.264 640x268 (2:39:1), 23.976 fps, 600 kbps (0.146 bit/pixel)
Аудио: AAC-LC 48.0 KHz, 2 ch, 128 kbps
Скачать

Загрузка начнется в течение 5 сек.

2.72 GB

Название: Хоббит: Трилогия / The Hobbit: Trilogy (2012-2014) BDRip 720p | D, А | Расширенная версия
Качество видео: BDRip 720p
Перевод: №1: Профессиональный (полное дублирование)№2: Авторский (одноголосый, закадровый) | Юрий Сербин№3: Авторский (одноголосый, закадровый) | Василий Горчаков№4: Украинский профессиональн
Формат видео: МКV
Видео: AVC 1280x534 (2.40:1), 23.976 fps, MPEG-4 AVC ~5 982 kbps avg, 0.365 bit/pixel1280x534 (2.40:1), 23.976 fps, MPEG-4 AVC ~4 376 kbps avg, 0.267 bit/pixel1280x534 (2.40:1), 23.976 fps, MPEG-4 AVC ~6 042 kbps avg, 0.369 bit/pixel
Аудио: АС3 АС348.0 kHz, AC3 Dolby Digital, 3/2 (L,C,R,l,r) + LFE ch, ~640.00 kbps | DUB48.0 kHz, AC3 Dolby Digital, 3/2 (L,C,R,l,r) + LFE ch, ~448.00 kbps | DUB48.0 kHz, AC3 Dolby Digital, 3/2 (L,C,R,l,r) + LFE ch, ~640 kbps | Сербин48.0 kHz, AC3 Dolby Digital, 3/2 (L,C,R,l,r) + LFE ch, ~640 kbps | Горчаков48.0 kHz, AC3 Dolby Digital, 3/2 (L,C,R,l,r) + LFE ch, ~448 kbps | Горчаков48.0 kHz, AC3 Dolby Digital, 3/2 (L,C,R,l,r) + LFE ch, ~448.00 kbps | UKR48.0 kHz, AC3 Dolby Digital, 3/2 (L,C,R,l,r) + LFE ch, ~640.00 kbps | ENG
Скачать

Загрузка начнется в течение 5 сек.

31.25 GB

Название: Хоббит: Трилогия / The Hobbit: Trilogy (2012-2014) BDRip | Лицензия
Качество видео: BDRip
Перевод: Профессиональный (полное дублирование) | Лицензия
Формат видео: AVI
Видео: 720x304 (2.37:1), 23.976 fps, XviD MPEG-4 ~2101 kbps avg, 0.40 bit/pixel720x304 (2.37:1), 23.976 fps, XviD MPEG-4 ~2122 kbps avg, 0.41 bit/pixel720x304 (2.37:1), 23.976 fps, XviD build 65 ~2138 kbps avg, 0.32 bit/pixel
Аудио: 48 kHz, AC3 Dolby Digital, 3/2 (L,C,R,l,r) + LFE ch, ~448 kbps | RUS48 kHz, AC3 Dolby Digital, 3/2 (L,C,R,l,r) + LFE ch, ~448 kbps | ENG
Скачать

Загрузка начнется в течение 5 сек.

9.76 GB

Название: Хоббит: Трилогия / The Hobbit: Trilogy (2012-2014) BDRip-AVC от HELLYWOOD | Лицензия
Перевод: Профессиональный (дублированный) [лицензия BD CEE] + вставки Сербина (на речь орков)Профессиональный (полное дублирование) лицензия BD CEEПрофессиональный (дублированный) [лицензия BD CEE]
Формат видео: MKV
Видео: x.264, 960x400(16:9), 23,976 fps, 1513 Кbps, 0.164 bit/pixelх.264, 960x400 (2,40:1), 23,976 fps, 1465 Кbps, 0.159 bit/pixelх.264, 984x410 (2,40:1), 23,976 fps, 1988 kbps, 0.206 bit/pixel
Аудио: 48 kHz, AC3 Dolby Digital, 3/2 (L,C,R,l,r) + LFE ch, 448.00 kbps | RUS48 kHz, AC3 Dolby Digital, 3/2 (L,C,R,l,r) + LFE ch, 384.00 kbps | RUS48 kHz, AC3 Dolby Digital, 3/2 (L,C,R,l,r) + LFE ch, 384.00 kbps | ENG48 kHz, AC3 Dolby Digital, 3/2 (L,C,R,l,r) + LFE ch, 448.00 kbps | ENG
Скачать

Загрузка начнется в течение 5 сек.

8.82 GB

Название: Хоббит: Трилогия / The Hobbit: Trilogy (2012-2014) BDRip-AVC от MediaClub | D
Качество видео: BDRip-AVC
Видео: x264 MPEG-4 AVC, 2562 Кбит/с, 1024x426, 23.976 кадр/сMPEG-4 AVC, 2271 Кбит/с, 1024x426, 23.976 кадр/сMPEG-4 AVC, 3271 Кбит/с, 1024x426, 23.976 кадр/с
Аудио: Русский (AC3, 6 ch, 448 Кбит/с) / ДублированныйУкраинский (AC3, 6 ch, 448 Кбит/с)Английский (AC3, 6 ch, 448 Кбит/с)
Скачать

Загрузка начнется в течение 5 сек.

13.36 GB


Смотрите также