Терминатор 2 режиссерская версия скачать торрент


судный день (1991) смотреть онлайн или скачать фильм через торрент. Трейлеры, правдивые оценки, рецензии, комментарии, похожие фильмы, саундтрек, новости и интересные факты на Fast-torrent

1649

Общая оценка

9.75

1649 голосов

Можете оставить свой голос отметив одну из звездочек.

 

 

Рекомендаций 1219

Всего рекомендаций 1219

Скачали 601210

Дата выхода в России (или в Мире): 01.07.1991

Дата выхода на DVD: 01.09.2009

Жанр: Боевик, Зарубежный фильм, Триллер, Фантастика

usfr  tagHD 1080,  tagHD 720,  tagКиберпанк,  tagПеревод Гоблина,  tagПутешествия во времени,  tagРежиссерская версия

Продолжительность: 02:14

Режиссер: Джеймс Кэмерон

В ролях: Арнольд Шварценеггер, Линда Хэмилтон, Эдвард Ферлонг, Роберт Патрик, Эрл Боэн, Джо Мортон, С. Ипейта Меркерсон, Кастуло Герра, Дэнни Кукси, Дженетт Голдстин

Война машин и людей в самом разгаре. Человечество стоит на краю гибели, но пока жив Джон Коннор, лидер сопротивления, у людей еще остаются шансы. Машины не могут убить Джона в настоящем и решают убить Джона в прошлом. В то время, когда Джон был еще мальчишкой, отправляется самая совершенная машина-терминатор. Робот из жидкого металла, неуязвимый для оружия и способный принимать любой образ. Вслед за ним Джон решает отправить одного из старых перепрограммированных роботов, чтобы защитить себя в прошлом.© Fast-Torrent.ru

Новости по теме:«Терминатор 5»: новые подробности

Интересные факты:

www.fast-torrent.ru

Judgment Day (, ) ( / James Cameron) [1991 ., , , , , Blu-ray 1080p]

<div> <div><b>:</b></div> <div>Total Video Title Codec Length Movie Size Disc Size Bitrate Bitrate Main Audio Track Secondary Audio Track ----- ------ ------- -------------- -------------- ------- ------- ------------------ --------------------- 00019.MPLS VC-1 2:36:08 36509159424 48417593212 31,18 19,28 DTS-HD Master 5.1 4046Kbps (48kHz/24-bit) <div> <div><b>:</b></div> <div>DISC INFO:

Disc Title: T_2.BluRay

Disc Size: 48417593212 bytes Protection: AACS BD-Java: Yes BDInfo: 0.5.2

PLAYLIST REPORT:

Name: 00019.MPLS

Size: 36509159424 bytes Length: 2:36:08 (h:m:s) Total Bitrate: 31,18 Mbps Description:

VIDEO:

Codec Bitrate Description

----- ------- ----------- VC-1 Video 19285 kbps 1080p / 23,976 fps / 16:9 / Advanced Profile 3 VC-1 Video 1150 kbps 480p / 23,976 fps / 4:3 / Advanced Profile 2

AUDIO:

Codec Language Bitrate Description

----- -------- ------- ----------- DTS-HD Master Audio English 4046 kbps 5.1 / 48 kHz / 4046 kbps / 24-bit (DTS Core: 5.1-ES / 48 kHz / 1509 kbps / 24-bit) Dolby Digital Audio Russian 640 kbps 5.1 / 48 kHz / 640 kbps Dolby Digital Audio Russian 640 kbps 5.1 / 48 kHz / 640 kbps Dolby Digital Audio Russian 640 kbps 5.1 / 48 kHz / 640 kbps Dolby Digital Audio Russian 640 kbps 5.1 / 48 kHz / 640 kbps Dolby Digital Audio Russian 640 kbps 5.1 / 48 kHz / 640 kbps Dolby Digital Audio English 224 kbps 2.0 / 48 kHz / 224 kbps Dolby Digital Audio English 224 kbps 2.0 / 48 kHz / 224 kbps / Dolby Surround DTS Express English 192 kbps 2.0 / 48 kHz / 192 kbps / 24-bit DTS Express English 192 kbps 2.0 / 48 kHz / 192 kbps / 24-bit

SUBTITLES:

Codec Language Bitrate Description

----- -------- ------- ----------- Presentation Graphics English 26,646 kbps Presentation Graphics English 34,523 kbps Presentation Graphics English 61,256 kbps Presentation Graphics English 14,471 kbps Presentation Graphics English 99,554 kbps Presentation Graphics English 21,094 kbps Presentation Graphics English 5,180 kbps Presentation Graphics English 51,558 kbps Presentation Graphics French 16,400 kbps Presentation Graphics French 91,898 kbps Presentation Graphics French 51,495 kbps Presentation Graphics French 2,188 kbps Presentation Graphics Spanish 28,014 kbps Presentation Graphics Spanish 102,667 kbps Presentation Graphics Spanish 92,097 kbps Presentation Graphics Spanish 4,957 kbps

FILES:

Name Time In Length Size Total Bitrate

---- ------- ------ ---- ------------- 00229.M2TS 0:00:00.000 0:15:31.722 3727454208 32005 00001.M2TS 0:15:31.722 0:01:25.752 332230656 30994 00002.M2TS 0:16:57.474 0:02:02.121 499759104 32738 00221.M2TS 0:18:59.596 0:03:52.857 968976384 33290 00030.M2TS 0:22:52.454 0:14:45.342 3431817216 31010 00031.M2TS 0:37:37.797 0:03:00.221 781547520 34693 00005.M2TS 0:40:38.018 0:00:25.442 114647040 36050 00006.M2TS 0:41:03.460 0:03:01.556 725176320 31954 00219.M2TS 0:44:05.017 0:02:14.551 509822976 30313 00008.M2TS 0:46:19.568 0:24:08.905 5514467328 30448 00032.M2TS 1:10:28.474 0:04:20.426 994203648 30541 00010.M2TS 1:14:48.900 0:01:45.939 406149120 30670 00011.M2TS 1:16:34.840 0:01:51.903 436131840 31179 00012.M2TS 1:18:26.743 0:01:35.970 364412928 30377 00013.M2TS 1:20:02.714 0:03:00.471 700090368 31034 00014.M2TS 1:23:03.186 0:02:40.910 623947776 31021 00015.M2TS 1:25:44.097 0:02:21.975 535713792 30186 00016.M2TS 1:28:06.072 0:08:17.830 1993875456 32041 00017.M2TS 1:36:23.902 0:01:24.042 323536896 30798 00018.M2TS 1:37:47.945 0:12:19.029 2834810880 30687 00019.M2TS 1:50:06.975 0:01:28.797 372197376 33532 00020.M2TS 1:51:35.772 0:22:09.411 5434214400 32701 00021.M2TS 2:13:45.183 0:00:53.261 236949504 35590 00022.M2TS 2:14:38.445 0:04:49.539 1230225408 33991 00023.M2TS 2:19:27.984 0:03:10.815 777308160 32589 00024.M2TS 2:22:38.800 0:06:47.532 1627097088 31940 00220.M2TS 2:29:26.332 0:01:55.782 454342656 31393 00026.M2TS 2:31:22.114 0:04:02.951 441999360 14554 00027.M2TS 2:35:25.065 0:00:43.084 116054016 21549

CHAPTERS:

Number Time In Length Avg Video Rate Max 1-Sec Rate Max 1-Sec Time Max 5-Sec Rate Max 5-Sec Time Max 10Sec Rate Max 10Sec Time Avg Frame Size Max Frame Size Max Frame Time

------ ------- ------ -------------- -------------- -------------- -------------- -------------- -------------- -------------- -------------- -------------- -------------- 1 0:00:00.000 0:00:52.093 13532 kbps 29562 kbps 00:00:34.868 22241 kbps 00:00:34.701 20695 kbps 00:00:34.701 70492 bytes 366992 bytes 00:00:51.760 2 0:00:52.093 0:02:46.207 19768 kbps 31370 kbps 00:01:40.100 25287 kbps 00:03:31.377 23500 kbps 00:03:26.331 103063 bytes 558161 bytes 00:03:36.216 3 0:03:38.301 0:01:58.535 21301 kbps 27589 kbps 00:04:38.695 24656 kbps 00:04:16.214 23441 kbps 00:04:11.918 111056 bytes 434619 bytes 00:05:08.975 4 0:05:36.836 0:01:11.571 18538 kbps 32010 kbps 00:05:43.343 24021 kbps 00:06:14.374 23264 kbps 00:06:08.368 96650 bytes 452418 bytes 00:06:48.408 5 0:06:48.408 0:02:22.809 19862 kbps 32058 kbps 00:08:11.908 25734 kbps 00:06:52.537 24039 kbps 00:06:48.408 103549 bytes 490293 bytes 00:06:49.409 6 0:09:11.217 0:01:22.540 18954 kbps 27198 kbps 00:10:22.371 22844 kbps 00:10:19.285 21585 kbps 00:10:13.821 98815 bytes 465420 bytes 00:09:27.316 7 0:10:33.758 0:01:57.742 19213 kbps 30418 kbps 00:12:04.140 24586 kbps 00:10:35.426 22766 kbps 00:10:34.467 100168 bytes 463789 bytes 00:10:39.889 8 0:12:31.500 0:01:07.150 18725 kbps 34610 kbps 00:12:34.503 27432 kbps 00:12:31.751 23771 kbps 00:12:31.625 97625 bytes 572946 bytes 00:13:38.609 9 0:13:38.651 0:01:53.071 20529 kbps 29990 kbps 00:14:00.381 26283 kbps 00:13:40.569 23204 kbps 00:13:59.964 107028 bytes 474618 bytes 00:14:12.852 10 0:15:31.722 0:01:00.185 18874 kbps 26523 kbps 00:15:52.159 22012 kbps 00:15:51.033 20970 kbps 00:15:50.824 98400 bytes 417280 bytes 00:16:12.930 11 0:16:31.907 0:01:09.402 18163 kbps 28277 kbps 00:16:38.706 22942 kbps 00:16:52.511 20840 kbps 00:16:48.465 94693 bytes 420090 bytes 00:17:07.818 12 0:17:41.310 0:01:30.840 20032 kbps 33723 kbps 00:17:42.936 25790 kbps 00:18:02.289 25045 kbps 00:18:02.331 104438 bytes 557682 bytes 00:19:08.105 13 0:19:12.150 0:03:17.071 18978 kbps 31903 kbps 00:21:50.767 26274 kbps 00:21:59.735 24257 kbps 00:21:55.397 98944 bytes 504985 bytes 00:22:16.376 14 0:22:29.222 0:03:27.248 16975 kbps 30575 kbps 00:24:11.241 26288 kbps 00:24:10.907 24591 kbps 00:22:42.444 88501 bytes 511816 bytes 00:22:49.242 15 0:25:56.471 0:01:33.510 18714 kbps 28068 kbps 00:27:08.835 23438 kbps 00:26:27.711 22581 kbps 00:26:24.958 97567 bytes 465740 bytes 00:26:23.498 16 0:27:29.981 0:01:23.208 18341 kbps 37138 kbps 00:28:52.105 27237 kbps 00:28:48.184 23988 kbps 00:28:43.179 95623 bytes 474659 bytes 00:27:35.987 17 0:28:53.189 0:00:53.470 21256 kbps 35129 kbps 00:29:30.852 25476 kbps 00:29:31.019 23767 kbps 00:29:31.102 110817 bytes 506505 bytes 00:29:31.269 18 0:29:46.659 0:01:36.387 21599 kbps 36576 kbps 00:30:24.197 27721 kbps 00:30:20.360 25746 kbps 00:30:15.396 112608 bytes 523661 bytes 00:29:48.661 19 0:31:23.047 0:02:36.531 19504 kbps 30257 kbps 00:33:02.772 23852 kbps 00:33:02.146 22181 kbps 00:32:57.141 101685 bytes 507273 bytes 00:33:14.951 20 0:33:59.579 0:01:10.653 20651 kbps 30991 kbps 00:34:48.711 24152 kbps 00:34:47.460 22348 kbps 00:33:59.579 107665 bytes 481992 bytes 00:34:32.528 21 0:35:10.233 0:03:40.094 21264 kbps 34270 kbps 00:36:43.659 26017 kbps 00:35:19.200 25067 kbps 00:35:19.200 110863 bytes 500106 bytes 00:38:21.465 22 0:38:50.327 0:02:43.079 19913 kbps 31759 kbps 00:40:55.870 27500 kbps 00:40:53.325 24597 kbps 00:39:08.012 103816 bytes 605664 bytes 00:39:12.099 23 0:41:33.407 0:02:43.246 20169 kbps 29675 kbps 00:41:44.960 26257 kbps 00:41:41.874 25437 kbps 00:41:37.786 105154 bytes 501744 bytes 00:41:38.412 24 0:44:16.653 0:01:56.115 20007 kbps 30244 kbps 00:44:24.703 26229 kbps 00:45:29.601 24188 kbps 00:45:24.555 104305 bytes 477512 bytes 00:44:24.828 25 0:46:12.769 0:01:15.366 16283 kbps 25629 kbps 00:46:18.483 21112 kbps 00:46:14.688 20412 kbps 00:46:42.841 84892 bytes 413828 bytes 00:46:15.731 26 0:47:28.136 0:03:46.559 18471 kbps 30539 kbps 00:50:45.834 24368 kbps 00:50:45.208 22700 kbps 00:50:45.834 96300 bytes 446529 bytes 00:47:52.995 27 0:51:14.696 0:03:11.482 18752 kbps 28848 kbps 00:53:08.893 24151 kbps 00:53:08.476 22426 kbps 00:53:42.469 97763 bytes 468620 bytes 00:51:27.667 28 0:54:26.179 0:01:44.562 18856 kbps 28817 kbps 00:54:59.003 25128 kbps 00:54:56.584 21962 kbps 00:55:26.489 98306 bytes 420961 bytes 00:55:20.859 29 0:56:10.742 0:01:37.555 18972 kbps 27313 kbps 00:56:50.198 23591 kbps 00:57:09.008 21784 kbps 00:57:07.757 98909 bytes 471615 bytes 00:57:15.765 30 0:57:48.298 0:00:43.460 18728 kbps 28720 kbps 00:58:00.476 25622 kbps 00:57:56.764 23334 kbps 00:57:56.764 97637 bytes 474057 bytes 00:58:05.523 31 0:58:31.758 0:01:08.985 18684 kbps 29418 kbps 00:59:39.117 23067 kbps 00:58:53.488 21053 kbps 00:58:48.524 97411 bytes 405600 bytes 00:58:55.948 32 0:59:40.743 0:02:09.921 20050 kbps 32143 kbps 01:01:30.394 24834 kbps 01:01:29.393 23827 kbps 01:01:26.265 104534 bytes 457777 bytes 01:01:30.728 33 1:01:50.665 0:01:27.462 18846 kbps 28206 kbps 01:02:40.756 21927 kbps 01:02:36.836 21079 kbps 01:02:31.789 98254 bytes 432327 bytes 01:02:47.889 34 1:03:18.127 0:04:33.231 20197 kbps 29924 kbps 01:06:53.467 23654 kbps 01:06:52.383 22198 kbps 01:05:18.414 105300 bytes 578890 bytes 01:03:34.810 35 1:07:51.358 0:01:35.261 19177 kbps 26332 kbps 01:08:47.706 21878 kbps 01:08:39.073 21315 kbps 01:08:36.320 99980 bytes 403148 bytes 01:07:52.318 36 1:09:26.620 0:00:40.915 19871 kbps 24843 kbps 01:09:27.496 22416 kbps 01:09:45.389 21676 kbps 01:09:46.807 103599 bytes 476899 bytes 01:09:48.267 37 1:10:07.536 0:01:22.874 18398 kbps 26705 kbps 01:11:08.222 22633 kbps 01:11:04.218 20883 kbps 01:11:05.427 95920 bytes 457015 bytes 01:11:21.235 38 1:11:30.411 0:03:26.247 19513 kbps 38024 kbps 01:12:35.434 26326 kbps 01:12:32.347 25107 kbps 01:12:27.342 101733 bytes 553173 bytes 01:11:35.791 39 1:14:56.658 0:00:38.455 19178 kbps 35657 kbps 01:14:56.783 23512 kbps 01:15:03.206 21857 kbps 01:15:05.625 99986 bytes 449353 bytes 01:15:03.290 40 1:15:35.113 0:00:49.841 20901 kbps 28489 kbps 01:15:44.873 26464 kbps 01:15:42.037 24437 kbps 01:15:39.201 108968 bytes 478583 bytes 01:16:24.913 41 1:16:24.955 0:01:28.004 19045 kbps 29906 kbps 01:17:27.726 23631 kbps 01:17:28.143 22893 kbps 01:17:26.558 99291 bytes 474360 bytes 01:17:28.185 42 1:17:52.959 0:02:22.308 18838 kbps 28322 kbps 01:18:58.650 25769 kbps 01:18:56.982 23456 kbps 01:18:53.979 98210 bytes 476820 bytes 01:17:56.087 43 1:20:15.268 0:02:20.515 21106 kbps 31922 kbps 01:21:19.165 28030 kbps 01:21:18.456 25578 kbps 01:21:18.581 110037 bytes 539520 bytes 01:21:08.905 44 1:22:35.784 0:02:29.607 19758 kbps 33100 kbps 01:24:28.855 27049 kbps 01:24:25.852 24712 kbps 01:24:21.139 103007 bytes 553288 bytes 01:22:50.840 45 1:25:05.391 0:02:46.499 20644 kbps 31653 kbps 01:26:35.648 24719 kbps 01:26:00.321 22994 kbps 01:25:58.986 107630 bytes 510801 bytes 01:25:17.528 46 1:27:51.891 0:04:20.259 17814 kbps 27081 kbps 01:29:39.749 24234 kbps 01:31:28.441 21675 kbps 01:31:28.441 92872 bytes 449721 bytes 01:30:00.144 47 1:32:12.151 0:02:16.970 22553 kbps 38407 kbps 01:32:23.871 27323 kbps 01:32:39.595 25221 kbps 01:32:15.988 117579 bytes 566436 bytes 01:32:35.466 48 1:34:29.121 0:00:30.280 20792 kbps 34734 kbps 01:34:54.521 24366 kbps 01:34:54.396 22594 kbps 01:34:47.056 108399 bytes 440186 bytes 01:34:39.548 49 1:34:59.401 0:01:43.103 18492 kbps 32485 kbps 01:35:51.245 21234 kbps 01:36:27.197 21104 kbps 01:36:27.239 96408 bytes 428592 bytes 01:36:17.021 50 1:36:42.504 0:06:19.337 20324 kbps 32614 kbps 01:39:14.656 24511 kbps 01:39:11.862 23262 kbps 01:39:10.068 105959 bytes 510219 bytes 01:40:35.862 51 1:43:01.842 0:02:49.043 15748 kbps 29209 kbps 01:45:45.255 24036 kbps 01:45:43.378 20671 kbps 01:45:40.876 82101 bytes 507064 bytes 01:45:45.839 52 1:45:50.885 0:02:01.496 21432 kbps 32991 kbps 01:46:47.317 26137 kbps 01:46:12.657 24538 kbps 01:46:12.824 111734 bytes 508384 bytes 01:46:25.503 53 1:47:52.382 0:02:00.119 20047 kbps 29352 kbps 01:49:08.541 22696 kbps 01:48:32.505 21684 kbps 01:49:20.637 104515 bytes 484746 bytes 01:48:32.630 54 1:49:52.502 0:00:39.664 19065 kbps 28936 kbps 01:50:02.428 24589 kbps 01:50:01.970 23836 kbps 01:49:56.965 99394 bytes 403813 bytes 01:50:19.988 55 1:50:32.166 0:00:50.592 22453 kbps 31093 kbps 01:50:47.348 25037 kbps 01:50:44.304 24186 kbps 01:50:46.306 117062 bytes 457216 bytes 01:50:52.979 56 1:51:22.759 0:02:08.127 18691 kbps 31239 kbps 01:52:09.555 25148 kbps 01:51:30.808 23569 kbps 01:51:29.140 97446 bytes 447898 bytes 01:52:28.241 57 1:53:30.887 0:01:49.234 21462 kbps 31215 kbps 01:54:04.712 26561 kbps 01:54:04.712 24126 kbps 01:54:16.349 111895 bytes 512058 bytes 01:54:29.695 58 1:55:20.121 0:00:32.490 20600 kbps 30603 kbps 01:55:28.129 24137 kbps 01:55:26.002 22876 kbps 01:55:20.413 107397 bytes 403064 bytes 01:55:40.266 59 1:55:52.612 0:02:21.140 21254 kbps 31514 kbps 01:57:30.793 25352 kbps 01:56:12.131 23873 kbps 01:57:30.293 110807 bytes 506975 bytes 01:57:58.612 60 1:58:13.753 0:01:31.007 19649 kbps 34283 kbps 01:59:16.732 29235 kbps 01:59:12.937 26543 kbps 01:59:10.309 102443 bytes 397210 bytes 01:58:47.411 61 1:59:44.760 0:01:40.433 19656 kbps 29610 kbps 02:01:19.688 24909 kbps 02:00:40.983 23139 kbps 02:00:36.896 102479 bytes 450810 bytes 01:59:55.229 62 2:01:25.194 0:01:12.614 19503 kbps 33749 kbps 02:02:36.599 25449 kbps 02:02:07.111 23459 kbps 02:02:02.940 101679 bytes 428606 bytes 02:02:07.152 63 2:02:37.808 0:00:58.558 20706 kbps 32908 kbps 02:03:07.171 25988 kbps 02:03:05.044 24683 kbps 02:02:58.120 107952 bytes 413976 bytes 02:02:46.233 64 2:03:36.367 0:02:38.992 21510 kbps 40261 kbps 02:03:59.390 26540 kbps 02:04:28.627 25493 kbps 02:04:28.669 112144 bytes 456023 bytes 02:03:47.544 65 2:06:15.359 0:04:04.786 20657 kbps 30962 kbps 02:07:12.875 24521 kbps 02:07:10.122 23081 kbps 02:07:45.157 107697 bytes 478046 bytes 02:09:37.102 66 2:10:20.145 0:03:29.292 19446 kbps 29479 kbps 02:10:21.021 25235 kbps 02:13:40.178 23627 kbps 02:13:35.298 101381 bytes 465465 bytes 02:12:50.086 67 2:13:49.437 0:00:39.330 20205 kbps 28276 kbps 02:13:49.729 23929 kbps 02:14:19.092 22391 kbps 02:14:14.045 105340 bytes 563513 bytes 02:14:05.412 68 2:14:28.768 0:00:33.158 20601 kbps 26605 kbps 02:14:33.815 23543 kbps 02:14:33.440 21984 kbps 02:14:29.060 107404 bytes 431335 bytes 02:14:30.729 69 2:15:01.926 0:01:09.736 19185 kbps 29455 kbps 02:15:29.412 26206 kbps 02:15:48.014 25019 kbps 02:15:28.411 100023 bytes 447597 bytes 02:15:28.453 70 2:16:11.663 0:00:35.118 19829 kbps 30432 kbps 02:16:21.464 24258 kbps 02:16:17.460 22239 kbps 02:16:12.455 103379 bytes 438864 bytes 02:16:16.501 71 2:16:46.781 0:01:56.449 21972 kbps 35094 kbps 02:17:10.388 26571 kbps 02:17:41.211 24651 kbps 02:17:41.294 114552 bytes 468237 bytes 02:18:18.289 72 2:18:43.231 0:01:59.828 22369 kbps 32257 kbps 02:20:31.297 28710 kbps 02:20:29.587 26565 kbps 02:20:25.500 116620 bytes 488405 bytes 02:20:25.917 73 2:20:43.059 0:00:32.615 20435 kbps 27771 kbps 02:21:11.838 24420 kbps 02:21:07.917 24023 kbps 02:21:03.830 106539 bytes 382391 bytes 02:21:12.213 74 2:21:15.675 0:00:35.827 21208 kbps 33928 kbps 02:21:18.052 27443 kbps 02:21:23.099 23311 kbps 02:21:22.765 110569 bytes 406732 bytes 02:21:18.386 75 2:21:51.502 0:01:30.673 19607 kbps 27637 kbps 02:22:31.709 23481 kbps 02:23:11.874 21530 kbps 02:21:56.424 102220 bytes 502767 bytes 02:22:32.668 76 2:23:22.176 0:02:13.216 21563 kbps 31790 kbps 02:25:10.451 27107 kbps 02:24:25.197 25406 kbps 02:24:20.234 112419 bytes 486040 bytes 02:25:11.827 77 2:25:35.393 0:03:50.980 18934 kbps 32402 kbps 02:26:45.671 25379 kbps 02:25:48.280 22749 kbps 02:25:48.280 98711 bytes 430820 bytes 02:25:48.656 78 2:29:26.373 0:01:57.742 20445 kbps 32151 kbps 02:30:39.154 26722 kbps 02:30:35.150 24854 kbps 02:30:30.145 106626 bytes 605087 bytes 02:30:17.383 79 2:31:24.116 0:04:01.324 4765 kbps 9406 kbps 02:33:38.709 9137 kbps 02:33:35.330 8786 kbps 02:33:34.872 24844 bytes 229504 bytes 02:33:37.249 80 2:35:25.440 0:00:42.709 12410 kbps 21337 kbps 02:35:58.265 20271 kbps 02:35:55.971 17949 kbps 02:35:53.051 64763 bytes 417358 bytes 02:35:58.598

STREAM DIAGNOSTICS:

File PID Type Codec Language Seconds Bitrate Bytes Packets

---- --- ---- ----- -------- -------------- -------------- ------------- ----- 00229.M2TS 4113 (0x1011) 0xEA VC-1 931,597 19410 2260251952 12297487 00229.M2TS 4352 (0x1100) 0x86 DTS-HD MA eng (English) 931,597 4023 468448400 2691361 00229.M2TS 4353 (0x1101) 0x81 AC3 rus (Russian) 931,597 640 74539520 436755 00229.M2TS 4354 (0x1102) 0x81 AC3 rus (Russian) 931,597 640 74539520 436755 00229.M2TS 4355 (0x1103) 0x81 AC3 eng (English) 931,597 224 26088832 145585 00229.M2TS 4356 (0x1104) 0x81 AC3 eng (English) 931,597 224 26088832 145585 00229.M2TS 4357 (0x1105) 0x81 AC3 rus (Russian) 931,597 640 74539520 436755 00229.M2TS 4358 (0x1106) 0x81 AC3 rus (Russian) 931,597 640 74539520 436755 00229.M2TS 4359 (0x1107) 0x81 AC3 rus (Russian) 931,597 640 74539520 436755 00229.M2TS 4608 (0x1200) 0x90 PGS eng (English) 931,597 19 2217748 12471 00229.M2TS 4609 (0x1201) 0x90 PGS eng (English) 931,597 32 3765580 21257 00229.M2TS 4610 (0x1202) 0x90 PGS spa (Spanish) 931,597 22 2525812 14197 00229.M2TS 4611 (0x1203) 0x90 PGS fra (French) 931,597 13 1514821 8708 00229.M2TS 4612 (0x1204) 0x90 PGS eng (English) 931,597 116 13549572 75308 00229.M2TS 4613 (0x1205) 0x90 PGS spa (Spanish) 931,597 121 14124300 78447 00229.M2TS 4614 (0x1206) 0x90 PGS fra (French) 931,597 113 13112690 72911 00229.M2TS 4615 (0x1207) 0x90 PGS eng (English) 931,597 62 7201286 40627 00229.M2TS 4616 (0x1208) 0x90 PGS spa (Spanish) 931,597 94 10904343 60747 00229.M2TS 4617 (0x1209) 0x90 PGS fra (French) 931,597 56 6492399 36783 00229.M2TS 4618 (0x120A) 0x90 PGS eng (English) 931,597 54 6312687 35479 00229.M2TS 4619 (0x120B) 0x90 PGS spa (Spanish) 931,597 2 264554 1490 00229.M2TS 4620 (0x120C) 0x90 PGS fra (French) 931,597 0 1462 15 00229.M2TS 4621 (0x120D) 0x90 PGS eng (English) 931,597 6 707549 4088 00229.M2TS 4622 (0x120E) 0x90 PGS eng (English) 931,597 41 4817342 26899 00229.M2TS 4623 (0x120F) 0x90 PGS eng (English) 931,597 28 3266720 18686 00229.M2TS 6656 (0x1A00) 0xA2 DTS Express eng (English) 931,597 192 22362112 131028 00229.M2TS 6657 (0x1A01) 0xA2 DTS Express eng (English) 931,597 192 22362112 131028 00229.M2TS 6912 (0x1B00) 0xEA VC-1 931,597 1771 206192668 1138679 00001.M2TS 4113 (0x1011) 0xEA VC-1 85,669 19101 204540423 1112896 00001.M2TS 4352 (0x1100) 0x86 DTS-HD MA eng (English) 85,669 3930 42087584 241993 00001.M2TS 4353 (0x1101) 0x81 AC3 rus (Russian) 85,669 641 6860800 40200 00001.M2TS 4354 (0x1102) 0x81 AC3 rus (Russian) 85,669 641 6860800 40200 00001.M2TS 4355 (0x1103) 0x81 AC3 eng (English) 85,669 224 2401280 13400 00001.M2TS 4356 (0x1104) 0x81 AC3 eng (English) 85,669 224 2401280 13400 00001.M2TS 4357 (0x1105) 0x81 AC3 rus (Russian) 85,669 641 6860800 40200 00001.M2TS 4358 (0x1106) 0x81 AC3 rus (Russian) 85,669 641 6860800 40200 00001.M2TS 4359 (0x1107) 0x81 AC3 rus (Russian) 85,669 641 6860800 40200 00001.M2TS 4608 (0x1200) 0x90 PGS eng (English) 85,669 24 261104 1480 00001.M2TS 4609 (0x1201) 0x90 PGS eng (English) 85,669 34 363671 2064 00001.M2TS 4610 (0x1202) 0x90 PGS spa (Spanish) 85,669 30 320279 1808 00001.M2TS 4611 (0x1203) 0x90 PGS fra (French) 85,669 17 178164 1036 00001.M2TS 4612 (0x1204) 0x90 PGS eng (English) 85,669 100 1069368 5942 00001.M2TS 4613 (0x1205) 0x90 PGS spa (Spanish) 85,669 105 1129311 6268 00001.M2TS 4614 (0x1206) 0x90 PGS fra (French) 85,669 91 978237 5439 00001.M2TS 4615 (0x1207) 0x90 PGS eng (English) 85,669 66 702319 3955 00001.M2TS 4616 (0x1208) 0x90 PGS spa (Spanish) 85,669 105 1124352 6259 00001.M2TS 4617 (0x1209) 0x90 PGS fra (French) 85,669 54 578723 3293 00001.M2TS 4618 (0x120A) 0x90 PGS eng (English) 85,669 16 170519 1053 00001.M2TS 4619 (0x120B) 0x90 PGS spa (Spanish) 85,669 26 281266 1589 00001.M2TS 4620 (0x120C) 0x90 PGS fra (French) 85,669 13 139215 811 00001.M2TS 4621 (0x120D) 0x90 PGS eng (English) 85,669 7 72651 419 00001.M2TS 4622 (0x120E) 0x90 PGS eng (English) 85,669 30 316370 1767 00001.M2TS 4623 (0x120F) 0x90 PGS eng (English) 85,669 23 246816 1417 00001.M2TS 6656 (0x1A00) 0xA2 DTS Express eng (English) 85,669 192 2058240 12060 00001.M2TS 6657 (0x1A01) 0xA2 DTS Express eng (English) 85,669 192 2058240 12060 00001.M2TS 6912 (0x1B00) 0xEA VC-1 85,669 1261 13500993 75145 00002.M2TS 4113 (0x1011) 0xEA VC-1 121,997 19371 295402585 1607202 00002.M2TS 4352 (0x1100) 0x86 DTS-HD MA eng (English) 121,997 3845 58633456 337724 00002.M2TS 4353 (0x1101) 0x81 AC3 rus (Russian) 121,997 641 9771520 57255 00002.M2TS 4354 (0x1102) 0x81 AC3 rus (Russian) 121,997 641 9771520 57255 00002.M2TS 4355 (0x1103) 0x81 AC3 eng (English) 121,997 224 3420032 19085 00002.M2TS 4356 (0x1104) 0x81 AC3 eng (English) 121,997 224 3420032 19085 00002.M2TS 4357 (0x1105) 0x81 AC3 rus (Russian) 121,997 641 9771520 57255 00002.M2TS 4358 (0x1106) 0x81 AC3 rus (Russian) 121,997 641 9771520 57255 00002.M2TS 4359 (0x1107) 0x81 AC3 rus (Russian) 121,997 641 9771520 57255 00002.M2TS 4608 (0x1200) 0x90 PGS eng (English) 121,997 70 1060780 5980 00002.M2TS 4609 (0x1201) 0x90 PGS eng (English) 121,997 79 1204740 6755 00002.M2TS 4610 (0x1202) 0x90 PGS spa (Spanish) 121,997 71 1087778 6136 00002.M2TS 4611 (0x1203) 0x90 PGS fra (French) 121,997 37 569448 3319 00002.M2TS 4612 (0x1204) 0x90 PGS eng (English) 121,997 101 1535848 8569 00002.M2TS 4613 (0x1205) 0x90 PGS spa (Spanish) 121,997 106 1613647 8991 00002.M2TS 4614 (0x1206) 0x90 PGS fra (French) 121,997 101 1534017 8559 00002.M2TS 4615 (0x1207) 0x90 PGS eng (English) 121,997 63 953835 5371 00002.M2TS 4616 (0x1208) 0x90 PGS spa (Spanish) 121,997 90 1366875 7612 00002.M2TS 4617 (0x1209) 0x90 PGS fra (French) 121,997 53 804252 4563 00002.M2TS 4618 (0x120A) 0x90 PGS eng (English) 121,997 22 340096 2031 00002.M2TS 4619 (0x120B) 0x90 PGS spa (Spanish) 121,997 2 27800 158 00002.M2TS 4620 (0x120C) 0x90 PGS fra (French) 121,997 0 1462 15 00002.M2TS 4621 (0x120D) 0x90 PGS eng (English) 121,997 5 71630 413 00002.M2TS 4622 (0x120E) 0x90 PGS eng (English) 121,997 65 997084 5561 00002.M2TS 4623 (0x120F) 0x90 PGS eng (English) 121,997 44 674820 3855 00002.M2TS 6656 (0x1A00) 0xA2 DTS Express eng (English) 121,997 192 2932736 17184 00002.M2TS 6657 (0x1A01) 0xA2 DTS Express eng (English) 121,997 192 2932736 17184 00002.M2TS 6912 (0x1B00) 0xEA VC-1 121,997 2579 39322811 215882 00221.M2TS 4113 (0x1011) 0xEA VC-1 232,774 19427 565251916 3075420 00221.M2TS 4352 (0x1100) 0x86 DTS-HD MA eng (English) 232,774 3814 110984312 639491 00221.M2TS 4353 (0x1101) 0x81 AC3 rus (Russian) 232,774 640 18629120 109155 00221.M2TS 4354 (0x1102) 0x81 AC3 rus (Russian) 232,774 640 18629120 109155 00221.M2TS 4355 (0x1103) 0x81 AC3 eng (English) 232,774 224 6520192 36385 00221.M2TS 4356 (0x1104) 0x81 AC3 eng (English) 232,774 224 6520192 36385 00221.M2TS 4357 (0x1105) 0x81 AC3 rus (Russian) 232,774 640 18629120 109155 00221.M2TS 4358 (0x1106) 0x81 AC3 rus (Russian) 232,774 640 18629120 109155 00221.M2TS 4359 (0x1107) 0x81 AC3 rus (Russian) 232,774 640 18629120 109155 00221.M2TS 4608 (0x1200) 0x90 PGS eng (English) 232,774 22 654171 3721 00221.M2TS 4609 (0x1201) 0x90 PGS eng (English) 232,774 28 824954 4716 00221.M2TS 4610 (0x1202) 0x90 PGS spa (Spanish) 232,774 23 672257 3820 00221.M2TS 4611 (0x1203) 0x90 PGS fra (French) 232,774 14 414424 2434 00221.M2TS 4612 (0x1204) 0x90 PGS eng (English) 232,774 113 3277040 18228 00221.M2TS 4613 (0x1205) 0x90 PGS spa (Spanish) 232,774 118 3443436 19139 00221.M2TS 4614 (0x1206) 0x90 PGS fra (French) 232,774 108 3145938 17511 00221.M2TS 4615 (0x1207) 0x90 PGS eng (English) 232,774 56 1640854 9299 00221.M2TS 4616 (0x1208) 0x90 PGS spa (Spanish) 232,774 89 2597170 14489 00221.M2TS 4617 (0x1209) 0x90 PGS fra (French) 232,774 53 1552985 8801 00221.M2TS 4618 (0x120A) 0x90 PGS eng (English) 232,774 44 1280849 7284 00221.M2TS 4619 (0x120B) 0x90 PGS spa (Spanish) 232,774 19 554632 3154 00221.M2TS 4620 (0x120C) 0x90 PGS fra (French) 232,774 12 342093 2016 00221.M2TS 4621 (0x120D) 0x90 PGS eng (English) 232,774 6 160719 930 00221.M2TS 4622 (0x120E) 0x90 PGS eng (English) 232,774 79 2305332 12885 00221.M2TS 4623 (0x120F) 0x90 PGS eng (English) 232,774 55 1588988 9135 00221.M2TS 6656 (0x1A00) 0xA2 DTS Express eng (English) 232,774 192 5588992 32748 00221.M2TS 6657 (0x1A01) 0xA2 DTS Express eng (English) 232,774 192 5588992 32748 00221.M2TS 6912 (0x1B00) 0xEA VC-1 232,774 3137 91285355 499933 00030.M2TS 4113 (0x1011) 0xEA VC-1 885,218 19288 2134277685 11612149 00030.M2TS 4352 (0x1100) 0x86 DTS-HD MA eng (English) 885,218 4127 456711528 2619843 00030.M2TS 4353 (0x1101) 0x81 AC3 rus (Russian) 885,218 640 70827520 415005 00030.M2TS 4354 (0x1102) 0x81 AC3 rus (Russian) 885,218 640 70827520 415005 00030.M2TS 4355 (0x1103) 0x81 AC3 eng (English) 885,218 224 24789632 138335 00030.M2TS 4356 (0x1104) 0x81 AC3 eng (English) 885,218 224 24789632 138335 00030.M2TS 4357 (0x1105) 0x81 AC3 rus (Russian) 885,218 640 70827520 415005 00030.M2TS 4358 (0x1106) 0x81 AC3 rus (Russian) 885,218 640 70827520 415005 00030.M2TS 4359 (0x1107) 0x81 AC3 rus (Russian) 885,218 640 70827520 415005 00030.M2TS 4608 (0x1200) 0x90 PGS eng (English) 885,218 29 3156979 17817 00030.M2TS 4609 (0x1201) 0x90 PGS eng (English) 885,218 38 4229541 23892 00030.M2TS 4610 (0x1202) 0x90 PGS spa (Spanish) 885,218 28 3065349 17331 00030.M2TS 4611 (0x1203) 0x90 PGS fra (French) 885,218 16 1817985 10510 00030.M2TS 4612 (0x1204) 0x90 PGS eng (English) 885,218 113 12485571 69425 00030.M2TS 4613 (0x1205) 0x90 PGS spa (Spanish) 885,218 113 12483640 69418 00030.M2TS 4614 (0x1206) 0x90 PGS fra (French) 885,218 105 11564958 64412 00030.M2TS 4615 (0x1207) 0x90 PGS eng (English) 885,218 66 7311865 41245 00030.M2TS 4616 (0x1208) 0x90 PGS spa (Spanish) 885,218 100 11086343 61751 00030.M2TS 4617 (0x1209) 0x90 PGS fra (French) 885,218 54 5985313 34037 00030.M2TS 4618 (0x120A) 0x90 PGS eng (English) 885,218 62 6902403 38857 00030.M2TS 4619 (0x120B) 0x90 PGS spa (Spanish) 885,218 0 26439 156 00030.M2TS 4620 (0x120C) 0x90 PGS fra (French) 885,218 0 1462 15 00030.M2TS 4621 (0x120D) 0x90 PGS eng (English) 885,218 5 538142 3114 00030.M2TS 4622 (0x120E) 0x90 PGS eng (English) 885,218 11 1206245 6752 00030.M2TS 4623 (0x120F) 0x90 PGS eng (English) 885,218 7 820885 4706 00030.M2TS 6656 (0x1A00) 0xA2 DTS Express eng (English) 885,218 192 21250048 124512 00030.M2TS 6657 (0x1A01) 0xA2 DTS Express eng (English) 885,218 192 21250048 124512 00030.M2TS 6912 (0x1B00) 0xEA VC-1 885,218 865 95670538 538801 00031.M2TS 4113 (0x1011) 0xEA VC-1 180,097 20410 459460305 2499666 00031.M2TS 4352 (0x1100) 0x86 DTS-HD MA eng (English) 180,097 4027 90646152 520678 00031.M2TS 4353 (0x1101) 0x81 AC3 rus (Russian) 180,097 640 14417920 84480 00031.M2TS 4354 (0x1102) 0x81 AC3 rus (Russian) 180,097 640 14417920 84480 00031.M2TS 4355 (0x1103) 0x81 AC3 eng (English) 180,097 224 5046272 28160 00031.M2TS 4356 (0x1104) 0x81 AC3 eng (English) 180,097 224 5046272 28160 00031.M2TS 4357 (0x1105) 0x81 AC3 rus (Russian) 180,097 640 14417920 84480 00031.M2TS 4358 (0x1106) 0x81 AC3 rus (Russian) 180,097 640 14417920 84480 00031.M2TS 4359 (0x1107) 0x81 AC3 rus (Russian) 180,097 640 14417920 84480 00031.M2TS 4608 (0x1200) 0x90 PGS eng (English) 180,097 27 600715 3399 00031.M2TS 4609 (0x1201) 0x90 PGS eng (English) 180,097 29 659413 3737 00031.M2TS 4610 (0x1202) 0x90 PGS spa (Spanish) 180,097 28 636167 3596 00031.M2TS 4611 (0x1203) 0x90 PGS fra (French) 180,097 15 346719 2001 00031.M2TS 4612 (0x1204) 0x90 PGS eng (English) 180,097 86 1929322 10755 00031.M2TS 4613 (0x1205) 0x90 PGS spa (Spanish) 180,097 91 2053624 11432 00031.M2TS 4614 (0x1206) 0x90 PGS fra (French) 180,097 82 1835627 10242 00031.M2TS 4615 (0x1207) 0x90 PGS eng (English) 180,097 74 1664897 9362 00031.M2TS 4616 (0x1208) 0x90 PGS spa (Spanish) 180,097 112 2513233 13977 00031.M2TS 4617 (0x1209) 0x90 PGS fra (French) 180,097 60 1348697 7649 00031.M2TS 4618 (0x120A) 0x90 PGS eng (English) 180,097 188 4231583 23353 00031.M2TS 4619 (0x120B) 0x90 PGS spa (Spanish) 180,097 0 1462 15 00031.M2TS 4620 (0x120C) 0x90 PGS fra (French) 180,097 0 1462 15 00031.M2TS 4621 (0x120D) 0x90 PGS eng (English) 180,097 6 129201 744 00031.M2TS 4622 (0x120E) 0x90 PGS eng (English) 180,097 58 1316702 7347 00031.M2TS 4623 (0x120F) 0x90 PGS eng (English) 180,097 40 892792 5109 00031.M2TS 6656 (0x1A00) 0xA2 DTS Express eng (English) 180,097 192 4325376 25344 00031.M2TS 6657 (0x1A01) 0xA2 DTS Express eng (English) 180,097 192 4325376 25344 00031.M2TS 6912 (0x1B00) 0xEA VC-1 180,097 3246 73077086 400118 00005.M2TS 4113 (0x1011) 0xEA VC-1 25,317 21512 68078516 370361 00005.M2TS 4352 (0x1100) 0x86 DTS-HD MA eng (English) 25,317 4157 13154228 75375 00005.M2TS 4353 (0x1101) 0x81 AC3 rus (Russian) 25,317 644 2037760 11940 00005.M2TS 4354 (0x1102) 0x81 AC3 rus (Russian) 25,317 644 2037760 11940 00005.M2TS 4355 (0x1103) 0x81 AC3 eng (English) 25,317 225 713216 3980 00005.M2TS 4356 (0x1104) 0x81 AC3 eng (English) 25,317 225 713216 3980 00005.M2TS 4357 (0x1105) 0x81 AC3 rus (Russian) 25,317 644 2037760 11940 00005.M2TS 4358 (0x1106) 0x81 AC3 rus (Russian) 25,317 644 2037760 11940 00005.M2TS 4359 (0x1107) 0x81 AC3 rus (Russian) 25,317 644 2037760 11940 00005.M2TS 4608 (0x1200) 0x90 PGS eng (English) 25,317 16 49085 274 00005.M2TS 4609 (0x1201) 0x90 PGS eng (English) 25,317 27 86098 482 00005.M2TS 4610 (0x1202) 0x90 PGS spa (Spanish) 25,317 14 44678 249 00005.M2TS 4611 (0x1203) 0x90 PGS fra (French) 25,317 9 28674 163 00005.M2TS 4612 (0x1204) 0x90 PGS eng (English) 25,317 116 366087 2027 00005.M2TS 4613 (0x1205) 0x90 PGS spa (Spanish) 25,317 110 349349 1935 00005.M2TS 4614 (0x1206) 0x90 PGS fra (French) 25,317 101 318075 1762 00005.M2TS 4615 (0x1207) 0x90 PGS eng (English) 25,317 57 180393 1015 00005.M2TS 4616 (0x1208) 0x90 PGS spa (Spanish) 25,317 83 261688 1455 00005.M2TS 4617 (0x1209) 0x90 PGS fra (French) 25,317 47 148909 843 00005.M2TS 4618 (0x120A) 0x90 PGS eng (English) 25,317 54 169379 963 00005.M2TS 4619 (0x120B) 0x90 PGS spa (Spanish) 25,317 0 1462 15 00005.M2TS 4620 (0x120C) 0x90 PGS fra (French) 25,317 0 1462 15 00005.M2TS 4621 (0x120D) 0x90 PGS eng (English) 25,317 12 37489 216 00005.M2TS 4622 (0x120E) 0x90 PGS eng (English) 25,317 123 388307 2165 00005.M2TS 4623 (0x120F) 0x90 PGS eng (English) 25,317 83 261462 1496 00005.M2TS 6656 (0x1A00) 0xA2 DTS Express eng (English) 25,317 193 612352 3588 00005.M2TS 6657 (0x1A01) 0xA2 DTS Express eng (English) 25,317 193 612352 3588 00005.M2TS 6912 (0x1B00) 0xEA VC-1 25,317 3485 11027441 60321 00006.M2TS 4113 (0x1011) 0xEA VC-1 181,473 20175 457654545 2489866 00006.M2TS 4352 (0x1100) 0x86 DTS-HD MA eng (English) 181,473 3889 88227900 507828 00006.M2TS 4353 (0x1101) 0x81 AC3 rus (Russian) 181,473 640 14525440 85110 00006.M2TS 4354 (0x1102) 0x81 AC3 rus (Russian) 181,473 640 14525440 85110 00006.M2TS 4355 (0x1103) 0x81 AC3 eng (English) 181,473 224 5083904 28370 00006.M2TS 4356 (0x1104) 0x81 AC3 eng (English) 181,473 224 5083904 28370 00006.M2TS 4357 (0x1105) 0x81 AC3 rus (Russian) 181,473 640 14525440 85110 00006.M2TS 4358 (0x1106) 0x81 AC3 rus (Russian) 181,473 640 14525440 85110 00006.M2TS 4359 (0x1107) 0x81 AC3 rus (Russian) 181,473 640 14525440 85110 00006.M2TS 4608 (0x1200) 0x90 PGS eng (English) 181,473 66 1503460 8445 00006.M2TS 4609 (0x1201) 0x90 PGS eng (English) 181,473 73 1653446 9257 00006.M2TS 4610 (0x1202) 0x90 PGS spa (Spanish) 181,473 66 1505839 8455 00006.M2TS 4611 (0x1203) 0x90 PGS fra (French) 181,473 35 798980 4637 00006.M2TS 4612 (0x1204) 0x90 PGS eng (English) 181,473 103 2346448 13060 00006.M2TS 4613 (0x1205) 0x90 PGS spa (Spanish) 181,473 107 2434086 13537 00006.M2TS 4614 (0x1206) 0x90 PGS fra (French) 181,473 100 2272638 12660 00006.M2TS 4615 (0x1207) 0x90 PGS eng (English) 181,473 63 1440099 8129 00006.M2TS 4616 (0x1208) 0x90 PGS spa (Spanish) 181,473 97 2195392 12226 00006.M2TS 4617 (0x1209) 0x90 PGS fra (French) 181,473 54 1228540 6998 00006.M2TS 4618 (0x120A) 0x90 PGS eng (English) 181,473 106 2407685 13376 00006.M2TS 4619 (0x120B) 0x90 PGS spa (Spanish) 181,473 0 1462 15 00006.M2TS 4620 (0x120C) 0x90 PGS fra (French) 181,473 0 1462 15 00006.M2TS 4621 (0x120D) 0x90 PGS eng (English) 181,473 4 91170 525 00006.M2TS 4622 (0x120E) 0x90 PGS eng (English) 181,473 5 119042 680 00006.M2TS 4623 (0x120F) 0x90 PGS eng (English) 181,473 5 116152 680 00006.M2TS 6656 (0x1A00) 0xA2 DTS Express eng (English) 181,473 192 4358144 25536 00006.M2TS 6657 (0x1A01) 0xA2 DTS Express eng (English) 181,473 192 4358144 25536 00006.M2TS 6912 (0x1B00) 0xEA VC-1 181,473 984 22331832 125177 00219.M2TS 4113 (0x1011) 0xEA VC-1 134,468 19946 335255443 1823973 00219.M2TS 4352 (0x1100) 0x86 DTS-HD MA eng (English) 134,468 3785 63617936 366485 00219.M2TS 4353 (0x1101) 0x81 AC3 rus (Russian) 134,468 640 10764800 63075 00219.M2TS 4354 (0x1102) 0x81 AC3 rus (Russian) 134,468 640 10764800 63075 00219.M2TS 4355 (0x1103) 0x81 AC3 eng (English) 134,468 224 3767680 21025 00219.M2TS 4356 (0x1104) 0x81 AC3 eng (English) 134,468 224 3767680 21025 00219.M2TS 4357 (0x1105) 0x81 AC3 rus (Russian) 134,468 640 10764800 63075 00219.M2TS 4358 (0x1106) 0x81 AC3 rus (Russian) 134,468 640 10764800 63075 00219.M2TS 4359 (0x1107) 0x81 AC3 rus (Russian) 134,468 640 10764800 63075 00219.M2TS 4608 (0x1200) 0x90 PGS eng (English) 134,468 17 289846 1620 00219.M2TS 4609 (0x1201) 0x90 PGS eng (English) 134,468 21 354327 1994 00219.M2TS 4610 (0x1202) 0x90 PGS spa (Spanish) 134,468 18 302654 1692 00219.M2TS 4611 (0x1203) 0x90 PGS fra (French) 134,468 11 181233 1026 00219.M2TS 4612 (0x1204) 0x90 PGS eng (English) 134,468 125 2109067 11701 00219.M2TS 4613 (0x1205) 0x90 PGS spa (Spanish) 134,468 112 1876874 10426 00219.M2TS 4614 (0x1206) 0x90 PGS fra (French) 134,468 105 1765906 9828 00219.M2TS 4615 (0x1207) 0x90 PGS eng (English) 134,468 63 1059557 5998 00219.M2TS 4616 (0x1208) 0x90 PGS spa (Spanish) 134,468 87 1457804 8144 00219.M2TS 4617 (0x1209) 0x90 PGS fra (French) 134,468 62 1035784 5879 00219.M2TS 4618 (0x120A) 0x90 PGS eng (English) 134,468 0 1462 15 00219.M2TS 4619 (0x120B) 0x90 PGS spa (Spanish) 134,468 0 1462 15 00219.M2TS 4620 (0x120C) 0x90 PGS fra (French) 134,468 0 1462 15 00219.M2TS 4621 (0x120D) 0x90 PGS eng (English) 134,468 10 164272 948 00219.M2TS 4622 (0x120E) 0x90 PGS eng (English) 134,468 0 1462 15 00219.M2TS 4623 (0x120F) 0x90 PGS eng (English) 134,468 0 1462 15 00219.M2TS 6656 (0x1A00) 0xA2 DTS Express eng (English) 134,468 192 3229696 18924 00219.M2TS 6657 (0x1A01) 0xA2 DTS Express eng (English) 134,468 192 3229696 18924 00219.M2TS 6912 (0x1B00) 0xEA VC-1 134,468 14 227877 4314 00008.M2TS 4113 (0x1011) 0xEA VC-1 1448,822 19026 3445643840 18747339 00008.M2TS 4352 (0x1100) 0x86 DTS-HD MA eng (English) 1448,822 4008 725894392 4171384 00008.M2TS 4353 (0x1101) 0x81 AC3 rus (Russian) 1448,822 640 115914240 679185 00008.M2TS 4354 (0x1102) 0x81 AC3 rus (Russian) 1448,822 640 115914240 679185 00008.M2TS 4355 (0x1103) 0x81 AC3 eng (English) 1448,822 224 40569984 226395 00008.M2TS 4356 (0x1104) 0x81 AC3 eng (English) 1448,822 224 40569984 226395 00008.M2TS 4357 (0x1105) 0x81 AC3 rus (Russian) 1448,822 640 115914240 679185 00008.M2TS 4358 (0x1106) 0x81 AC3 rus (Russian) 1448,822 640 115914240 679185 00008.M2TS 4359 (0x1107) 0x81 AC3 rus (Russian) 1448,822 640 115914240 679185 00008.M2TS 4608 (0x1200) 0x90 PGS eng (English) 1448,822 28 5015209 28493 00008.M2TS 4609 (0x1201) 0x90 PGS eng (English) 1448,822 35 6337886 35935 00008.M2TS 4610 (0x1202) 0x90 PGS spa (Spanish) 1448,822 29 5184619 29418 00008.M2TS 4611 (0x1203) 0x90 PGS fra (French) 1448,822 16 2912643 16991 00008.M2TS 4612 (0x1204) 0x90 PGS eng (English) 1448,822 93 16768414 93413 00008.M2TS 4613 (0x1205) 0x90 PGS spa (Spanish) 1448,822 97 17490028 97356 00008.M2TS 4614 (0x1206) 0x90 PGS fra (French) 1448,822 88 16025665 89366 00008.M2TS 4615 (0x1207) 0x90 PGS eng (English) 1448,822 64 11644299 65625 00008.M2TS 4616 (0x1208) 0x90 PGS spa (Spanish) 1448,822 94 17105147 95292 00008.M2TS 4617 (0x1209) 0x90 PGS fra (French) 1448,822 53 9666966 54925 00008.M2TS 4618 (0x120A) 0x90 PGS eng (English) 1448,822 45 8114700 46308 00008.M2TS 4619 (0x120B) 0x90 PGS spa (Spanish) 1448,822 0 57431 325 00008.M2TS 4620 (0x120C) 0x90 PGS fra (French) 1448,822 0 1462 15 00008.M2TS 4621 (0x120D) 0x90 PGS eng (English) 1448,822 4 800448 4621 00008.M2TS 4622 (0x120E) 0x90 PGS eng (English) 1448,822 14 2495368 13983 00008.M2TS 4623 (0x120F) 0x90 PGS eng (English) 1448,822 9 1702148 9784 00008.M2TS 6656 (0x1A00) 0xA2 DTS Express eng (English) 1448,822 192 34775040 203760 00008.M2TS 6657 (0x1A01) 0xA2 DTS Express eng (English) 1448,822 192 34775040 203760 00008.M2TS 6912 (0x1B00) 0xEA VC-1 1448,822 782 141592718 800423 00032.M2TS 4113 (0x1011) 0xEA VC-1 260,343 19292 627807814 3415773 00032.M2TS 4352 (0x1100) 0x86 DTS-HD MA eng (English) 260,343 3975 129368916 743837 00032.M2TS 4353 (0x1101) 0x81 AC3 rus (Russian) 260,343 640 20835840 122085 00032.M2TS 4354 (0x1102) 0x81 AC3 rus (Russian) 260,343 640 20835840 122085 00032.M2TS 4355 (0x1103) 0x81 AC3 eng (English) 260,343 224 7292544 40695 00032.M2TS 4356 (0x1104) 0x81 AC3 eng (English) 260,343 224 7292544 40695 00032.M2TS 4357 (0x1105) 0x81 AC3 rus (Russian) 260,343 640 20835840 122085 00032.M2TS 4358 (0x1106) 0x81 AC3 rus (Russian) 260,343 640 20835840 122085 00032.M2TS 4359 (0x1107) 0x81 AC3 rus (Russian) 260,343 640 20835840 122085 00032.M2TS 4608 (0x1200) 0x90 PGS eng (English) 260,343 46 1503621 8481 00032.M2TS 4609 (0x1201) 0x90 PGS eng (English) 260,343 50 1623238 9148 00032.M2TS 4610 (0x1202) 0x90 PGS spa (Spanish) 260,343 50 1625983 9157 00032.M2TS 4611 (0x1203) 0x90 PGS fra (French) 260,343 28 907143 5229 00032.M2TS 4612 (0x1204) 0x90 PGS eng (English) 260,343 116 3770467 20973 00032.M2TS 4613 (0x1205) 0x90 PGS spa (Spanish) 260,343 123 3987982 22153 00032.M2TS 4614 (0x1206) 0x90 PGS fra (French) 260,343 112 3639110 20248 00032.M2TS 4615 (0x1207) 0x90 PGS eng (English) 260,343 58 1893974 10667 00032.M2TS 4616 (0x1208) 0x90 PGS spa (Spanish) 260,343 91 2957503 16460 00032.M2TS 4617 (0x1209) 0x90 PGS fra (French) 260,343 50 1639387 9288 00032.M2TS 4618 (0x120A) 0x90 PGS eng (English) 260,343 5 168923 927 00032.M2TS 4619 (0x120B) 0x90 PGS spa (Spanish) 260,343 37 1210696 6827 00032.M2TS 4620 (0x120C) 0x90 PGS fra (French) 260,343 19 628319 3660 00032.M2TS 4621 (0x120D) 0x90 PGS eng (English) 260,343 3 108909 630 00032.M2TS 4622 (0x120E) 0x90 PGS eng (English) 260,343 10 318731 1789 00032.M2TS 4623 (0x120F) 0x90 PGS eng (English) 260,343 7 218670 1250 00032.M2TS 6656 (0x1A00) 0xA2 DTS Express eng (English) 260,343 192 6250496 36624 00032.M2TS 6657 (0x1A01) 0xA2 DTS Express eng (English) 260,343 192 6250496 36624 00032.M2TS 6912 (0x1B00) 0xEA VC-1 260,343 505 16442751 95075 00010.M2TS 4113 (0x1011) 0xEA VC-1 105,856 20167 266848831 1451781 00010.M2TS 4352 (0x1100) 0x86 DTS-HD MA eng (English) 105,856 3896 51552872 296768 00010.M2TS 4353 (0x1101) 0x81 AC3 rus (Russian) 105,856 641 8476160 49665 00010.M2TS 4354 (0x1102) 0x81 AC3 rus (Russian) 105,856 641 8476160 49665 00010.M2TS 4355 (0x1103) 0x81 AC3 eng (English) 105,856 224 2966656 16555 00010.M2TS 4356 (0x1104) 0x81 AC3 eng (English) 105,856 224 2966656 16555 00010.M2TS 4357 (0x1105) 0x81 AC3 rus (Russian) 105,856 641 8476160 49665 00010.M2TS 4358 (0x1106) 0x81 AC3 rus (Russian) 105,856 641 8476160 49665 00010.M2TS 4359 (0x1107) 0x81 AC3 rus (Russian) 105,856 641 8476160 49665 00010.M2TS 4608 (0x1200) 0x90 PGS eng (English) 105,856 39 518852 2922 00010.M2TS 4609 (0x1201) 0x90 PGS eng (English) 105,856 48 629951 3563 00010.M2TS 4610 (0x1202) 0x90 PGS spa (Spanish) 105,856 40 524271 2949 00010.M2TS 4611 (0x1203) 0x90 PGS fra (French) 105,856 25 325483 1871 00010.M2TS 4612 (0x1204) 0x90 PGS eng (English) 105,856 102 1355502 7522 00010.M2TS 4613 (0x1205) 0x90 PGS spa (Spanish) 105,856 105 1388621 7705 00010.M2TS 4614 (0x1206) 0x90 PGS fra (French) 105,856 89 1175924 6546 00010.M2TS 4615 (0x1207) 0x90 PGS eng (English) 105,856 54 718307 4041 00010.M2TS 4616 (0x1208) 0x90 PGS spa (Spanish) 105,856 75 996448 5547 00010.M2TS 4617 (0x1209) 0x90 PGS fra (French) 105,856 45 601319 3409 00010.M2TS 4618 (0x120A) 0x90 PGS eng (English) 105,856 13 168923 927 00010.M2TS 4619 (0x120B) 0x90 PGS spa (Spanish) 105,856 0 1462 15 00010.M2TS 4620 (0x120C) 0x90 PGS fra (French) 105,856 0 1462 15 00010.M2TS 4621 (0x120D) 0x90 PGS eng (English) 105,856 6 73439 424 00010.M2TS 4622 (0x120E) 0x90 PGS eng (English) 105,856 0 1462 15 00010.M2TS 4623 (0x120F) 0x90 PGS eng (English) 105,856 0 1166 14 00010.M2TS 6656 (0x1A00) 0xA2 DTS Express eng (English) 105,856 192 2543616 14904 00010.M2TS 6657 (0x1A01) 0xA2 DTS Express eng (English) 105,856 192 2543616 14904 00010.M2TS 6912 (0x1B00) 0xEA VC-1 105,856 14 179294 3396 00011.M2TS 4113 (0x1011) 0xEA VC-1 111,778 19221 268565021 1461236 00011.M2TS 4352 (0x1100) 0x86 DTS-HD MA eng (English) 111,778 4002 55914484 321356 00011.M2TS 4353 (0x1101) 0x81 AC3 rus (Russian) 111,778 641 8952320 52455 00011.M2TS 4354 (0x1102) 0x81 AC3 rus (Russian) 111,778 641 8952320 52455 00011.M2TS 4355 (0x1103) 0x81 AC3 eng (English) 111,778 224 3133312 17485 00011.M2TS 4356 (0x1104) 0x81 AC3 eng (English) 111,778 224 3133312 17485 00011.M2TS 4357 (0x1105) 0x81 AC3 rus (Russian) 111,778 641 8952320 52455 00011.M2TS 4358 (0x1106) 0x81 AC3 rus (Russian) 111,778 641 8952320 52455 00011.M2TS 4359 (0x1107) 0x81 AC3 rus (Russian) 111,778 641 8952320 52455 00011.M2TS 4608 (0x1200) 0x90 PGS eng (English) 111,778 42 584194 3323 00011.M2TS 4609 (0x1201) 0x90 PGS eng (English) 111,778 59 830581 4724 00011.M2TS 4610 (0x1202) 0x90 PGS spa (Spanish) 111,778 42 587657 3347 00011.M2TS 4611 (0x1203) 0x90 PGS fra (French) 111,778 29 400964 2344 00011.M2TS 4612 (0x1204) 0x90 PGS eng (English) 111,778 116 1621381 9012 00011.M2TS 4613 (0x1205) 0x90 PGS spa (Spanish) 111,778 115 1601124 8900 00011.M2TS 4614 (0x1206) 0x90 PGS fra (French) 111,778 107 1489310 8295 00011.M2TS 4615 (0x1207) 0x90 PGS eng (English) 111,778 56 777201 4367 00011.M2TS 4616 (0x1208) 0x90 PGS spa (Spanish) 111,778 85 1184005 6588 00011.M2TS 4617 (0x1209) 0x90 PGS fra (French) 111,778 43 597257 3392 00011.M2TS 4618 (0x120A) 0x90 PGS eng (English) 111,778 12 168923 927 00011.M2TS 4619 (0x120B) 0x90 PGS spa (Spanish) 111,778 35 482097 2746 00011.M2TS 4620 (0x120C) 0x90 PGS fra (French) 111,778 20 273209 1599 00011.M2TS 4621 (0x120D) 0x90 PGS eng (English) 111,778 5 75766 437 00011.M2TS 4622 (0x120E) 0x90 PGS eng (English) 111,778 26 363910 2037 00011.M2TS 4623 (0x120F) 0x90 PGS eng (English) 111,778 18 246692 1417 00011.M2TS 6656 (0x1A00) 0xA2 DTS Express eng (English) 111,778 192 2686976 15744 00011.M2TS 6657 (0x1A01) 0xA2 DTS Express eng (English) 111,778 192 2686976 15744 00011.M2TS 6912 (0x1B00) 0xEA VC-1 111,778 1179 16466898 91788 00012.M2TS 4113 (0x1011) 0xEA VC-1 95,887 18944 227056938 1235399 00012.M2TS 4352 (0x1100) 0x86 DTS-HD MA eng (English) 95,887 3813 45704752 263410 00012.M2TS 4353 (0x1101) 0x81 AC3 rus (Russian) 95,887 641 7680000 45000 00012.M2TS 4354 (0x1102) 0x81 AC3 rus (Russian) 95,887 641 7680000 45000 00012.M2TS 4355 (0x1103) 0x81 AC3 eng (English) 95,887 224 2688000 15000 00012.M2TS 4356 (0x1104) 0x81 AC3 eng (English) 95,887 224 2688000 15000 00012.M2TS 4357 (0x1105) 0x81 AC3 rus (Russian) 95,887 641 7680000 45000 00012.M2TS 4358 (0x1106) 0x81 AC3 rus (Russian) 95,887 641 7680000 45000 00012.M2TS 4359 (0x1107) 0x81 AC3 rus (Russian) 95,887 641 7680000 45000 00012.M2TS 4608 (0x1200) 0x90 PGS eng (English) 95,887 94 1125017 6308 00012.M2TS 4609 (0x1201) 0x90 PGS eng (English) 95,887 96 1146226 6409 00012.M2TS 4610 (0x1202) 0x90 PGS spa (Spanish) 95,887 97 1162016 6511 00012.M2TS 4611 (0x1203) 0x90 PGS fra (French) 95,887 57 679745 3881 00012.M2TS 4612 (0x1204) 0x90 PGS eng (English) 95,887 113 1349429 7509 00012.M2TS 4613 (0x1205) 0x90 PGS spa (Spanish) 95,887 118 1415015 7861 00012.M2TS 4614 (0x1206) 0x90 PGS fra (French) 95,887 104 1248558 6956 00012.M2TS 4615 (0x1207) 0x90 PGS eng (English) 95,887 62 745144 4179 00012.M2TS 4616 (0x1208) 0x90 PGS spa (Spanish) 95,887 85 1021089 5685 00012.M2TS 4617 (0x1209) 0x90 PGS fra (French) 95,887 48 581102 3294 00012.M2TS 4618 (0x120A) 0x90 PGS eng (English) 95,887 14 168923 927 00012.M2TS 4619 (0x120B) 0x90 PGS spa (Spanish) 95,887 0 1462 15 00012.M2TS 4620 (0x120C) 0x90 PGS fra (French) 95,887 0 1462 15 00012.M2TS 4621 (0x120D) 0x90 PGS eng (English) 95,887 5 55723 321 00012.M2TS 4622 (0x120E) 0x90 PGS eng (English) 95,887 18 212042 1180 00012.M2TS 4623 (0x120F) 0x90 PGS eng (English) 95,887 15 182357 1040 00012.M2TS 6656 (0x1A00) 0xA2 DTS Express eng (English) 95,887 192 2304000 13500 00012.M2TS 6657 (0x1A01) 0xA2 DTS Express eng (English) 95,887 192 2304000 13500 00012.M2TS 6912 (0x1B00) 0xEA VC-1 95,887 748 8969968 50819 00013.M2TS 4113 (0x1011) 0xEA VC-1 180,389 20466 461481880 2510659 00013.M2TS 4352 (0x1100) 0x86 DTS-HD MA eng (English) 180,389 3828 86317720 497871 00013.M2TS 4353 (0x1101) 0x81 AC3 rus (Russian) 180,389 640 14438400 84600 00013.M2TS 4354 (0x1102) 0x81 AC3 rus (Russian) 180,389 640 14438400 84600

unionpeer.com

Терминатор 2: Судный день 1991

Название: Терминатор 2: Судный день / Terminator 2: Judgment Day (1991) HDRip | A | Режиссерская версия
Качество видео: HDRip
Перевод: Авторский (одноголосый, закадровый) Д.Есарев
Видео: 720x304 (2.37:1), 23.976 fps, XviD build 73 ~1585 kbps avg, 0.30 bit/pixel
Аудио: 48 kHz, AC3 Dolby Digital, 3/2 (L,C,R,l,r) + LFE ch, ~448 kbps
Скачать

Загрузка начнется в течение 5 сек.

2.19 GB

Название: Терминатор 2: Судный день / Terminator 2: Judgment Day (1991) BDRip 1080p
Качество видео: BDRip 1080p
Перевод: Профессиональный (многоголосый, закадровый) Киномания + Авторский (одноголосый, закадровый) Андрей Гаврилов + Авторский (одноголосый, закадровый) Дмитрий Пучков |ГОБЛИН| + Оригинал
Видео: x264 MPEG4 Video (h364), 1920x816, 23.976fps
Аудио: Аудио #1: AC3, 6 ch, 640 Кбит/с |Многоголосый, Киномания
Скачать

Загрузка начнется в течение 5 сек.

12.83 GB

Название: Терминатор 2: Судный день / Terminator 2: Judgment Day (1991) HDRip (AVC) | Director's Cut | New Lionsgate Transfer от ExKinoRay
Качество видео: HDRip(AVC)
Перевод: Профессиональный (многоголосый, закадровый) "Киномания" (полный)
Видео: x264 720x306, 1168 Кбит/с, 23,976
Аудио: AC3, 2 ch, 192 Кбит/с (MVO "Киномания")
Скачать

Загрузка начнется в течение 5 сек.

1.46 GB

Название: Терминатор 2: Судный день / Terminator 2: Judgment Day (1991) BDRemux 1080p | Director's Cut | New Lionsgate Transfer
Качество видео: BDRemux 1080p (Источник: Terminator.2.Judgment.Day.1991.Lionsgate.Transfer.2015.2in1.1080p.BluRay.AVC.DTS-HD.MA.5.1-FGT)
Перевод: Профессиональный (многоголосый, закадровый) x 2
Формат видео: MKV
Видео: MPEG-4 AVC 1920x1080 pix, 23.976 fps, 24921 kbps
Аудио: DTS 5.1 ch, 48 kHz, 1509 kbps, 24-bit (MVO "Позитив-Мультимедиа")DTS 5.1 ch, 48 kHz, 1509 kbps, 24-bit (MVO "Киномания")DTS-HD MA 5.1 ch, 48 kHz, 3838 kbps, 24-bit (DTS Core: 5.1 ch, 48 kHz, 1509 kbps, 24-bit) (Eng "Original")
Скачать

Загрузка начнется в течение 5 сек.

33.95 GB

Название: Терминатор 2: Судный день / Terminator 2: Judgment Day (1991) BDRip 720p | Director's Cut | New Lionsgate Transfer
Качество видео: BDRip 720p (Источник: Blu-ray)
Перевод: Многоголосый закадровый (Позитив-Мультимедиа, Киномания)
Формат видео: MKV
Видео: MPEG-4 AVC 1280x544 pix, 23.976 fps, 5328 kbps, 0.319 Bits/Pixel
Аудио: Dolby Digital 5.1 ch, 48 kHz, 640 kbps (MVO "Позитив-Мультимедиа")Dolby Digital 5.1 ch, 48 kHz, 640 kbps (MVO "Киномания")Dolby Digital 5.1 ch, 48 kHz, 640 kbps (Eng "Original")
Скачать

Загрузка начнется в течение 5 сек.

7.76 GB

Название: Терминатор 2: Судный день / Terminator 2: Judgment Day (1991) BDRip 1080p | Director's Cut | New Lionsgate Transfer
Качество видео: BDRip (источник: Blu-ray Disc)
Перевод: Многоголосый закадровый (Позитив-Мультимедиа, Киномания) + Оригинал
Видео: x264 1920x816 (2,35:1), 23.976 fps, 8920 kbps
Аудио: AC-3, 6 ch, 640 kbps (Многоголосый закадровый, Позитив-Мультимедиа)AC-3, 6 ch, 640 kbps (Многоголосый закадровый, Киномания)AC-3, 6 ch, 640 kbps (Original)
Скачать

Загрузка начнется в течение 5 сек.

11.56 GB

Название: Терминатор 2: Судный День / Terminator 2: Judgment Day (1991) HDRip от Scarabey | Киномания
Качество видео: HDRip
Перевод: Профессиональный (многоголосый, закадровый) [Киномания]
Видео: 720x304 (2.37:1), 23.976 fps, XviD build 50 ~1154 kbps avg, 0.22 bit/pixel
Аудио: 48 kHz, AC3 Dolby Digital, 2/0 (L,R) ch, ~192.00 kbps avg[/font][/size]
Скачать

Загрузка начнется в течение 5 сек.

1.45 GB

Название: Терминатор 2: Судный день / Terminator 2: Judgment Day (1991) BDRip от PashaUp | Смешной перевод
Качество видео: BDRip
Видео: XviD (AVI) 720х304, 1904 Кбит/сек, 23,976 кадра/сек
Аудио: AC3, 6 каналов, 448 Кбит/сек, 48,0 КГц
Скачать

Загрузка начнется в течение 5 сек.

2.58 GB

Название: Терминатор 2: Судный День / Terminator 2: Judgment Day (1991) HDRip | А | Skynet Edition
Качество видео: HDRip
Перевод: Авторский (одноголосый, закадровый) В.Дохалов (вставки на расширенные моменты многоголосый закадровый "Позитив-Мультимедиа")
Видео: Xvid, 656x280 (2.35:1), 23.976 fps, ~1 137 Kbps (0.258 bit/pixel)
Аудио: AC3, 2 ch, 192 Kbps, CBR
Скачать

Загрузка начнется в течение 5 сек.

1.46 GB

Название: Терминатор 2: Судный День / Terminator 2: Judgment Day (1991) HDRip от Scarabey | Р | Режиссерская версия
Качество видео: HDRip
Перевод: Профессиональный (многоголосый, закадровый) "Позитив&quot
Видео: 720x304 (2.37:1), 23.976 fps, XviD build 50 ~1581 kbps avg, 0.30 bit/pixel
Аудио: 48 kHz, AC3 Dolby Digital, 3/2 (L,C,R,l,r) + LFE ch, ~448.00 kbps avg
Скачать

Загрузка начнется в течение 5 сек.

2.18 GB

Название: Терминатор 2: Судный День / Terminator 2: Judgment Day (1991) HDRip от Scarabey | Р | Режиссерская версия
Качество видео: HDRip
Перевод: Профессиональный (многоголосый, закадровый) "Позитив&quot
Видео: 720x304 (2.37:1), 23.976 fps, XviD build 50 ~1153 kbps avg, 0.22 bit/pixel
Аудио: 48 kHz, AC3 Dolby Digital, 2/0 (L,R) ch, ~192.00 kbps avg
Скачать

Загрузка начнется в течение 5 сек.

1.45 GB

Название: Терминатор 2 - Судный день / Terminator 2: Judgment Day (1991) BDRip-AVC | Extended Special Edition | P, A
Качество видео: BDRip-AVC
Перевод: 2х Многоголосный + 2х авторский + оригинал
Видео: h.264 MPEG-4, 1152x490, 23.976 fps ~2727 kbps
Аудио: 1) HE-AAC 6 ch, 24|48 kHz ~256 kbps - MVO [Киномания]
Скачать

Загрузка начнется в течение 5 сек.

4.37 GB

Название: Терминатор 2: Судный День / Terminator 2: Judgment Day (1991) HDRip от Scarabey | Р | Расширенная версия
Качество видео: HDRip
Перевод: Профессиональный (многоголосый, закадровый) "Позитив&quot
Видео: 720x304 (2.37:1), 23.976 fps, XviD build 50 ~1129 kbps avg, 0.22 bit/pixel
Аудио: 48 kHz, AC3 Dolby Digital, 2/0 (L,R) ch, ~192.00 kbps avg
Скачать

Загрузка начнется в течение 5 сек.

1.45 GB

Название: Терминатор 2: Судный день / Terminator 2: Judgment Day (1991) BDRip 720p | Director's Cut | 60 fps
Качество видео: BD 720p 60fps
Перевод: 3 Профессиональных многоголоски + 2 одноголоски.
Видео: x264 1280x544 (2,35:1), 59.934 fps, 3000 kbps
Аудио: AC3, 6 ch, 384 kbps (ОРТ)
Скачать

Загрузка начнется в течение 5 сек.

4.36 GB

Название: Терминатор 2: Судный день / Terminator 2: Judgment Day (1991) HDRip | Режиссерская версия | P
Качество видео: HDRip
Перевод: Профессиональный (многоголосый) [Позитив-Мультимедиа]
Видео: Xvid 720x304 (2.37:1), 23.976 fps, 1154 kbps avg, 0.22 bit/pixel
Аудио: 48 kHz, AC3 Dolby Digital, 2/0 (L,R) ch, ~192.00 kbps avg
Скачать

Загрузка начнется в течение 5 сек.

1.45 GB

Название: Терминатор 2: Судный день / Terminator 2: Judgment Day (1991) Blu-Ray Remux 1080p | Director's Cut
Качество видео: Blu-Ray Remux 1080p
Перевод: Многоголосый закадровый (Киномания)
Видео: VC-1 1920x1080 (16:9), 23.976 fps, 29.4 Mbps
Аудио: DTS, 6 ch, 1 510 kbps (Rus)
Скачать

Загрузка начнется в течение 5 сек.

24.16 GB

Название: Терминатор 2: Судный день / Terminator 2: Judgment Day (1991) BDRip-AVC от HELLYWOOD | Специальная расширенная версия
Видео: х.264, 1024x434 (2,35:1), 23,976 fps, 2205 Кbps, 0.207 bit/pixel
Аудио: 48 kHz, AC3 Dolby Digital, 3/2 (L,C,R,l,r) + LFE ch, 448.00 kbps | MVO - Позитив48 kHz, AC3 Dolby Digital, 3/2 (L,C,R,l,r) + LFE ch, 448.00 kbps | AVO - Гоблин48 kHz, AC3 Dolby Digital, 3/2 (L,C,R,l,r) + LFE ch, 448.00 kbps | ENG48 kHz, AC3 Dolby Digital, 3/2 (L,C,R,l,r) + LFE ch, 448.00 kbps | AVO - Гаврилов ( отдельно на disk yandex.ru)48 kHz, AC3 Dolby Digital, 3/2 (L,C,R,l,r) + LFE ch, 448.00 kbps | MVO - Киномания ( отдельно на disk yandex.ru)
Скачать

Загрузка начнется в течение 5 сек.

3.87 GB

Название: Терминатор 2: Судный день / Terminator 2: Judgment Day (1991) DVD9+DVD5 | Режиссерская версия
Качество видео: DVD9+DVD5
Видео: MPEG2 PAL 16:9 ([email protected]) VBR 5049 Kbps, 25.000 fps
Аудио: Dolby AC3, 6 ch, 48.0 KHz, 448 Kbps русский MVO, Ю.Живов, английскийDTS 6 ch, 48.0 KHz, 755 Kbps русский MVO
Скачать

Загрузка начнется в течение 5 сек.

11.69 GB

Название: Терминатор 2: Судный день / Terminator 2: Judgment Day (1991) HDRip-AVC | P, A | Extended Special Edition
Качество видео: HDRip-AVC
Перевод: Профессиональный (многоголосый, закадровый) Киномания + Профессиональный (многоголосый, закадровый)Позитив + Авторский (одноголосый, закадровый) Андрей Гаврилов + Авторский (одноголосый, закадровый) Г
Видео: x264 1152х490 (2.35:1), 2727 Kbps, 23.976 fps, 0.201 bit/pixel
Аудио: Аудио #1: AAC 6 ch, 48 kHz ~256 kbps - MVO (Киномания)
Скачать

Загрузка начнется в течение 5 сек.

4.37 GB

Название: Терминатор 2: Судный день / Terminator 2: Judgment Day (1991) BDRip-AVC | P, A | Расширенная версия
Качество видео: BDRip-AVC (Источник: Blu-ray Remux)
Формат видео: MKV
Видео: 1024x432 (2.40:1), 23.976 fps, 2158 kbps, 0.203 bit/pixel
Аудио: AC-3, 6 ch, 384 kbps (Многоголосый Киномания)AC-3, 6 ch, 384 kbps (Многоголосый Позитив-Мультимедиа)AC-3, 6 ch, 384 kbps (Одноголосый Гоблин)AC-3, 6 ch, 384 kbps (Одноголосый Андрей Гаврилов)AC-3, 6 ch, 384 kbps (Английский Оригинал)
Скачать

Загрузка начнется в течение 5 сек.

4.37 GB

Название: Терминатор 2: Судный день / Terminator 2: Judgment Day (1991) BDRip 1080p | Extended Special Edition | 60 fps | P, A
Качество видео: BDRip 1080p (исходник Blu-ray Disc Remux)
Перевод: Профессиональный (Многоголосый закадровый), Авторский (Д.Пучков), Авторский (А.Гаврилов)
Видео: 1916x816, 14240 Кбит/сек, 59.940 кадр/сек, AVC, x264, [email protected], 2.35:1, 0.152 Бит/[Пиксели*Кадры], 2pass
Аудио: AC-3, 448 Кбит/сек, 6 канала(ов), 48,0 КГц - Многоголосый закадровый, Киномания / РусскийAC-3, 448 Кбит/сек, 6 канала(ов), 48,0 КГц - Многоголосый закадровый, Позитив / РусскийAC-3, 448 Кбит/сек, 6 канала(ов), 48,0 КГц - Одноголосый закадровый, Д.Пучков aka Гоблин / Русский *AC-3, 448 Кбит/сек, 6 канала(ов), 48,0 КГц - Одноголосый закадровый, А.Гаврилов / РусскийAC-3, 640 Кбит/сек, 6 канала(ов), 48,0 КГц - Оригинал / Английский
Скачать

Загрузка начнется в течение 5 сек.

18.16 GB

Название: Терминатор 2: Судный день / Terminator 2: Judgment Day (1991) BDRip 1080p | Специальная расширенная версия
Качество видео: BDRip 1080p (источник: Blu-ray Remux / 1080p)
Перевод: Профессиональный (многоголосый, закадровый) Киномания + Авторский (одноголосый, закадровый) Андрей Гаврилов + Авторский (одноголосый, закадровый) Дмитрий Пучков |ГОБЛИН| + Оригинал
Видео: x264 1920х816 (2.35:1), 9355 Kbps, 23.976 fps, 0.249 bit/pixel
Аудио: 48.0 kHz, AC3 Dolby Digital, 3/2 (L,C,R,l,r) + LFE ch, 640 kbps [Многоголосый, Киномания]48.0 kHz, AC3 Dolby Digital, 3/2 (L,C,R,l,r) + LFE ch, 640 kbps [Авторский, А. Гаврилов]48.0 kHz, AC3 Dolby Digital, 3/2 (L,C,R,l,r) + LFE ch, 640 kbps [Авторский, Д. Пучков |ГОБЛИН|] присутствует ненормативная лексика48.0 kHz, AC3 Dolby Digital, 3/2 (L,C,R,l,r) + LFE ch, 640 kbps [Английский]
Скачать

Загрузка начнется в течение 5 сек.

13.00 GB

Название: Терминатор 2: Судный день / Terminator 2: Judgment Day (1991) BDRip 1080p от Youtracker | Special Edition
Качество видео: BDRip | Sample
Видео: AVC, 1912x800 (2.40:1), 14000 kbps, 23,976 fps, 0,382 bpp
Аудио: DTS / 5.1 / 48 kHz / 1510 kbps / 24 bit ||DTS-HD / 5.1 / 48 kHz / 1575 kbps / 16 bit (Core: 5.1 / 48 kHz / 1510 kbps / 16 bit)
Скачать

Загрузка начнется в течение 5 сек.

18.92 GB

Название: Терминатор 2: Судный день / Terminator 2: Judgment Day (1991) BDRip 720p от leonardo 59
Качество видео: BDRip 720p Исходник: Blu-ray
Перевод: Профессиональный (многоголосый, закадровый)
Формат видео: MKV Видео кодек: MPEG-4 AVC Аудио кодек: AC3
Видео: AVC, 1280x544 (2.35:1) at 23.976 fps, AVC at 3382 kbps avg, 0.203 bit/pixel
Аудио: английскаяРусский AC3, 6ch 448 kbps - Профессиональный (многоголосый, закадровый)Русский AC3, 6ch 384 kbps - Авторский (одноголосый, закадровый) Goblin aka Д.Ю.Пучков)Английский AC3, 6ch 448 kbps
Скачать

Загрузка начнется в течение 5 сек.

5.19 GB

Название: Терминатор 2: Судный день / Terminator 2: Judgment Day (1991) BDRip-AVC от leonardo 59 | iPad
Качество видео: BDRip-AVC Исходник: Blu-ray
Перевод: Профессиональный (многоголосый, закадровый)
Формат видео: MP4 (контейнер m4v) Видео кодек: MPEG-4 AVC Аудио
Видео: AVC, 1024x436 (2.35:1) at 23.976 fps, AVC at 2381 kbps avg, 0.222 bit/pixel
Аудио: английскаяРусский AAC, 2ch ~128 kbps - Профессиональный (многоголосый, закадровый)Русский AAC, 2ch ~128 kbps - Авторский (одноголосый, закадровый) Goblin aka Д.Ю.Пучков)Английский AAC, 2ch ~128 kbps
Скачать

Загрузка начнется в течение 5 сек.

3.01 GB

Название: Терминатор 2: Судный день / Terminator 2: Judgment Day (1991) BDRip-AVC от leonardo 59
Качество видео: BDRip-AVC Исходник: Blu-ray
Перевод: Профессиональный (многоголосый, закадровый)
Формат видео: MKV Видео кодек: MPEG-4 AVC Аудио кодек: AC3
Видео: AVC, 1024x436 (2.35:1) at 23.976 fps, AVC at 2310 kbps avg, 0.216 bit/pixel
Аудио: английскаяРусский AC3, 6ch 448 kbps - Профессиональный (многоголосый, закадровый)Русский AC3, 6ch 384 kbps - Авторский (одноголосый, закадровый) Goblin aka Д.Ю.Пучков)Английский AC3, 6ch 448 kbps
Скачать

Загрузка начнется в течение 5 сек.

4.00 GB

Название: Терминатор 2: Судный день / Terminator 2: Judgment Day (1991) Blu-Ray
Качество видео: Blu-ray
Перевод: Профессиональный (многоголосый, закадровый), Авторский одноголосый (Гаврилов, Хоббит, Гоблин)
Видео: VC-1 Video BDMV; ~19285 kbps; 1080p; 23,976 fps; 16:9.
Аудио: Аудио 1: English (DTS-HD, 5.1 / 48 kHz / 4050 kbps / 24-bit (DTS Core: 5.1-ES / 48 kHz / 1509 kbps / 24-bit)
Скачать

Загрузка начнется в течение 5 сек.

45.09 GB

Название: Терминатор 2: Судный день / Terminator 2: Judgment Day (1991) BDRemux 1080p | Театральная версия
Качество видео: BDRemux 1080p
Перевод: Профессиональный (многоголосый, закадровый) x 3, одноголосый x 6
Видео: VC-1 1920x1080p, 23,976 fps, ~19285 kbps
Аудио: DTS-HD, AC3 DTS-HD, AC3English (DTS-HD, 5.1 / 48 kHz / 4050 kbps / 24-bit (DTS Core: 5.1-ES / 48 kHz / 1509 kbps / 24-bit)Russian (AC3, 5.1 / 48 kHz / 640 kbps) |многоголосый 1|Russian (AC3, 5.1 / 48 kHz / 320 kbps) |многоголосый 2|Russian (AC3, 5.1 / 48 kHz / 640 kbps) |многоголосый 3, ОРТ|AC3 , 2.0, 48KHz , 160 kbps |Авторский, Дохалов|AC3 , 2.0, 48KHz , 160 kbps |Авторский, Гаврилов|AC3 , 2.0, 48KHz , 160 kbps |Авторский, Горчаков (ранний)|AC3 , 2.0, 48KHz , 160 kbps |Авторский, Кузнецов|AC3 , 2.0, 48KHz , 160 kbps |Авторский, Федоров|AC3 , 2.0, 48KHz , 160 kbps |Авторский, Живов|
Скачать

Загрузка начнется в течение 5 сек.

25.89 GB

Название: Терминатор 2: Судный день / Terminator 2: Judgment Day (1991) BDRip от Youtracker | P1 | Специальная расширенная версия
Качество видео: DVDRip
Перевод: Профессиональный одноголосый закадровый - студия Lostfilm / Андрей Тенетко
Формат видео: AVI
Видео: XviD Xvid, 720*304 (2.35:1), 23.976 fps, ~1904 kbps avg, 0.363 bit/pixel
Аудио: 48 kHz, AC3 Dolby Digital, 3/2 (L,C,R,l,r) + LFE ch, ~448.00 kbps avg
Скачать

Загрузка начнется в течение 5 сек.

2.58 GB

Название: Терминатор 2: Судный день / Terminator 2: Judgment Day (1991) BDRip от Youtracker | A | Специальная расширенная версия
Качество видео: DVDRip
Перевод: Авторский одноголосый закадровый - Гаврилов + Гоблин
Формат видео: AVI
Видео: XviD Xvid, 720*304 (2.35:1), 23.976 fps, ~1598 kbps avg, 0.305 bit/pixel
Аудио: Гаврилов - 48 kHz, AC3 Dolby Digital, 3/2 (L,C,R,l,r) + LFE ch, ~448.00 kbps avg
Скачать

Загрузка начнется в течение 5 сек.

2.74 GB

Название: Терминатор 2: Судный День / Terminator 2: Judgment Day (1991) BDRemux | Специальная расширенная версия
Качество видео: BDRemux
Перевод: Авторский (одноголосый закадровый) Дмитрий Пучков (Гоблин).
Видео: VC-1, ~19285 kbps 1920x1080, 23.976 fps.
Аудио: DTS-HD MA Russian 5.1 / 48 kHz / 4055 kbps / 24-bit (DTS Core: 5.1 / 48 kHz / 1509 kbps / 24-bit - GoblinDTS-HD MA English 5.1 / 48 kHz / 4047 kbps / 24-bit (DTS Core: 5.1 / 48 kHz / 1509 kbps / 24-bit
Скачать

Загрузка начнется в течение 5 сек.

30.57 GB

Название: Терминатор 2: Судный день / Terminator 2: Judgment Day (1991) BDRip от Youtracker | P | Специальная расширенная версия
Качество видео: BDRip
Перевод: Профессиональный многоголосый, закадровый - Киномания + Позитив
Формат видео: AVI
Видео: XviD Xvid, 720*304 (2.35:1), 23.976 fps, ~1598 kbps avg, 0.305 bit/pixel
Аудио: Киномания - 48 kHz, AC3 Dolby Digital, 3/2 (L,C,R,l,r) + LFE ch, ~448.00 kbps avg
Скачать

Загрузка начнется в течение 5 сек.

2.74 GB

Название: Терминатор 2: Судный день / Terminator 2: Judgment Day (1991) BDRip 1080p | Director's Cut
Качество видео: BDRip (источник: Blu-ray Disc)
Перевод: Профессиональный (многоголосый, закадровый) [Позитив-Мультимедиа]
Видео: x264 1920x808 (2,40:1), 23.976 fps, 6346 kbps
Аудио: AC-3, 6 ch, 448 kbps (Rus)AC-3, 6 ch, 448 kbps (Eng)
Скачать

Загрузка начнется в течение 5 сек.

7.76 GB

www.kinovit.net

rutor.org :: Терминатор 2: Судный день / Terminator 2: Judgment Day (1991) DVD9+DVD5

Информация о фильмеНазвание: Терминатор 2: Судный деньОригинальное название: Terminator 2: Judgment DayГод выхода: 1991Жанр: фантастика, боевик, триллерРежиссер: Джеймс КэмеронВ ролях: Арнольд Шварценеггер, Линда Хэмилтон, Эдвард Ферлонг, Роберт Патрик, Эрл Боэн, Джо Мортон, С. Эпата Меркерсон, Кастуло Герра, Дэнни Кукси, Дженетт Голдстин

О фильме: Прошло более десяти лет с тех пор, как киборг-терминатор из 2029 года пытался уничтожить Сару Коннор — женщину, чей будущий сын выиграет войну человечества против машин.

Теперь у Сары родился сын Джон и время, когда он поведёт за собой выживших людей на борьбу с машинами, неумолимо приближается. Именно в этот момент из постапокалиптического будущего прибывает новый терминатор — практически неуязвимый и способный принимать любое обличье. Цель нового терминатора уже не Сара, а уничтожение молодого Джона Коннора.

Однако шансы Джона на спасение существенно повышаются, когда на помощь приходит перепрограммированный сопротивлением терминатор предыдущего поколения. Оба киборга вступают в смертельный бой, от исхода которого зависит судьба человечества.

Страна: США, ФранцияСтудия: Carolco Pictures Inc., Lightstorm Entertainment, Pacific WesternПродолжительность: 147 мин. / 02:27Перевод 1: профессиональный (многоголосый, закадровый)Перевод 2: авторский (одноголосый, закадровый)Бонус-Диск: Фильм о съемках, Фильм о фильме, Терминатор 2 - 3D, Эскизы к фильму

ФайлКодек: MPEG2Качество: DVD9+DVD5Видео: PAL 16:9 ([email protected]) VBR 5049 Kbps, 25.000 fpsЗвук 1: Dolby AC3, 6 ch, 48.0 KHz, 448 Kbps русский MVO, Ю.Живов, английскийЗвук 2: DTS 6 ch, 48.0 KHz, 755 Kbps русский MVOСубтитры: русские

MediaInfo

General Complete name : D:Terminator.2.Sudniy.Den.2DVDDISC1VIDEO_TSVTS_04_1.VOB Format : MPEG-PS File size : 1 024 MiB Duration : 19mn 37s Overall bit rate mode : Variable Overall bit rate : 7 293 Kbps

Video ID : 224 (0xE0) Format : MPEG Video Format version : Version 2 Format profile : [email protected] Format settings, BVOP : No Format settings, Matrix : Custom Format settings, GOP : M=3, N=7 Duration : 19mn 37s Bit rate mode : Variable Bit rate : 5 049 Kbps Maximum bit rate : 7 500 Kbps Width : 720 pixels Height : 576 pixels Display aspect ratio : 2.40:1 Frame rate : 25.000 fps Standard : PAL Color space : YUV Chroma subsampling : 4:2:0 Bit depth : 8 bits Scan type : Interlaced Scan order : Top Field First Compression mode : Lossy Bits/(Pixel*Frame) : 0.487 Time code of first frame : 10:00:15:00 Time code source : Group of pictures header Stream size : 709 MiB (69%)

Audio #1 ID : 189 (0xBD)-128 (0x80) Format : AC-3 Format/Info : Audio Coding 3 Mode extension : CM (complete main) Format settings, Endianness : Big Muxing mode : DVD-Video Duration : 19mn 37s Bit rate mode : Constant Bit rate : 448 Kbps Channel(s) : 6 channels Channel positions : Front: L C R, Side: L R, LFE Sampling rate : 48.0 KHz Bit depth : 16 bits Compression mode : Lossy Stream size : 62.9 MiB (6%)

Audio #2 ID : 189 (0xBD)-129 (0x81) Format : AC-3 Format/Info : Audio Coding 3 Mode extension : CM (complete main) Format settings, Endianness : Big Muxing mode : DVD-Video Duration : 19mn 37s Bit rate mode : Constant Bit rate : 448 Kbps Channel(s) : 6 channels Channel positions : Front: L C R, Side: L R, LFE Sampling rate : 48.0 KHz Bit depth : 16 bits Compression mode : Lossy Stream size : 62.9 MiB (6%)

Audio #3 ID : 189 (0xBD)-130 (0x82) Format : AC-3 Format/Info : Audio Coding 3 Mode extension : CM (complete main) Format settings, Endianness : Big Muxing mode : DVD-Video Duration : 19mn 37s Bit rate mode : Constant Bit rate : 448 Kbps Channel(s) : 6 channels Channel positions : Front: L C R, Side: L R, LFE Sampling rate : 48.0 KHz Bit depth : 16 bits Compression mode : Lossy Stream size : 62.9 MiB (6%)

Audio #4 ID : 189 (0xBD)-139 (0x8B) Format : DTS Format/Info : Digital Theater Systems Mode : 16 Format settings, Endianness : Big Muxing mode : DVD-Video Duration : 19mn 37s Bit rate mode : Constant Bit rate : 755 Kbps Channel(s) : 6 channels Channel positions : Front: L C R, Side: L R, LFE Sampling rate : 48.0 KHz Bit depth : 24 bits Compression mode : Lossy Stream size : 106 MiB (10%)

Text ID : 189 (0xBD)-32 (0x20) Format : RLE Format/Info : Run-length encoding Muxing mode : DVD-Video

Menu

main-rutor.org

судный день (1991) смотреть онлайн или скачать фильм через торрент. Трейлеры, правдивые оценки, рецензии, комментарии, похожие фильмы, саундтрек, новости и интересные факты на Fast-torrent

1649

Общая оценка

9.75

1649 голосов

Можете оставить свой голос отметив одну из звездочек.

 

 

Рекомендаций 1219

Всего рекомендаций 1219

Скачали 601210

Дата выхода в России (или в Мире): 01.07.1991

Дата выхода на DVD: 01.09.2009

Жанр: Боевик, Зарубежный фильм, Триллер, Фантастика

usfr  tagHD 1080,  tagHD 720,  tagКиберпанк,  tagПеревод Гоблина,  tagПутешествия во времени,  tagРежиссерская версия

Продолжительность: 02:14

Режиссер: Джеймс Кэмерон

В ролях: Арнольд Шварценеггер, Линда Хэмилтон, Эдвард Ферлонг, Роберт Патрик, Эрл Боэн, Джо Мортон, С. Ипейта Меркерсон, Кастуло Герра, Дэнни Кукси, Дженетт Голдстин

Война машин и людей в самом разгаре. Человечество стоит на краю гибели, но пока жив Джон Коннор, лидер сопротивления, у людей еще остаются шансы. Машины не могут убить Джона в настоящем и решают убить Джона в прошлом. В то время, когда Джон был еще мальчишкой, отправляется самая совершенная машина-терминатор. Робот из жидкого металла, неуязвимый для оружия и способный принимать любой образ. Вслед за ним Джон решает отправить одного из старых перепрограммированных роботов, чтобы защитить себя в прошлом.© Fast-Torrent.ru

Новости по теме:«Терминатор 5»: новые подробности

Интересные факты:

detskiy.fast-torrent.ru


Смотрите также