Варкрафт режиссерская версия скачать торрент


rutor.org :: Варкрафт / Warcraft (2016) BDRip 1080p HEVC | Extended | 3D-Video | OU

main-rutor.org

Информация о фильмеНазвание: ВаркрафтОригинальное название: WarcraftГод выхода: 2016Жанр: Фэнтези, Боевик, ПриключенияРежиссер: Укажите режисераВ ролях: Трэвис Фиммел, Пола Пэттон, Бен Фостер, Доминик Купер, Тоби Кеббелл, Бен Шнетцер, Роберт Казински, Клэнси Браун, Дэниэл Ву, Рут Негга

О фильме: Веками магия и неприступные стены защищали людей от любых напастей. Но древнее зло, побежденное и забытое тысячелетия назад, пробудилось. В самом сердце королевства открылся темный портал, и раса невиданных существ наводнила земли Азерота. Так начались события, призванные навсегда изменить судьбу этого мира.

Об исходном Blu-ray:

ЦитатаS.V.O. писал:BD3D Re-Encode. Комбинированная версия 3Д + 2Д расширенные и удалённые эпизоды.

Страна: Китай, Канада, Япония, СШАСтудия: Universal Pictures, Legendary, Blizzard EntertainmПродолжительность: 02:13:14Перевод: Дубляж + субтитры на фрагменты без перевода

ФайлКодек: H.265/HEVCКачество: BDRip 1080p HEVCВидео: 1920x2160 px, ~9613 kb/s (avg), 23,976 fpsЗвук: Русский AC3, 640 kbps, 5.1 ch, 16 bitsСубтитры: Русские SubRip Text (SRT) UTF-8 Signature (на фрагменты без перевода)3D: Левый ракурс сверху

Семпл

MediaInfo

General Unique ID : 200380651392656423965828099553189844307 (0x96BFE8E0BE003D22B26EBD8960DE5553) Complete name : Warcraft Extended Edition (2016) 1080p HEVC 3D-ab.mkv Format : Matroska Format version : Version 3 / Version 2 File size : 9.74 GiB Duration : 2 h 13 min Overall bit rate : 10.5 Mb/s Movie name : Warcraft Extended Edition (2016) 3D Full-T&B (x265) Encoded date : UTC 2016-11-24 13:16:39 Writing application : mkvmerge v9.2.0 ('Photograph') 64bit Writing library : libebml v1.3.3 + libmatroska v1.4.4

Video ID : 1 Format : HEVC Format/Info : High Efficiency Video Coding Format profile : Main [email protected]@High MultiView_Count : 2 MultiView_Layout : Top-Bottom (left eye first) Codec ID : V_MPEGH/ISO/HEVC Duration : 2 h 13 min Bit rate : 9 613 kb/s Width : 1 920 pixels Height : 2 160 pixels Display aspect ratio : 0.889 Original display aspect ratio : 16:9 Frame rate mode : Constant Frame rate : 23.976 (24000/1001) FPS Color space : YUV Chroma subsampling : 4:2:0 Bit depth : 10 bits Bits/(Pixel*Frame) : 0.097 Stream size : 8.95 GiB (92%) Title : 3D Full-T&B (x265) Writing library : x265 2.0+10-5a0e139e2938:[Windows][GCC 5.3.0][64 bit] 10bit Encoding settings : wpp / ctu=32 / min-cu-size=8 / max-tu-size=32 / tu-intra-depth=1 / tu-inter-depth=1 / me=2 / subme=7 / merange=25 / no-rect / no-amp / max-merge=2 / temporal-mvp / early-skip / no-rskip / rdpenalty=0 / no-tskip / no-tskip-fast / no-strong-intra-smoothing / no-lossless / no-cu-lossless / no-constrained-intra / fast-intra / open-gop / no-temporal-layers / interlace=0 / keyint=250 / min-keyint=23 / scenecut=40 / rc-lookahead=40 / lookahead-slices=6 / bframes=6 / bframe-bias=0 / b-adapt=2 / ref=1 / limit-refs=0 / no-limit-modes / no-weightp / no-weightb / aq-mode=3 / qg-size=32 / aq-strength=0.40 / cbqpoffs=0 / crqpoffs=0 / rd=3 / psy-rd=1.75 / rdoq-level=1 / psy-rdoq=2.50 / no-rd-refine / no-signhide / no-deblock / no-sao / no-sao-non-deblock / b-pyramid / no-cutree / no-intra-refresh / rc=crf / crf=24.0 / qcomp=0.80 / qpmin=0 / qpmax=51 / qpstep=1 / vbv-maxrate=100000 / vbv-bufsize=100000 / crf-max=0.0 / ipratio=1.10 / pbratio=1.00 Language : Russian Default : Yes Forced : No Color range : Limited Color primaries : BT.709

Audio ID : 2 Format : AC-3 Format/Info : Audio Coding 3 Mode extension : CM (complete main) Format settings, Endianness : Big Codec ID : A_AC3 Duration : 2 h 13 min Bit rate mode : Constant Bit rate : 640 kb/s Channel(s) : 6 channels Channel positions : Front: L C R, Side: L R, LFE Sampling rate : 48.0 kHz Frame rate : 31.250 FPS (1536 spf) Bit depth : 16 bits Compression mode : Lossy Stream size : 610 MiB (6%) Title : Russian (AC3 5.1 48KHz) Language : Russian Default : Yes Forced : No

Text ID : 3 Format : UTF-8 Codec ID : S_TEXT/UTF8 Codec ID/Info : UTF-8 Plain Text Title : Forced Language : Russian Default : Yes Forced : Yes

Menu 00:00:00.000 : :1 - 0:00:00 00:05:00.000 : :2 - 0:05:00 00:10:00.000 : :3 - 0:10:00 00:15:00.000 : :4 - 0:15:00 00:20:00.000 : :5 - 0:20:00 00:25:00.000 : :6 - 0:25:00 00:30:00.000 : :7 - 0:30:00 00:35:00.000 : :8 - 0:35:00 00:40:00.000 : :9 - 0:40:00 00:45:00.000 : :10 - 0:45:00 00:50:00.000 : :11 - 0:50:00 00:55:00.000 : :12 - 0:55:00 01:00:00.000 : :13 - 1:00:00 01:05:00.000 : :14 - 1:05:00 01:10:00.000 : :15 - 1:10:00 01:15:00.000 : :16 - 1:15:00 01:20:00.000 : :17 - 1:20:00 01:25:00.000 : :18 - 1:25:00 01:30:00.000 : :19 - 1:30:00 01:35:00.000 : :20 - 1:35:00 01:40:00.000 : :21 - 1:40:00 01:45:00.000 : :22 - 1:45:00 01:50:00.000 : :23 - 1:50:00 01:55:00.000 : :24 - 1:55:00 02:00:00.000 : :25 - 2:00:00 02:05:00.000 : :26 - 2:05:00 02:10:00.000 : :27 - 2:10:00

Скачать торрент Варкрафт / Warcraft (2016) BDRip 1080p HEVC | Extended | 3D-Video | OU

Информация о фильмеНазвание: ВаркрафтОригинальное название: WarcraftГод выхода: 2016Жанр: Фэнтези, Боевик, ПриключенияРежиссер: Укажите режисераВ ролях: Трэвис Фиммел, Пола Пэттон, Бен Фостер, Доминик Купер, Тоби Кеббелл, Бен Шнетцер, Роберт Казински, Клэнси Браун, Дэниэл Ву, Рут Негга

О фильме: Веками магия и неприступные стены защищали людей от любых напастей. Но древнее зло, побежденное и забытое тысячелетия назад, пробудилось. В самом сердце королевства открылся темный портал, и раса невиданных существ наводнила земли Азерота. Так начались события, призванные навсегда изменить судьбу этого мира.

Об исходном Blu-ray:

ЦитатаS.V.O. писал:BD3D Re-Encode. Комбинированная версия 3Д + 2Д расширенные и удалённые эпизоды.

Страна: Китай, Канада, Япония, СШАСтудия: Universal Pictures, Legendary, Blizzard EntertainmПродолжительность: 02:13:14Перевод: Дубляж + субтитры на фрагменты без перевода

ФайлКодек: H.265/HEVCКачество: BDRip 1080p HEVCВидео: 1920x2160 px, ~9613 kb/s (avg), 23,976 fpsЗвук: Русский AC3, 640 kbps, 5.1 ch, 16 bitsСубтитры: Русские SubRip Text (SRT) UTF-8 Signature (на фрагменты без перевода)3D: Левый ракурс сверху

Семпл

MediaInfo

General Unique ID : 200380651392656423965828099553189844307 (0x96BFE8E0BE003D22B26EBD8960DE5553) Complete name : Warcraft Extended Edition (2016) 1080p HEVC 3D-ab.mkv Format : Matroska Format version : Version 3 / Version 2 File size : 9.74 GiB Duration : 2 h 13 min Overall bit rate : 10.5 Mb/s Movie name : Warcraft Extended Edition (2016) 3D Full-T&B (x265) Encoded date : UTC 2016-11-24 13:16:39 Writing application : mkvmerge v9.2.0 ('Photograph') 64bit Writing library : libebml v1.3.3 + libmatroska v1.4.4

Video ID : 1 Format : HEVC Format/Info : High Efficiency Video Coding Format profile : Main [email protected]@High MultiView_Count : 2 MultiView_Layout : Top-Bottom (left eye first) Codec ID : V_MPEGH/ISO/HEVC Duration : 2 h 13 min Bit rate : 9 613 kb/s Width : 1 920 pixels Height : 2 160 pixels Display aspect ratio : 0.889 Original display aspect ratio : 16:9 Frame rate mode : Constant Frame rate : 23.976 (24000/1001) FPS Color space : YUV Chroma subsampling : 4:2:0 Bit depth : 10 bits Bits/(Pixel*Frame) : 0.097 Stream size : 8.95 GiB (92%) Title : 3D Full-T&B (x265) Writing library : x265 2.0+10-5a0e139e2938:[Windows][GCC 5.3.0][64 bit] 10bit Encoding settings : wpp / ctu=32 / min-cu-size=8 / max-tu-size=32 / tu-intra-depth=1 / tu-inter-depth=1 / me=2 / subme=7 / merange=25 / no-rect / no-amp / max-merge=2 / temporal-mvp / early-skip / no-rskip / rdpenalty=0 / no-tskip / no-tskip-fast / no-strong-intra-smoothing / no-lossless / no-cu-lossless / no-constrained-intra / fast-intra / open-gop / no-temporal-layers / interlace=0 / keyint=250 / min-keyint=23 / scenecut=40 / rc-lookahead=40 / lookahead-slices=6 / bframes=6 / bframe-bias=0 / b-adapt=2 / ref=1 / limit-refs=0 / no-limit-modes / no-weightp / no-weightb / aq-mode=3 / qg-size=32 / aq-strength=0.40 / cbqpoffs=0 / crqpoffs=0 / rd=3 / psy-rd=1.75 / rdoq-level=1 / psy-rdoq=2.50 / no-rd-refine / no-signhide / no-deblock / no-sao / no-sao-non-deblock / b-pyramid / no-cutree / no-intra-refresh / rc=crf / crf=24.0 / qcomp=0.80 / qpmin=0 / qpmax=51 / qpstep=1 / vbv-maxrate=100000 / vbv-bufsize=100000 / crf-max=0.0 / ipratio=1.10 / pbratio=1.00 Language : Russian Default : Yes Forced : No Color range : Limited Color primaries : BT.709

Audio ID : 2 Format : AC-3 Format/Info : Audio Coding 3 Mode extension : CM (complete main) Format settings, Endianness : Big Codec ID : A_AC3 Duration : 2 h 13 min Bit rate mode : Constant Bit rate : 640 kb/s Channel(s) : 6 channels Channel positions : Front: L C R, Side: L R, LFE Sampling rate : 48.0 kHz Frame rate : 31.250 FPS (1536 spf) Bit depth : 16 bits Compression mode : Lossy Stream size : 610 MiB (6%) Title : Russian (AC3 5.1 48KHz) Language : Russian Default : Yes Forced : No

Text ID : 3 Format : UTF-8 Codec ID : S_TEXT/UTF8 Codec ID/Info : UTF-8 Plain Text Title : Forced Language : Russian Default : Yes Forced : Yes

Menu 00:00:00.000 : :1 - 0:00:00 00:05:00.000 : :2 - 0:05:00 00:10:00.000 : :3 - 0:10:00 00:15:00.000 : :4 - 0:15:00 00:20:00.000 : :5 - 0:20:00 00:25:00.000 : :6 - 0:25:00 00:30:00.000 : :7 - 0:30:00 00:35:00.000 : :8 - 0:35:00 00:40:00.000 : :9 - 0:40:00 00:45:00.000 : :10 - 0:45:00 00:50:00.000 : :11 - 0:50:00 00:55:00.000 : :12 - 0:55:00 01:00:00.000 : :13 - 1:00:00 01:05:00.000 : :14 - 1:05:00 01:10:00.000 : :15 - 1:10:00 01:15:00.000 : :16 - 1:15:00 01:20:00.000 : :17 - 1:20:00 01:25:00.000 : :18 - 1:25:00 01:30:00.000 : :19 - 1:30:00 01:35:00.000 : :20 - 1:35:00 01:40:00.000 : :21 - 1:40:00 01:45:00.000 : :22 - 1:45:00 01:50:00.000 : :23 - 1:50:00 01:55:00.000 : :24 - 1:55:00 02:00:00.000 : :25 - 2:00:00 02:05:00.000 : :26 - 2:05:00 02:10:00.000 : :27 - 2:10:00

krutor.org

Скачать торрент Варкрафт / Warcraft (2016) BDRip 1080p HEVC | Extended | 3D-Video | OU

Информация о фильмеНазвание: ВаркрафтОригинальное название: WarcraftГод выхода: 2016Жанр: Фэнтези, Боевик, ПриключенияРежиссер: Укажите режисераВ ролях: Трэвис Фиммел, Пола Пэттон, Бен Фостер, Доминик Купер, Тоби Кеббелл, Бен Шнетцер, Роберт Казински, Клэнси Браун, Дэниэл Ву, Рут Негга

О фильме: Веками магия и неприступные стены защищали людей от любых напастей. Но древнее зло, побежденное и забытое тысячелетия назад, пробудилось. В самом сердце королевства открылся темный портал, и раса невиданных существ наводнила земли Азерота. Так начались события, призванные навсегда изменить судьбу этого мира.

Об исходном Blu-ray:

ЦитатаS.V.O. писал:BD3D Re-Encode. Комбинированная версия 3Д + 2Д расширенные и удалённые эпизоды.

Страна: Китай, Канада, Япония, СШАСтудия: Universal Pictures, Legendary, Blizzard EntertainmПродолжительность: 02:13:14Перевод: Дубляж + субтитры на фрагменты без перевода

ФайлКодек: H.265/HEVCКачество: BDRip 1080p HEVCВидео: 1920x2160 px, ~9613 kb/s (avg), 23,976 fpsЗвук: Русский AC3, 640 kbps, 5.1 ch, 16 bitsСубтитры: Русские SubRip Text (SRT) UTF-8 Signature (на фрагменты без перевода)3D: Левый ракурс сверху

Семпл

MediaInfo

General Unique ID : 200380651392656423965828099553189844307 (0x96BFE8E0BE003D22B26EBD8960DE5553) Complete name : Warcraft Extended Edition (2016) 1080p HEVC 3D-ab.mkv Format : Matroska Format version : Version 3 / Version 2 File size : 9.74 GiB Duration : 2 h 13 min Overall bit rate : 10.5 Mb/s Movie name : Warcraft Extended Edition (2016) 3D Full-T&B (x265) Encoded date : UTC 2016-11-24 13:16:39 Writing application : mkvmerge v9.2.0 ('Photograph') 64bit Writing library : libebml v1.3.3 + libmatroska v1.4.4

Video ID : 1 Format : HEVC Format/Info : High Efficiency Video Coding Format profile : Main [email protected]@High MultiView_Count : 2 MultiView_Layout : Top-Bottom (left eye first) Codec ID : V_MPEGH/ISO/HEVC Duration : 2 h 13 min Bit rate : 9 613 kb/s Width : 1 920 pixels Height : 2 160 pixels Display aspect ratio : 0.889 Original display aspect ratio : 16:9 Frame rate mode : Constant Frame rate : 23.976 (24000/1001) FPS Color space : YUV Chroma subsampling : 4:2:0 Bit depth : 10 bits Bits/(Pixel*Frame) : 0.097 Stream size : 8.95 GiB (92%) Title : 3D Full-T&B (x265) Writing library : x265 2.0+10-5a0e139e2938:[Windows][GCC 5.3.0][64 bit] 10bit Encoding settings : wpp / ctu=32 / min-cu-size=8 / max-tu-size=32 / tu-intra-depth=1 / tu-inter-depth=1 / me=2 / subme=7 / merange=25 / no-rect / no-amp / max-merge=2 / temporal-mvp / early-skip / no-rskip / rdpenalty=0 / no-tskip / no-tskip-fast / no-strong-intra-smoothing / no-lossless / no-cu-lossless / no-constrained-intra / fast-intra / open-gop / no-temporal-layers / interlace=0 / keyint=250 / min-keyint=23 / scenecut=40 / rc-lookahead=40 / lookahead-slices=6 / bframes=6 / bframe-bias=0 / b-adapt=2 / ref=1 / limit-refs=0 / no-limit-modes / no-weightp / no-weightb / aq-mode=3 / qg-size=32 / aq-strength=0.40 / cbqpoffs=0 / crqpoffs=0 / rd=3 / psy-rd=1.75 / rdoq-level=1 / psy-rdoq=2.50 / no-rd-refine / no-signhide / no-deblock / no-sao / no-sao-non-deblock / b-pyramid / no-cutree / no-intra-refresh / rc=crf / crf=24.0 / qcomp=0.80 / qpmin=0 / qpmax=51 / qpstep=1 / vbv-maxrate=100000 / vbv-bufsize=100000 / crf-max=0.0 / ipratio=1.10 / pbratio=1.00 Language : Russian Default : Yes Forced : No Color range : Limited Color primaries : BT.709

Audio ID : 2 Format : AC-3 Format/Info : Audio Coding 3 Mode extension : CM (complete main) Format settings, Endianness : Big Codec ID : A_AC3 Duration : 2 h 13 min Bit rate mode : Constant Bit rate : 640 kb/s Channel(s) : 6 channels Channel positions : Front: L C R, Side: L R, LFE Sampling rate : 48.0 kHz Frame rate : 31.250 FPS (1536 spf) Bit depth : 16 bits Compression mode : Lossy Stream size : 610 MiB (6%) Title : Russian (AC3 5.1 48KHz) Language : Russian Default : Yes Forced : No

Text ID : 3 Format : UTF-8 Codec ID : S_TEXT/UTF8 Codec ID/Info : UTF-8 Plain Text Title : Forced Language : Russian Default : Yes Forced : Yes

Menu 00:00:00.000 : :1 - 0:00:00 00:05:00.000 : :2 - 0:05:00 00:10:00.000 : :3 - 0:10:00 00:15:00.000 : :4 - 0:15:00 00:20:00.000 : :5 - 0:20:00 00:25:00.000 : :6 - 0:25:00 00:30:00.000 : :7 - 0:30:00 00:35:00.000 : :8 - 0:35:00 00:40:00.000 : :9 - 0:40:00 00:45:00.000 : :10 - 0:45:00 00:50:00.000 : :11 - 0:50:00 00:55:00.000 : :12 - 0:55:00 01:00:00.000 : :13 - 1:00:00 01:05:00.000 : :14 - 1:05:00 01:10:00.000 : :15 - 1:10:00 01:15:00.000 : :16 - 1:15:00 01:20:00.000 : :17 - 1:20:00 01:25:00.000 : :18 - 1:25:00 01:30:00.000 : :19 - 1:30:00 01:35:00.000 : :20 - 1:35:00 01:40:00.000 : :21 - 1:40:00 01:45:00.000 : :22 - 1:45:00 01:50:00.000 : :23 - 1:50:00 01:55:00.000 : :24 - 1:55:00 02:00:00.000 : :25 - 2:00:00 02:05:00.000 : :26 - 2:05:00 02:10:00.000 : :27 - 2:10:00

mrutor.org

Скачать торрент Варкрафт / Warcraft (2016) Blu-Ray 1080p | 3D-Video

krutor.org

«Два мира - одна судьба»

Информация о фильмеНазвание: ВаркрафтОригинальное название: Warcraft Год выхода: 2016Жанр: Фэнтези, боевик, приключенияРежиссер: Клэй Кэйтис, Фергал РейлиРоли озвучивают: Трэвис Фиммел, Пола Пэттон, Бен Фостер, Доминик Купер, Тоби Кеббелл, Бен Шнетцер, Роберт Казински, Клэнси Браун, Дэниэл Ву, Рут Негга

О фильме: Веками магия и неприступные стены защищали людей от любых напастей. Но древнее зло, побежденное и забытое тысячелетия назад, пробудилось.

В самом сердце королевства открылся темный портал, и раса невиданных существ наводнила земли Азерота. Так начались события, призванные навсегда изменить судьбу этого мира.

Страна: Китай, Канада, СШАСтудия: Atlas Entertainment, Blizzard Entertainment, Legendary Pictures, Universal PicturesПродолжительность: 02:03:07 Перевод: Профессиональный (полное дублирование)

ФайлКачество: Blu Ray 1080pФормат: BDMVКодек: MPEG-4 AVC VideoВидео: 1920x1080 (16:9), 23,976 fps, MPEG-4 AVC Video ~ 21809 kbps avg, High Profile 4.1 Аудио#1: DTS-HD Master Audio English 4834 kbps 7.1 / 48 kHz / 4834 kbps / 24-bit (AC3 Embedded: 5.1 / 48 kHz / 640 kbps / DN -4dB)Аудио#2: Dolby Digital Audio Czech 640 kbps 5.1 / 48 kHz / 640 kbpsАудио#3: Dolby Digital Audio Polish 640 kbps 5.1 / 48 kHz / 640 kbpsАудио#4: Dolby Digital Audio Portuguese 640 kbps 5.1 / 48 kHz / 640 kbpsАудио#5: Dolby Digital Audio Russian 640 kbps 5.1 / 48 kHz / 640 kbps / Профессиональный (полное дублирование)Аудио#6: Dolby Digital Audio Spanish 640 kbps 5.1 / 48 kHz / 640 kbpsАудио#8: Dolby Digital Audio Thai 640 kbps 5.1 / 48 kHz / 640 kbpsАудио#9: Dolby Digital Audio Turkish 640 kbps 5.1 / 48 kHz / 640 kbps

Субтитры: Русские, английские, болгарские, китайские, чешские, эстонские, греческие, иврит венгерские. индонезийские, корейские, латышские, литовские, польские, португальские, румынские, испанские, тайские, турецкие, украинские (PGS)

Дополнительно

• Трейлеры

BDInfo Report

DISC INFO:

Disc Title: WARCRAFT_UPT2_3D_HDCLUB Disc Size: 46 706 571 148 bytes Protection: AACS BD-Java: Yes Extras: Blu-ray 3D BDInfo: 0.5.8

PLAYLIST REPORT:

Name: 00800.MPLS Length: 2:03:07.963 (h:m:s.ms) Size: 45 325 197 312 bytes Total Bitrate: 49,08 Mbps

VIDEO:

Codec Bitrate Deion ----- ------- ----------- MPEG-4 AVC Video 21809 kbps 1080p / 23,976 fps / 16:9 / High Profile 4.1 MPEG-4 MVC Video 12126 kbps

AUDIO:

Codec Language Bitrate Deion ----- -------- ------- ----------- Dolby TrueHD Audio English 4834 kbps 7.1 / 48 kHz / 4834 kbps / 24-bit (AC3 Embedded: 5.1 / 48 kHz / 640 kbps / DN -4dB) Dolby Digital Audio Czech 640 kbps 5.1 / 48 kHz / 640 kbps / DN -4dB Dolby Digital Audio Polish 640 kbps 5.1 / 48 kHz / 640 kbps / DN -4dB Dolby Digital Audio Polish 640 kbps 5.1 / 48 kHz / 640 kbps / DN -4dB Dolby Digital Audio Portuguese 640 kbps 5.1 / 48 kHz / 640 kbps / DN -4dB Dolby Digital Audio Russian 640 kbps 5.1 / 48 kHz / 640 kbps / DN -4dB Dolby Digital Audio Spanish 640 kbps 5.1 / 48 kHz / 640 kbps / DN -4dB Dolby Digital Audio Thai 640 kbps 5.1 / 48 kHz / 640 kbps / DN -4dB Dolby Digital Audio Turkish 640 kbps 5.1 / 48 kHz / 640 kbps / DN -4dB

SUBTITLES:

Codec Language Bitrate Deion ----- -------- ------- ----------- Presentation Graphics English 27,153 kbps Presentation Graphics Bulgarian 20,200 kbps Presentation Graphics Chinese 16,058 kbps Presentation Graphics Chinese 19,079 kbps Presentation Graphics Croatian 20,922 kbps Presentation Graphics Czech 18,801 kbps Presentation Graphics Czech 0,198 kbps Presentation Graphics Estonian 20,072 kbps Presentation Graphics Greek 24,675 kbps Presentation Graphics Hebrew 14,896 kbps Presentation Graphics Hungarian 21,346 kbps Presentation Graphics Hungarian 0,091 kbps Presentation Graphics Indonesian 23,118 kbps Presentation Graphics Korean 14,752 kbps Presentation Graphics Latvian 20,512 kbps Presentation Graphics Lithuanian 22,273 kbps Presentation Graphics Polish 20,651 kbps Presentation Graphics Polish 0,033 kbps Presentation Graphics Portuguese 20,163 kbps Presentation Graphics Portuguese 0,281 kbps Presentation Graphics Romanian 20,781 kbps Presentation Graphics Russian 21,050 kbps Presentation Graphics Russian 0,152 kbps Presentation Graphics Slovenian 18,794 kbps Presentation Graphics Spanish 22,519 kbps Presentation Graphics Spanish 0,139 kbps Presentation Graphics Thai 18,146 kbps Presentation Graphics Thai 0,117 kbps Presentation Graphics Turkish 21,325 kbps Presentation Graphics Turkish 0,161 kbps Presentation Graphics Ukrainian 19,995 kbps

FILES:

Name Time In Length Size Total Bitrate ---- ------- ------ ---- ------------- 00800.SSIF 0:00:00.000 2:03:07.963 45 325 197 312 49 080

Релиз от:

Скачать торрент Варкрафт / Warcraft (2016) BDRip 720p от HQCLUB

Варкрафт / Warcraft (2016) (2016) от HQCLUB

Информация о фильмеНазвание: ВаркрафтОригинальное название: WarcraftГод выхода: 2016Жанр: Фантастика, Боевик, ПриключенияВ ролях: Трэвис Фиммел (Anduin Lothar), Пола Пэттон (Garona), Бен Фостер (Medivh), Доминик Купер (Llane Wrynn), Тоби Кеббелл (Durotan / Antonidas), Бен Шнетцер (Khadgar), Роберт Казински (Orgrim), Клэнси Браун (Blackhand), Дэниэл Ву (Gul'dan), Рут Негга (Lady Taria), Анна Галвин (Draka), Каллум Кит Ренни (Moroes).Режиссёр: Дункан Джонс / Duncan Jones

О фильме: Веками магия и неприступные стены защищали людей от любых напастей. Но древнее зло, побежденное и забытое тысячелетия назад, пробудилось.

«Два мира - одна судьба»

Релиз от - Автор рипа: Rensler

Выпущено: Китай, Канада, Япония, США Студия: Atlas Entertainment, Blizzard Entertainment, Legendary Pictures, Universal Pictures.Продолжительность: 02:03:07Перевод: • Профессиональный (полное дублирование) BD EURОригинальная аудиодорожка: АнглийскаяСубтитры: Русские (форсированные, полные, полные Nunegsdli), Английские (полные, SDH)Главы: Сохранены чаптеры с оригинального Blu-ray Disc

Файл:Формат: MKVКачество: BDRip 720p (источник: BLUEBIRD / Blu-ray Disc)Видео: 1280x536 (2,40:1) at 23.976, [email protected] ~ 6585 kbps avg, 0.408 bit/pixelАудио#1: 48 kHz/16-bit, AC3 Dolby Digital, 3/2 (L,C,R,l,r) + LFE ch, ~ 640 kbps avg | RUS, Blu-rayАудио#2: 48 kHz/16-bit, AC3 Dolby Digital, 3/2 (L,C,R,l,r) + LFE ch, ~ 640 kbps avg | ENGРазмер: 6,76 GB (DVD-9)Скачать: Семпл

Цитатаlogx.264 писал:

x264 [info]: frame I:1652 Avg QP:15.58 size:148016 x264 [info]: frame P:42867 Avg QP:16.47 size: 61124 x264 [info]: frame B:132601 Avg QP:17.44 size: 24239 x264 [info]: consecutive B-frames: 2.6% 3.2% 12.7% 32.2% 18.5% 24.8% 4.5% 0.4% x264 [info]: ref P L0: 50.1% 12.9% 14.5% 7.1% 5.2% 3.9% 3.1% 1.9% 1.3% 0.2% 0.0%

ЦитатаMediaInfo писал:Уникальный идентификатор : 208031809405425022512632329030321575042 (0x9C817817B79E2C919D15058C9C3C1482) Полное имя : Warcraft.2016.BluRay.720p.Rus.Eng.-HQCLUB.mkv Формат : Matroska Версия формата : Version 4 / Version 2 Размер файла : 6,76 Гбайт Продолжительность : 2 ч. 3 м. Общий поток : 7866 Кбит/сек Название фильма : Варкрафт / Warcraft (2016) Blu-ray 720p Дата кодирования : UTC 2016-09-22 18:25:16 Программа кодирования : mkvmerge v8.3.0 ('Over the Horizon') 64bit Библиотека кодирования : libebml v1.3.1 + libmatroska v1.4.2 Attachements : Cover.png

Видео Идентификатор : 1 Формат : AVC Формат/Информация : Advanced Video Codec Профиль формата : [email protected] Параметр CABAC формата : Да Параметр ReFrames формата : 9 кадров Идентификатор кодека : V_MPEG4/ISO/AVC Продолжительность : 2 ч. 3 м. Битрейт : 6585 Кбит/сек Ширина : 1280 пикселей Высота : 526 пикселей Соотношение сторон : 2,40:1 Режим частоты кадров : Постоянный Частота кадров : 23,976 кадра/сек Цветовое пространство : YUV Субдискретизация насыщенности : 4:2:0 Битовая глубина : 8 бит Тип развёртки : Прогрессивная Бит/(Пиксели*Кадры) : 0.408 Размер потока : 5,53 Гбайт (82%) Заголовок : Release by Rensler Библиотека кодирования : x264 core 148 r2692 64f4e24 Настройки программы : cabac=1 / ref=9 / deblock=1:-3:-2 / analyse=0x3:0x113 / me=umh / subme=11 / psy=1 / psy_rd=1.00:0.02 / mixed_ref=1 / me_range=48 / chroma_me=1 / trellis=2 / 8x8dct=1 / cqm=0 / deadzone=21,11 / fast_pskip=0 / chroma_qp_offset=-3 / threads=3 / lookahead_threads=1 / sliced_threads=0 / nr=0 / decimate=0 / interlaced=0 / bluray_compat=0 / constrained_intra=0 / bframes=7 / b_pyramid=2 / b_adapt=2 / b_bias=0 / direct=3 / weightb=1 / open_gop=0 / weightp=2 / keyint=230 / keyint_min=23 / scenecut=40 / intra_refresh=0 / rc_lookahead=60 / rc=2pass / mbtree=0 / bitrate=6585 / ratetol=1.0 / qcomp=0.60 / qpmin=0 / qpmax=69 / qpstep=4 / cplxblur=20.0 / qblur=0.5 / vbv_maxrate=50000 / vbv_bufsize=62500 / nal_hrd=none / filler=0 / ip_ratio=1.23 / pb_ratio=1.18 / aq=2:1.00 Default : Да Forced : Нет

Аудио #1 Идентификатор : 2 Формат : AC-3 Формат/Информация : Audio Coding 3 Расширение режима : CM (complete main) Параметр Endianness формата : Big Идентификатор кодека : A_AC3 Продолжительность : 2 ч. 3 м. Вид битрейта : Постоянный Битрейт : 640 Кбит/сек Каналы : 6 каналов Расположение каналов : Front: L C R, Side: L R, LFE Частота : 48,0 КГц Метод сжатия : С потерями Размер потока : 564 Мбайт (8%) Заголовок : BD EUR Язык : Russian Default : Да Forced : Нет

Аудио #2 Идентификатор : 3 Формат : AC-3 Формат/Информация : Audio Coding 3 Расширение режима : CM (complete main) Параметр Endianness формата : Big Идентификатор кодека : A_AC3 Продолжительность : 2 ч. 3 м. Вид битрейта : Постоянный Битрейт : 640 Кбит/сек Каналы : 6 каналов Расположение каналов : Front: L C R, Side: L R, LFE Частота : 48,0 КГц Метод сжатия : С потерями Размер потока : 564 Мбайт (8%) Заголовок : Original Язык : English Default : Нет Forced : Нет

Текст #1 Идентификатор : 4 Формат : UTF-8 Идентификатор кодека : S_TEXT/UTF8 Идентификатор кодека/Информация : UTF-8 Plain Text Заголовок : Forced Язык : Russian Default : Да Forced : Нет

Текст #2 Идентификатор : 5 Формат : UTF-8 Идентификатор кодека : S_TEXT/UTF8 Идентификатор кодека/Информация : UTF-8 Plain Text Заголовок : Full Язык : Russian Default : Нет Forced : Нет

Текст #3 Идентификатор : 6 Формат : UTF-8 Идентификатор кодека : S_TEXT/UTF8 Идентификатор кодека/Информация : UTF-8 Plain Text Заголовок : Full Nunegsdli Язык : Russian Default : Нет Forced : Нет

Текст #4 Идентификатор : 7 Формат : UTF-8 Идентификатор кодека : S_TEXT/UTF8 Идентификатор кодека/Информация : UTF-8 Plain Text Заголовок : Full Язык : English Default : Нет Forced : Нет

Текст #5 Идентификатор : 8 Формат : UTF-8 Идентификатор кодека : S_TEXT/UTF8 Идентификатор кодека/Информация : UTF-8 Plain Text Заголовок : SDH Язык : English Default : Нет Forced : Нет

Меню 00:00:00.000 : en:Chapter 01 00:09:26.482 : en:Chapter 02 00:15:49.406 : en:Chapter 03 00:22:36.146 : en:Chapter 04 00:29:16.171 : en:Chapter 05 00:38:43.321 : en:Chapter 06 00:46:44.092 : en:Chapter 07 00:53:02.679 : en:Chapter 08 00:56:17.332 : en:Chapter 09 01:02:43.926 : en:Chapter 10 01:07:48.314 : en:Chapter 11 01:12:24.548 : en:Chapter 12 01:17:13.045 : en:Chapter 13 01:22:45.669 : en:Chapter 14 01:26:32.145 : en:Chapter 15 01:32:29.669 : en:Chapter 16 01:40:25.102 : en:Chapter 17 01:47:38.118 : en:Chapter 18 01:51:12.832 : en:Chapter 19 01:53:58.832 : en:Chapter 20 02:03:07.129 : en:Chapter 21

mrutor.org

rutor.org :: Варкрафт / Warcraft (2016) BDRip 1080p от NNNB

main-rutor.org

Варкрафт / Warcraft«Два мира - одна судьба»Русское название: ВаркрафтОригинальное название: WarcraftГод выпуска: 2016Жанр: фэнтези, боевик, приключенияВыпущено: Китай, Канада, Япония, СШАРежиссер: Дункан Джонс В ролях: Трэвис Фиммел , Пола Пэттон , Бен Фостер , Доминик Купер , Тоби Кеббелл , Бен Шнетцер , Роберт Казински , Клэнси Браун , Дэниэл Ву , Рут Негга , Анна Галвин , Каллум Кит Ренни Перевод: Дублированный, Авторский одноголосый

Сюжет фильма: Веками магия и неприступные стены защищали людей от любых напастей. Но древнее зло, побежденное и забытое тысячелетия назад, пробудилось.

Качество: BDRip 1080pФормат: AVC (библиотека кодирования x.264)Контейнер (Расширение): MKVВидео: 1920x790, 13000 Кбит/сек, 23,976 кадр/сек, 0,357 Бит/[Пиксели*Кадры]Аудио №1: русский / AC3 / 5.1 / 48 kHz / 640 kbps / |Дублированный| Аудио №2: русский / AC3 / 5.1 / 48 kHz / 640 kbps / |Авторский одноголосый, Д.Есарев| Аудио №3: английский / AC3 / 5.1 / 48 kHz / 640 kbps /Субтитры: русские (Forced), русские (Full), русские (Full Nunegsdli), английские (Full), английские (SDH)Навигация по главам(Чаптеры): естьПродолжительность: 02:03:07Видеоряд: HDMaNiAcS

Релиз от: Сообщество:

***Перевод Дмитрия Есарева доступен благодаря переулку Переводмана: Прохожий, Pr0peLLer, Star Dog, shandorra, ana2363, Shrooms, ZeDOK, Start.Point, MonSsa, ivan_aka_flint, otputi

MediaInfo

Format : Matroska Format version : Version 2 File size : 12.8 GiB Duration : 2 h 3 min Overall bit rate : 14.9 Mb/s Movie name : Warcraft.(2016).BDRip.1080p.[denis100] Encoded date : UTC 2016-10-17 20:47:16 Writing application : mkvmerge v5.8.0 ('No Sleep / Pillow') built on Sep 2 2012 15:37:04 Writing library : libebml v1.2.3 + libmatroska v1.3.0

Video ID : 1 Format : AVC Format/Info : Advanced Video Codec Format profile : [email protected] Format settings, CABAC : Yes Format settings, ReFrames : 5 frames Codec ID : V_MPEG4/ISO/AVC Duration : 2 h 3 min Bit rate : 13.0 Mb/s Width : 1 920 pixels Height : 790 pixels Display aspect ratio : 2.40:1 Frame rate mode : Constant Frame rate : 23.976 (24000/1001) FPS Color space : YUV Chroma subsampling : 4:2:0 Bit depth : 8 bits Scan type : Progressive Bits/(Pixel*Frame) : 0.357 Stream size : 10.9 GiB (85%) Title : Warcraft.(2016).BDRip.1080p.[denis100] Writing library : x264 core 146 r2538 121396c Encoding settings : cabac=1 / ref=5 / deblock=1:-3:-3 / analyse=0x3:0x133 / me=tesa / subme=11 / psy=1 / psy_rd=1.04:0.00 / mixed_ref=1 / me_range=32 / chroma_me=1 / trellis=2 / 8x8dct=1 / cqm=0 / deadzone=21,11 / fast_pskip=0 / chroma_qp_offset=-2 / threads=60 / lookahead_threads=6 / sliced_threads=0 / nr=0 / decimate=0 / interlaced=0 / bluray_compat=0 / constrained_intra=0 / bframes=9 / b_pyramid=2 / b_adapt=2 / b_bias=0 / direct=3 / weightb=1 / open_gop=0 / weightp=2 / keyint=240 / keyint_min=23 / scenecut=40 / intra_refresh=0 / rc_lookahead=150 / rc=2pass / mbtree=0 / bitrate=13000 / ratetol=1.0 / qcomp=0.60 / qpmin=0 / qpmax=69 / qpstep=4 / cplxblur=20.0 / qblur=0.5 / vbv_maxrate=62500 / vbv_bufsize=78125 / nal_hrd=none / filler=0 / ip_ratio=1.40 / pb_ratio=1.30 / aq=1:0.80 / zones=13298,13555,b=1.4/55219,55493,b=1.4/163947,177119,b=0.2 Language : English Default : Yes Forced : No Color range : Limited Matrix coefficients : BT.709

Audio #1 ID : 2 Format : AC-3 Format/Info : Audio Coding 3 Mode extension : CM (complete main) Format settings, Endianness : Big Codec ID : A_AC3 Duration : 2 h 3 min Bit rate mode : Constant Bit rate : 640 kb/s Channel(s) : 6 channels Channel positions : Front: L C R, Side: L R, LFE Sampling rate : 48.0 kHz Frame rate : 31.250 FPS (1536 spf) Compression mode : Lossy Stream size : 564 MiB (4%) Title : Дублированный, BD EUR Language : Russian Default : Yes Forced : No

Audio #2 ID : 3 Format : AC-3 Format/Info : Audio Coding 3 Mode extension : CM (complete main) Format settings, Endianness : Big Codec ID : A_AC3 Duration : 2 h 3 min Bit rate mode : Constant Bit rate : 640 kb/s Channel(s) : 6 channels Channel positions : Front: L C R, Side: L R, LFE Sampling rate : 48.0 kHz Frame rate : 31.250 FPS (1536 spf) Compression mode : Lossy Stream size : 564 MiB (4%) Title : AVO, Есарев Language : Russian Default : No Forced : No

Audio #3 ID : 4 Format : AC-3 Format/Info : Audio Coding 3 Mode extension : CM (complete main) Format settings, Endianness : Big Codec ID : A_AC3 Duration : 2 h 3 min Bit rate mode : Constant Bit rate : 640 kb/s Channel(s) : 6 channels Channel positions : Front: L C R, Side: L R, LFE Sampling rate : 48.0 kHz Frame rate : 31.250 FPS (1536 spf) Compression mode : Lossy Stream size : 564 MiB (4%) Language : English Default : No Forced : No

Text #1 ID : 5 Format : UTF-8 Codec ID : S_TEXT/UTF8 Codec ID/Info : UTF-8 Plain Text Title : Forced Language : Russian Default : Yes Forced : No

Text #2 ID : 6 Format : UTF-8 Codec ID : S_TEXT/UTF8 Codec ID/Info : UTF-8 Plain Text Title : Full Language : Russian Default : No Forced : No

Text #3 ID : 7 Format : UTF-8 Codec ID : S_TEXT/UTF8 Codec ID/Info : UTF-8 Plain Text Title : Full Nunegsdli Language : Russian Default : No Forced : No

Text #4 ID : 8 Format : UTF-8 Codec ID : S_TEXT/UTF8 Codec ID/Info : UTF-8 Plain Text Title : Full Language : English Default : No Forced : No

Text #5 ID : 9 Format : UTF-8 Codec ID : S_TEXT/UTF8 Codec ID/Info : UTF-8 Plain Text Title : SDH Language : English Default : No Forced : No

Menu 00:00:00.000 : en:Chapter 1 00:09:26.483 : en:Chapter 2 00:15:49.407 : en:Chapter 3 00:22:36.146 : en:Chapter 4 00:29:16.171 : en:Chapter 5 00:38:43.321 : en:Chapter 6 00:46:44.093 : en:Chapter 7 00:53:02.679 : en:Chapter 8 00:56:17.332 : en:Chapter 9 01:02:43.927 : en:Chapter 10 01:07:48.314 : en:Chapter 11 01:12:24.549 : en:Chapter 12 01:17:13.045 : en:Chapter 13 01:22:45.669 : en:Chapter 14 01:26:32.145 : en:Chapter 15 01:32:29.669 : en:Chapter 16 01:40:25.102 : en:Chapter 17 01:47:38.118 : en:Chapter 18 01:51:12.833 : en:Chapter 19 01:53:58.832 : en:Chapter 20

Скачать торрент Варкрафт / Warcraft (2016) Blu-Ray CEE 1080p

mrutor.org

«Два мира - одна судьба»

Информация о фильмеНазвание: ВаркрафтОригинальное название: Warcraft Год выхода: 2016Жанр: Фэнтези, боевик, приключенияРежиссер: Дункан ДжонсРоли озвучивают: Трэвис Фиммел, Пола Пэттон, Бен Фостер, Доминик Купер, Тоби Кеббелл, Бен Шнетцер, Роберт Казински, Клэнси Браун, Дэниэл Ву, Рут Негга

О фильме: Веками магия и неприступные стены защищали людей от любых напастей. Но древнее зло, побежденное и забытое тысячелетия назад, пробудилось.

В самом сердце королевства открылся темный портал, и раса невиданных существ наводнила земли Азерота. Так начались события, призванные навсегда изменить судьбу этого мира.

Страна: Китай, Канада, СШАСтудия: Atlas Entertainment, Blizzard Entertainment, Legendary Pictures, Universal PicturesПродолжительность: 02:03:07 Перевод: Профессиональный (полное дублирование)

ФайлКачество: Blu Ray 1080pФормат: BDMVКодек: MPEG-4 AVC VideoВидео: 1920x1080 (16:9), 23,976 fps, MPEG-4 AVC Video ~ 21291 kbps avg, High Profile 4.1 Аудио#1: DTS-HD Master Audio English 4834 kbps 7.1 / 48 kHz / 4834 kbps / 24-bit (AC3 Embedded: 5.1 / 48 kHz / 640 kbps / DN -4dB)Аудио#2: Dolby Digital Audio Czech 640 kbps 5.1 / 48 kHz / 640 kbpsАудио#3: Dolby Digital Audio Hungarian 640 kbps 5.1 / 48 kHz / 640 kbps / DN -4dBАудио#4: Dolby Digital Audio Polish 640 kbps 5.1 / 48 kHz / 640 kbps / DN -4dBАудио#5: Dolby Digital Audio Portuguese 640 kbps 5.1 / 48 kHz / 640 kbps / DN -4dBАудио#6: Dolby Digital Audio Russian 640 kbps 5.1 / 48 kHz / 640 kbps / DN -4dB / Профессиональный (полное дублирование)Аудио#7: Dolby Digital Audio Spanish 640 kbps 5.1 / 48 kHz / 640 kbps / DN -4dBАудио#8: Dolby Digital Audio Thai 640 kbps 5.1 / 48 kHz / 640 kbps / DN -4dBАудио#9: Dolby Digital Audio Turkish 640 kbps 5.1 / 48 kHz / 640 kbps / DN -4dB

Субтитры: Русские, английские, болгарские, китайские, чешские, эстонские, греческие, иврит венгерские. индонезийские, корейские, латышские, литовские, польские, португальские, румынские, испанские, тайские, турецкие, украинские (PGS)

Дополнительно

• Deleted/Extended Scenes • Gag Reel • The World of Warcraft on Film • The Fandom of Warcraft • Warcraft: Bonds of Brotherhood Motion Comic • Warcraft: The Madame Tussauds Experience • ILM: Behind the Magic of Warcraft • Warcraft Teaser - 2013

BDInfo Report

DISC INFO:

Disc Title: WARCRAFT_UPB2_HDCLUB Disc Size: 48 709 531 328 bytes Protection: AACS BD-Java: Yes BDInfo: 0.5.8

PLAYLIST REPORT:

Name: 00800.MPLS Length: 2:03:07.380 (h:m:s.ms) Size: 32 751 046 656 bytes Total Bitrate: 35,47 Mbps

VIDEO:

Codec Bitrate Deion ----- ------- ----------- MPEG-4 AVC Video 21291 kbps 1080p / 23,976 fps / 16:9 / High Profile 4.1

AUDIO:

Codec Language Bitrate Deion ----- -------- ------- ----------- Dolby TrueHD Audio English 4834 kbps 7.1 / 48 kHz / 4834 kbps / 24-bit (AC3 Embedded: 5.1 / 48 kHz / 640 kbps / DN -4dB) Dolby Digital Audio Czech 640 kbps 5.1 / 48 kHz / 640 kbps / DN -4dB Dolby Digital Audio Hungarian 640 kbps 5.1 / 48 kHz / 640 kbps / DN -4dB Dolby Digital Audio Polish 640 kbps 5.1 / 48 kHz / 640 kbps / DN -4dB Dolby Digital Audio Portuguese 640 kbps 5.1 / 48 kHz / 640 kbps / DN -4dB Dolby Digital Audio Russian 640 kbps 5.1 / 48 kHz / 640 kbps / DN -4dB Dolby Digital Audio Spanish 640 kbps 5.1 / 48 kHz / 640 kbps / DN -4dB Dolby Digital Audio Thai 640 kbps 5.1 / 48 kHz / 640 kbps / DN -4dB Dolby Digital Audio Turkish 640 kbps 5.1 / 48 kHz / 640 kbps / DN -4dB

SUBTITLES:

Codec Language Bitrate Deion ----- -------- ------- ----------- Presentation Graphics English 27,155 kbps Presentation Graphics Bulgarian 20,202 kbps Presentation Graphics Chinese 16,059 kbps Presentation Graphics Chinese 19,080 kbps Presentation Graphics Croatian 20,923 kbps Presentation Graphics Czech 18,803 kbps Presentation Graphics Czech 0,198 kbps Presentation Graphics Estonian 20,074 kbps Presentation Graphics Greek 24,677 kbps Presentation Graphics Hebrew 14,897 kbps Presentation Graphics Hungarian 21,347 kbps Presentation Graphics Hungarian 0,091 kbps Presentation Graphics Indonesian 23,120 kbps Presentation Graphics Korean 14,753 kbps Presentation Graphics Latvian 20,514 kbps Presentation Graphics Lithuanian 22,275 kbps Presentation Graphics Polish 20,653 kbps Presentation Graphics Polish 0,033 kbps Presentation Graphics Portuguese 20,164 kbps Presentation Graphics Portuguese 0,281 kbps Presentation Graphics Romanian 20,783 kbps Presentation Graphics Russian 21,052 kbps Presentation Graphics Russian 0,152 kbps Presentation Graphics Slovenian 18,796 kbps Presentation Graphics Spanish 22,521 kbps Presentation Graphics Spanish 0,139 kbps Presentation Graphics Thai 18,147 kbps Presentation Graphics Thai 0,117 kbps Presentation Graphics Turkish 21,326 kbps Presentation Graphics Turkish 0,161 kbps Presentation Graphics Ukrainian 19,996 kbps

FILES:

Name Time In Length Size Total Bitrate ---- ------- ------ ---- ------------- 00800.M2TS 0:00:00.000 2:03:07.380 32 751 046 656 35 467

Релиз от:


Смотрите также