Властелин колец все части режиссерская версия скачать торрент 1080


rutor.org :: Властелин колец: Кинотрилогия / The Lord of the Rings: The Motion Picture Trilogy (2001-2003) BDRip 1080p

main-rutor.org

Жанр: Фэнтези, боевик, приключенияГод выпуска: 2001 / 2002 / 2003Продолжительность: 03:48:18 | 03:55:30 | 04:23:16Режиссёр: Питер Джексон

Властелин колец: Братство кольца / The Lord of the Rings: The Fellowship of the Ring (2001) BDRip 1080p | Extended Edition

Информация о фильмеНазвание: Властелин колец: Братство кольцаОригинальное название: The Lord of the Rings: The Fellowship of the RingГод выхода: 2001Жанр: Фэнтези, боевик, приключенияРежиссер: Питер ДжексонВ ролях: Элайджа Вуд, Иэн МакКеллен, Вигго Мортенсен, Шон Бин, Орландо Блум, Джон Рис-Дэвис, Иэн Холм, Шон Эстин, Билли Бойд, Доминик Монахэн, Хьюго Уивинг, Кейт Бланшетт, Лив Тайлер, Кристофер Ли

О фильме: Сказания о Средиземье — это хроника Великой войны за Кольцо, войны, длившейся не одну тысячу лет. Тот, кто владел Кольцом, получал власть над всеми живыми тварями, но был обязан служить злу.

Тихая деревня, где живут хоббиты. Волшебник Гэндальф, придя на 111-й день рождения к своему старому другу Бильбо Бэггинсу, начинает вести разговор о кольце, которое Бильбо нашел много лет назад. Это кольцо принадлежало когда-то темному властителю Средиземья Саурону, и оно дает большую власть своему обладателю. Теперь Саурон хочет вернуть себе власть над Средиземьем. Бильбо отдает найденное кольцо своему племяннику Фродо, который пытается научиться справляться с тем страшным могуществом, которое дает ему кольцо…

Страна: США, Новая ЗеландияСтудия: New Line Cinema, The Saul Zaentz Company, WingNut FilmsПродолжительность: 03:48:18Перевод: Дублированный + вставки многоголосый Позитив-Мультимедиа [на расширенные места] + Профессиональный (многоголосый, закадровый) Позитив-Мультимедиа + Профессиональный (многоголосый, закадровый) Киномания/Супербит-СРИ + Авторский (одноголосый, закадровый) Андрей Гаврилов + Авторский (одноголосый, закадровый) Сергей Рябов + Оригинал

ФайлКодек: x264Качество: BDRip 1080p (источник: HANSMER / Blu-ray Remux / 1080p)Видео: 1920х800 (2.40:1), 10145 Kbps, 23.976 fps, 0.275 bit/pixelАудио #1: 48.0 kHz, AC3 Dolby Digital, 3/2 (L,C,R,l,r) + LFE ch, 448 kbps [Дубляж + вставки многоголосый Позитив-Мультимедиа [на расширенные места]]Аудио #2: 48.0 kHz, AC3 Dolby Digital, 3/2 (L,C,R,l,r) + LFE ch, 640 kbps [Многоголосый, Позитив-Мультимедиа]Аудио #3: 48.0 kHz, AC3 Dolby Digital, 3/2 (L,C,R,l,r) + LFE ch, 640 kbps [Многоголосый, Киномания/Супербит-СРИ]Аудио #4: 48.0 kHz, AC3 Dolby Digital, 3/2 (L,C,R,l,r) + LFE ch, 640 kbps [Авторский, А. Гаврилов]Аудио #5: 48.0 kHz, AC3 Dolby Digital, 3/2 (L,C,R,l,r) + LFE ch, 640 kbps [Авторский, С. Рябов]Аудио #6: 48.0 kHz, AC3 Dolby Digital, 3/2 (L,C,R,l,r) + LFE ch, 640 kbps [Оригинал, Английский]Субтитры: Русские [форсированные, полные], английские [SDH]

Семпл

x264 / MediaInfo

x264 [info]: frame I:3124 Avg QP:13.92 size:206869 x264 [info]: frame P:86960 Avg QP:16.12 size: 88693 x264 [info]: frame B:238334 Avg QP:17.96 size: 37790

General Unique ID : 248558528662624536557905368048262864318 (0xBAFEA19EBD3D0D04A1E239C71F465DBE) Complete name : The.Lord.of.the.Rings.The.Fellowship.of.the.Ring.2001.x264.BDRip.1080p.Extended.Edition.mkv Format : Matroska Format version : Version 2 File size : 22.0 GiB Duration : 3h 48mn Overall bit rate : 13.8 Mbps Encoded date : UTC 2014-10-11 13:36:40 Writing application : mkvmerge v5.8.0 ('No Sleep / Pillow') built on Sep 2 2012 15:37:04 Writing library : libebml v1.2.3 + libmatroska v1.3.0

Video ID : 1 Format : AVC Format/Info : Advanced Video Codec Format profile : [email protected] Format settings, CABAC : Yes Format settings, ReFrames : 5 frames Codec ID : V_MPEG4/ISO/AVC Duration : 3h 48mn Bit rate : 10.1 Mbps Width : 1 920 pixels Height : 800 pixels Display aspect ratio : 2.40:1 Frame rate mode : Constant Frame rate : 23.976 fps Color space : YUV Chroma subsampling : 4:2:0 Bit depth : 8 bits Scan type : Progressive Bits/(Pixel*Frame) : 0.275 Stream size : 15.7 GiB (72%) Writing library : x264 core 142 r2479 dd79a61 Encoding settings : cabac=1 / ref=5 / deblock=1:-3:-3 / analyse=0x3:0x133 / me=tesa / subme=11 / psy=1 / psy_rd=1.10:0.00 / mixed_ref=1 / me_range=32 / chroma_me=1 / trellis=2 / 8x8dct=1 / cqm=0 / deadzone=21,11 / fast_pskip=0 / chroma_qp_offset=-2 / threads=12 / lookahead_threads=1 / sliced_threads=0 / nr=0 / decimate=0 / interlaced=0 / bluray_compat=0 / constrained_intra=0 / bframes=4 / b_pyramid=2 / b_adapt=2 / b_bias=0 / direct=3 / weightb=1 / open_gop=0 / weightp=2 / keyint=240 / keyint_min=23 / scenecut=40 / intra_refresh=0 / rc=2pass / mbtree=0 / bitrate=10145 / ratetol=1.0 / qcomp=0.60 / qpmin=0 / qpmax=69 / qpstep=4 / cplxblur=20.0 / qblur=0.5 / ip_ratio=1.40 / pb_ratio=1.30 / aq=1:1.00 Language : English Default : Yes Forced : No

Audio #1 ID : 2 Format : AC-3 Format/Info : Audio Coding 3 Mode extension : CM (complete main) Format settings, Endianness : Big Codec ID : A_AC3 Duration : 3h 48mn Bit rate mode : Constant Bit rate : 448 Kbps Channel(s) : 6 channels Channel positions : Front: L C R, Side: L R, LFE Sampling rate : 48.0 KHz Bit depth : 16 bits Compression mode : Lossy Stream size : 732 MiB (3%) Title : Дубляж + вставки многоголосый Позитив-Мультимедиа [на расширенные места] Language : Russian Default : Yes Forced : No

Audio #2 ID : 3 Format : AC-3 Format/Info : Audio Coding 3 Mode extension : CM (complete main) Format settings, Endianness : Big Codec ID : A_AC3 Duration : 3h 48mn Bit rate mode : Constant Bit rate : 640 Kbps Channel(s) : 6 channels Channel positions : Front: L C R, Side: L R, LFE Sampling rate : 48.0 KHz Bit depth : 16 bits Compression mode : Lossy Stream size : 1.02 GiB (5%) Title : Многоголосый, Позитив-Мультимедиа Language : Russian Default : No Forced : No

Audio #3 ID : 4 Format : AC-3 Format/Info : Audio Coding 3 Mode extension : CM (complete main) Format settings, Endianness : Big Codec ID : A_AC3 Duration : 3h 48mn Bit rate mode : Constant Bit rate : 640 Kbps Channel(s) : 6 channels Channel positions : Front: L C R, Side: L R, LFE Sampling rate : 48.0 KHz Bit depth : 16 bits Compression mode : Lossy Stream size : 1.02 GiB (5%) Title : Многоголосый, Киномания/Супербит-СРИ Language : Russian Default : No Forced : No

Audio #4 ID : 5 Format : AC-3 Format/Info : Audio Coding 3 Mode extension : CM (complete main) Format settings, Endianness : Big Codec ID : A_AC3 Duration : 3h 48mn Bit rate mode : Constant Bit rate : 640 Kbps Channel(s) : 6 channels Channel positions : Front: L C R, Side: L R, LFE Sampling rate : 48.0 KHz Bit depth : 16 bits Compression mode : Lossy Stream size : 1.02 GiB (5%) Title : Авторский, А. Гаврилов Language : Russian Default : No Forced : No

Audio #5 ID : 6 Format : AC-3 Format/Info : Audio Coding 3 Mode extension : CM (complete main) Format settings, Endianness : Big Codec ID : A_AC3 Duration : 3h 48mn Bit rate mode : Constant Bit rate : 640 Kbps Channel(s) : 6 channels Channel positions : Front: L C R, Side: L R, LFE Sampling rate : 48.0 KHz Bit depth : 16 bits Compression mode : Lossy Stream size : 1.02 GiB (5%) Title : Авторский, С. Рябов Language : Russian Default : No Forced : No

Audio #6 ID : 7 Format : AC-3 Format/Info : Audio Coding 3 Mode extension : CM (complete main) Format settings, Endianness : Big Codec ID : A_AC3 Duration : 3h 48mn Bit rate mode : Constant Bit rate : 640 Kbps Channel(s) : 6 channels Channel positions : Front: L C R, Side: L R, LFE Sampling rate : 48.0 KHz Bit depth : 16 bits Compression mode : Lossy Stream size : 1.02 GiB (5%) Title : Оригинал, Английский Language : English Default : No Forced : No

Text #1 ID : 8 Format : UTF-8 Codec ID : S_TEXT/UTF8 Codec ID/Info : UTF-8 Plain Text Title : Русские [форсированные] Language : Russian Default : Yes Forced : No

Text #2 ID : 9 Format : UTF-8 Codec ID : S_TEXT/UTF8 Codec ID/Info : UTF-8 Plain Text Title : Русские [полные] Language : Russian Default : No Forced : No

Text #3 ID : 10 Format : UTF-8 Codec ID : S_TEXT/UTF8 Codec ID/Info : UTF-8 Plain Text Title : Английские [SDH] Language : English Default : No Forced : No

Menu 00:00:00.000 : en: 1. Prologue: One Ring To Rule Them All... 00:07:36.790 : en: 2. Concerning Hobbits 00:10:35.552 : en: 3. The Shire 00:15:39.856 : en: 4. Very Old Friends 00:19:58.489 : en: 5. A Long-expected Party 00:25:32.614 : en: 6. Farewell Dear Bilbo 00:29:57.379 : en: 7. Keep It Secret, Keep It Safe 00:32:10.679 : en: 8. The Account Of Isildur 00:34:51.798 : en: 9. At The Green Dragon 00:36:18.176 : en:10. The Shadow of the Past 00:45:04.160 : en:11. The Passing of the Elves 00:46:44.301 : en:12. Saruman The White 00:51:21.412 : en:13. A Short Cut to Mushrooms 00:55:12.434 : en:14. Bucklebury Ferry 00:57:30.072 : en:15. At the Sign of The Prancing Pony 01:03:31.516 : en:16. The Nazgul 01:07:16.115 : en:17. The Midgewater Marshes 01:08:53.588 : en:18. The Spoiling Of Isengard 01:10:35.940 : en:19. A Knife in the Dark 01:15:15.386 : en:20. The Caverns of Isengard 01:17:46.620 : en:21. Flight to the Ford 01:24:11.546 : en:22. Rivendell 01:26:12.501 : en:23. Many Meetings 01:29:41.585 : en:24. The Fate of the Ring 01:33:14.672 : en:25. The Sword That Was Broken 01:35:54.082 : en:26. The Evenstar 01:37:32.972 : en:27. The Council of Elrond 01:45:45.000 : en:28. Gilraen's Memorial 01:46:59.826 : en:29. Bilbo's Gifts 01:48:43.221 : en:30. The Departure of the Fellowship 01:50:00.631 : en:31. The Ring Goes South 01:53:06.442 : en:32. The Pass of Caradhras 01:57:52.728 : en:33. Moria 02:04:18.113 : en:34. A Journey in the Dark 02:10:48.461 : en:35. Balin's Tomb 02:20:13.192 : en:36. The Bridge of Khazad-Dum 02:29:54.648 : en:37. Lothlorien 02:33:07.299 : en:38. Caras Galadhorn 02:40:24.319 : en:39. The Mirror of Galadriel 02:46:04.325 : en:40. The Fighting Uruk-Hai 02:47:45.676 : en:41. Farewell to Lorien 02:53:08.207 : en:42. The Great River 02:58:00.457 : en:43. Parth Galen 03:04:28.219 : en:44. The Breaking of the Fellowship 03:11:44.155 : en:45. The Departure of Boromir 03:14:26.484 : en:46. The Road Goes Ever On 03:20:44.653 : en:47. Credits 03:28:25.155 : en:48. Official Fan Club Credits

Властелин колец: Две крепости / The Lord of the Rings: The Two Towers (2002) BDRip 1080p | Extended Edition

Информация о фильмеНазвание: Властелин колец: Две крепостиОригинальное название: The Lord of the Rings: The Two TowersГод выхода: 2002Жанр: Фэнтези, боевик, приключенияРежиссер: Питер ДжексонВ ролях: Элайджа Вуд, Шон Эстин, Орландо Блум, Вигго Мортенсен, Иэн МакКеллен, Доминик Монахэн, Миранда Отто, Джон Рис-Дэвис, Энди Серкис, Билли Бойд, Кристофер Ли, Бернард Хилл, Кейт Бланшетт, Брэд Дуриф, Лив Тайлер, Карл Урбан, Хьюго Уивинг, Дэвид Уэнэм

О фильме: Братство распалось, но Кольцо Всевластья должно быть уничтожено. Фродо и Сэм вынуждены доверить свои жизни Голлуму, который взялся провести их к вратам Мордора. Громадная Армия Сарумана приближается: члены братства и их союзники готовы принять бой. Битва за Средиземье продолжается.

Страна: США, Новая ЗеландияСтудия: New Line Cinema, The Saul Zaentz Company, WingNut FilmsПродолжительность: 03:55:30Перевод: Дублированный + вставки многоголосый Позитив-Мультимедиа [на расширенные места] + Профессиональный (многоголосый, закадровый) Позитив-Мультимедиа + Профессиональный (многоголосый, закадровый) Киномания/Супербит-СРИ + Авторский (одноголосый, закадровый) Андрей Гаврилов + Авторский (одноголосый, закадровый) Сергей Рябов + Оригинал

ФайлКодек: x264Качество: BDRip 1080p (источник: HANSMER / Blu-ray Remux / 1080p)Видео: 1920х800 (2.40:1), 10333 Kbps, 23.976 fps, 0.281 bit/pixelАудио #1: 48.0 kHz, AC3 Dolby Digital, 3/2 (L,C,R,l,r) + LFE ch, 448 kbps [Дубляж + вставки многоголосый Позитив-Мультимедиа [на расширенные места]]Аудио #2: 48.0 kHz, AC3 Dolby Digital, 3/2 (L,C,R,l,r) + LFE ch, 640 kbps [Многоголосый, Позитив-Мультимедиа]Аудио #3: 48.0 kHz, AC3 Dolby Digital, 3/2 (L,C,R,l,r) + LFE ch, 640 kbps [Многоголосый, Киномания/Супербит-СРИ]Аудио #4: 48.0 kHz, AC3 Dolby Digital, 3/2 (L,C,R,l,r) + LFE ch, 640 kbps [Авторский, А. Гаврилов]Аудио #5: 48.0 kHz, AC3 Dolby Digital, 3/2 (L,C,R,l,r) + LFE ch, 640 kbps [Авторский, С. Рябов]Аудио #6: 48.0 kHz, AC3 Dolby Digital, 3/2 (L,C,R,l,r) + LFE ch, 640 kbps [Оригинал, Английский]Субтитры: Русские [форсированные, полные], английские [SDH]

Семпл

x264 / MediaInfo

x264 [info]: frame I:2267 Avg QP:16.00 size:183450 x264 [info]: frame P:83898 Avg QP:18.50 size: 85560 x264 [info]: frame B:252619 Avg QP:20.41 size: 42168

General Unique ID : 221209251281776121596906941594240274812 (0xA66B5A2359B831D1B195732C8327D17C) Complete name : The.Lord.of.the.Rings.The.Two.Towers.2002.x264.BDRip.1080p.Extended.Edition.mkv Format : Matroska Format version : Version 2 File size : 23.0 GiB Duration : 3h 55mn Overall bit rate : 14.0 Mbps Encoded date : UTC 2014-10-12 06:54:52 Writing application : mkvmerge v5.8.0 ('No Sleep / Pillow') built on Sep 2 2012 15:37:04 Writing library : libebml v1.2.3 + libmatroska v1.3.0

Video ID : 1 Format : AVC Format/Info : Advanced Video Codec Format profile : [email protected] Format settings, CABAC : Yes Format settings, ReFrames : 5 frames Codec ID : V_MPEG4/ISO/AVC Duration : 3h 55mn Bit rate : 10.3 Mbps Width : 1 920 pixels Height : 800 pixels Display aspect ratio : 2.40:1 Frame rate mode : Constant Frame rate : 23.976 fps Color space : YUV Chroma subsampling : 4:2:0 Bit depth : 8 bits Scan type : Progressive Bits/(Pixel*Frame) : 0.281 Stream size : 16.5 GiB (72%) Writing library : x264 core 142 r2479 dd79a61 Encoding settings : cabac=1 / ref=5 / deblock=1:-3:-3 / analyse=0x3:0x133 / me=tesa / subme=11 / psy=1 / psy_rd=1.07:0.00 / mixed_ref=1 / me_range=32 / chroma_me=1 / trellis=2 / 8x8dct=1 / cqm=0 / deadzone=21,11 / fast_pskip=0 / chroma_qp_offset=-2 / threads=12 / lookahead_threads=3 / sliced_threads=0 / nr=0 / decimate=0 / interlaced=0 / bluray_compat=0 / constrained_intra=0 / bframes=10 / b_pyramid=2 / b_adapt=2 / b_bias=0 / direct=3 / weightb=1 / open_gop=0 / weightp=2 / keyint=240 / keyint_min=23 / scenecut=40 / intra_refresh=0 / rc=2pass / mbtree=0 / bitrate=10333 / ratetol=1.0 / qcomp=0.60 / qpmin=0 / qpmax=69 / qpstep=4 / cplxblur=20.0 / qblur=0.5 / ip_ratio=1.40 / pb_ratio=1.30 / aq=1:1.00 Language : English Default : Yes Forced : No

Audio #1 ID : 2 Format : AC-3 Format/Info : Audio Coding 3 Mode extension : CM (complete main) Format settings, Endianness : Big Codec ID : A_AC3 Duration : 3h 55mn Bit rate mode : Constant Bit rate : 448 Kbps Channel(s) : 6 channels Channel positions : Front: L C R, Side: L R, LFE Sampling rate : 48.0 KHz Bit depth : 16 bits Compression mode : Lossy Stream size : 755 MiB (3%) Title : Дубляж + вставки многоголосый Позитив-Мультимедиа [на расширенные места] Language : Russian Default : Yes Forced : No

Audio #2 ID : 3 Format : AC-3 Format/Info : Audio Coding 3 Mode extension : CM (complete main) Format settings, Endianness : Big Codec ID : A_AC3 Duration : 3h 55mn Bit rate mode : Constant Bit rate : 640 Kbps Channel(s) : 6 channels Channel positions : Front: L C R, Side: L R, LFE Sampling rate : 48.0 KHz Bit depth : 16 bits Compression mode : Lossy Stream size : 1.05 GiB (5%) Title : Многоголосый, Позитив-Мультимедиа Language : Russian Default : No Forced : No

Audio #3 ID : 4 Format : AC-3 Format/Info : Audio Coding 3 Mode extension : CM (complete main) Format settings, Endianness : Big Codec ID : A_AC3 Duration : 3h 55mn Bit rate mode : Constant Bit rate : 640 Kbps Channel(s) : 6 channels Channel positions : Front: L C R, Side: L R, LFE Sampling rate : 48.0 KHz Bit depth : 16 bits Compression mode : Lossy Stream size : 1.05 GiB (5%) Title : Многоголосый, Киномания/Супербит-СРИ Language : Russian Default : No Forced : No

Audio #4 ID : 5 Format : AC-3 Format/Info : Audio Coding 3 Mode extension : CM (complete main) Format settings, Endianness : Big Codec ID : A_AC3 Duration : 3h 55mn Bit rate mode : Constant Bit rate : 640 Kbps Channel(s) : 6 channels Channel positions : Front: L C R, Side: L R, LFE Sampling rate : 48.0 KHz Bit depth : 16 bits Compression mode : Lossy Stream size : 1.05 GiB (5%) Title : Авторский, А. Гаврилов Language : Russian Default : No Forced : No

Audio #5 ID : 6 Format : AC-3 Format/Info : Audio Coding 3 Mode extension : CM (complete main) Format settings, Endianness : Big Codec ID : A_AC3 Duration : 3h 55mn Bit rate mode : Constant Bit rate : 640 Kbps Channel(s) : 6 channels Channel positions : Front: L C R, Side: L R, LFE Sampling rate : 48.0 KHz Bit depth : 16 bits Compression mode : Lossy Stream size : 1.05 GiB (5%) Title : Авторский, С. Рябов Language : Russian Default : No Forced : No

Audio #6 ID : 7 Format : AC-3 Format/Info : Audio Coding 3 Mode extension : CM (complete main) Format settings, Endianness : Big Codec ID : A_AC3 Duration : 3h 55mn Bit rate mode : Constant Bit rate : 640 Kbps Channel(s) : 6 channels Channel positions : Front: L C R, Side: L R, LFE Sampling rate : 48.0 KHz Bit depth : 16 bits Compression mode : Lossy Stream size : 1.05 GiB (5%) Title : Оригинал, Английский Language : English Default : No Forced : No

Text #1 ID : 8 Format : UTF-8 Codec ID : S_TEXT/UTF8 Codec ID/Info : UTF-8 Plain Text Title : Русские [форсированные] Language : Russian Default : Yes Forced : No

Text #2 ID : 9 Format : UTF-8 Codec ID : S_TEXT/UTF8 Codec ID/Info : UTF-8 Plain Text Title : Русские [полные] Language : Russian Default : No Forced : No

Text #3 ID : 10 Format : UTF-8 Codec ID : S_TEXT/UTF8 Codec ID/Info : UTF-8 Plain Text Title : Английские [SDH] Language : English Default : No Forced : No

Menu 00:00:00.000 : en: 1. The Foundations of Stone 00:04:08.748 : en: 2. Elven Rope 00:06:10.829 : en: 3. The Taming of Smeagol 00:14:44.967 : en: 4. The Uruk-hai 00:17:06.609 : en: 5. The Three Hunters 00:19:17.948 : en: 6. The Burning of the Westfold 00:23:07.094 : en: 7. Massacre at the Fords of Isen 00:23:58.312 : en: 8. The Banishment of omer 00:27:09.044 : en: 9. On the Trail of the Uruk-hai 00:28:03.181 : en:10. Night Camp at Fangorn 00:31:38.230 : en:11. The Riders of Rohan 00:35:45.518 : en:12. The Fate of Merry and Pippin 00:38:17.879 : en:13. Treebeard 00:41:47.797 : en:14. The Passage of the Marshes 00:50:49.755 : en:15. The White Rider 00:58:19.413 : en:16. The Song of the Entwives 01:00:40.178 : en:17. The Heir of Numenor 01:02:48.306 : en:18. The Black Gate is Closed 01:08:05.999 : en:19. Ent Draft 01:12:41.732 : en:20. The King of the Golden Hall 01:24:17.344 : en:21. The Funeral of Theodred 01:25:41.636 : en:22. Simbelmyne on the Burial Mounds 01:27:34.332 : en:23. The King's Decision 01:30:45.523 : en:24. Brego 01:32:30.587 : en:25. The Ring of Barahir 01:34:31.040 : en:26. A Daughter of Kings 01:35:57.043 : en:27. Exodus from Edoras 01:37:02.316 : en:28. The Forests of Ithilien 01:38:43.960 : en:29. Gollum and Smeagol 01:41:14.819 : en:30. Of Herbs and Stewed Rabbit 01:46:40.000 : en:31. Dwarf Women 01:47:22.793 : en:32. One of the Dunedain 01:49:52.651 : en:33. The Evenstar 01:54:59.207 : en:34. The Wolves of Isengard 02:01:37.396 : en:35. Helm's Deep 02:04:17.515 : en:36. Isengard Unleashed 02:06:53.963 : en:37. The Grace of the Valar 02:08:31.519 : en:38. Arwen's Fate 02:12:14.283 : en:39. The Story Foreseen from Lorien 02:14:40.262 : en:40. The Window on the West 02:18:29.866 : en:41. Sons of the Steward 02:23:09.437 : en:42. The Forbidden Pool 02:30:31.128 : en:43. Aragorn's Return 02:36:04.378 : en:44. Entmoot 02:37:24.250 : en:45. The Glittering Caves 02:40:32.521 : en:46. "Where Is the Horse and the Rider?" 02:42:17.251 : en:47. "Don't Be Hasty, Master Meriadoc!" 02:43:07.926 : en:48. The Host of the Eldar 02:46:42.015 : en:49. The Batter of the Hornburg 02:53:04.397 : en:50. Old Entish 02:54:41.452 : en:51. The Breach of the Deeping Wall 02:58:06.574 : en:52. The Entmoot Decides 02:59:51.721 : en:53. The Retreat to the Hornburg 03:05:54.208 : en:54. Master Peregrin's Plan 03:07:19.293 : en:55. Osgiliath 03:07:54.036 : en:56. The Last March of the Ents 03:10:23.560 : en:57. The Nazgul Attack 03:12:55.545 : en:58. Forth Eorlingas 03:17:34.032 : en:59. The Flooding of Isengard 03:20:00.386 : en:60. The Tales That Really Mattered... 03:24:45.671 : en:61. Fangorn Comes to Helm's Deep 03:25:37.224 : en:62. The Final Tally 03:26:18.764 : en:63. Flotsam and Jetsam 03:28:22.555 : en:64. Farewell to Faramir 03:30:52.413 : en:65. "The Battle for Middle-Earth is About to Begin" 03:32:32.096 : en:66. Gollum's Plan 03:34:56.240 : en:67. End Credits 03:43:52.525 : en:68. Fan Club Credits

Властелин колец: Возвращение Короля / The Lord of the Rings: The Return of the King (2003) BDRip 1080p | Extended Edition

Информация о фильмеНазвание: Властелин колец: Возвращение КороляОригинальное название: The Lord of the Rings: The Return of the KingГод выхода: 2003Жанр: Фэнтези, боевик, приключенияРежиссер: Питер ДжексонВ ролях: Элайджа Вуд, Вигго Мортенсен, Шон Эстин, Иэн МакКеллен, Орландо Блум, Доминик Монахэн, Билли Бойд, Энди Серкис, Миранда Отто, Бернард Хилл, Карл Урбан, Дэвид Уэнэм, Хьюго Уивинг, Кейт Бланшетт, Лив Тайлер, Иэн Холм

О фильме: Последняя часть трилогии о Кольце Всевластия и о героях, взявших на себя бремя спасения Средиземья. Повелитель сил Тьмы Саурон направляет свои бесчисленные рати под стены Минас-Тирита, крепости Последней Надежды. Он предвкушает близкую победу, но именно это и мешает ему заметить две крохотные фигурки — хоббитов, приближающихся к Роковой Горе, где им предстоит уничтожить Кольцо Всевластия. Улыбнется ли им счастье?

Страна: США, Новая ЗеландияСтудия: New Line Cinema, The Saul Zaentz Company, WingNut FilmsПродолжительность: 04:23:16Перевод: Дублированный + вставки многоголосый Позитив-Мультимедиа [на расширенные места] + Профессиональный (многоголосый, закадровый) Позитив-Мультимедиа + Профессиональный (многоголосый, закадровый) Киномания/Супербит-СРИ + Оригинал

ФайлКодек: x264Качество: BDRip 1080p (источник: HANSMER / Blu-ray Remux / 1080p)Видео: 1920х798 (2.40:1), 11227 Kbps, 23.976 fps, 0.306 bit/pixelАудио #1: 48.0 kHz, AC3 Dolby Digital, 3/2 (L,C,R,l,r) + LFE ch, 448 kbps [Дубляж + вставки многоголосый Позитив-Мультимедиа [на расширенные места]]Аудио #2: 48.0 kHz, AC3 Dolby Digital, 3/2 (L,C,R,l,r) + LFE ch, 640 kbps [Многоголосый, Позитив-Мультимедиа]Аудио #3: 48.0 kHz, AC3 Dolby Digital, 3/2 (L,C,R,l,r) + LFE ch, 640 kbps [Многоголосый, Киномания/Супербит-СРИ]Аудио #4: 48.0 kHz, AC3 Dolby Digital, 3/2 (L,C,R,l,r) + LFE ch, 640 kbps [Оригинал, Английский]Аудио #5: 48.0 kHz, AC3 Dolby Digital, 3/2 (L,C,R,l,r) + LFE ch, 640 kbps [Авторский, А. Гаврилов] Отдельно на disk.yandex.ruАудио #6: 48.0 kHz, AC3 Dolby Digital, 3/2 (L,C,R,l,r) + LFE ch, 640 kbps [Авторский, С. Рябов] Отдельно на disk.yandex.ruСубтитры: Русские [форсированные, полные], английские [SDH]

Семпл

x264 / MediaInfo

x264 [info]: frame I:2425 Avg QP:17.12 size:206871 x264 [info]: frame P:90758 Avg QP:19.98 size: 96813 x264 [info]: frame B:285535 Avg QP:21.86 size: 45097

General Unique ID : 217959188926034082189634363276099791972 (0xA3F969B13D25F5539D41ECF9588F2C64) Complete name : The.Lord.of.the.Rings.The.Return.of.the.King.2003.x264.BDRip.1080p.Extended.Edition.mkv Format : Matroska Format version : Version 2 File size : 25.0 GiB Duration : 4h 23mn Overall bit rate : 13.6 Mbps Encoded date : UTC 2014-10-16 15:22:39 Writing application : mkvmerge v5.8.0 ('No Sleep / Pillow') built on Sep 2 2012 15:37:04 Writing library : libebml v1.2.3 + libmatroska v1.3.0

Video ID : 1 Format : AVC Format/Info : Advanced Video Codec Format profile : [email protected] Format settings, CABAC : Yes Format settings, ReFrames : 5 frames Codec ID : V_MPEG4/ISO/AVC Duration : 4h 23mn Bit rate : 11.2 Mbps Width : 1 920 pixels Height : 798 pixels Display aspect ratio : 2.40:1 Frame rate mode : Constant Frame rate : 23.976 fps Color space : YUV Chroma subsampling : 4:2:0 Bit depth : 8 bits Scan type : Progressive Bits/(Pixel*Frame) : 0.306 Stream size : 20.2 GiB (81%) Writing library : x264 core 142 r2479 dd79a61 Encoding settings : cabac=1 / ref=5 / deblock=1:-3:-3 / analyse=0x3:0x133 / me=tesa / subme=11 / psy=1 / psy_rd=1.00:0.00 / mixed_ref=1 / me_range=32 / chroma_me=1 / trellis=2 / 8x8dct=1 / cqm=0 / deadzone=21,11 / fast_pskip=0 / chroma_qp_offset=-2 / threads=12 / lookahead_threads=3 / sliced_threads=0 / nr=0 / decimate=0 / interlaced=0 / bluray_compat=0 / constrained_intra=0 / bframes=10 / b_pyramid=2 / b_adapt=2 / b_bias=0 / direct=3 / weightb=1 / open_gop=0 / weightp=2 / keyint=240 / keyint_min=23 / scenecut=40 / intra_refresh=0 / rc=2pass / mbtree=0 / bitrate=11227 / ratetol=1.0 / qcomp=0.60 / qpmin=0 / qpmax=69 / qpstep=4 / cplxblur=20.0 / qblur=0.5 / ip_ratio=1.40 / pb_ratio=1.30 / aq=1:1.00 Language : English Default : Yes Forced : No

Audio #1 ID : 2 Format : AC-3 Format/Info : Audio Coding 3 Mode extension : CM (complete main) Format settings, Endianness : Big Codec ID : A_AC3 Duration : 4h 23mn Bit rate mode : Constant Bit rate : 448 Kbps Channel(s) : 6 channels Channel positions : Front: L C R, Side: L R, LFE Sampling rate : 48.0 KHz Bit depth : 16 bits Compression mode : Lossy Stream size : 844 MiB (3%) Title : Дубляж + вставки многоголосый Позитив-Мультимедиа [на расширенные места] Language : Russian Default : Yes Forced : No

Audio #2 ID : 3 Format : AC-3 Format/Info : Audio Coding 3 Mode extension : CM (complete main) Format settings, Endianness : Big Codec ID : A_AC3 Duration : 4h 23mn Bit rate mode : Constant Bit rate : 640 Kbps Channel(s) : 6 channels Channel positions : Front: L C R, Side: L R, LFE Sampling rate : 48.0 KHz Bit depth : 16 bits Compression mode : Lossy Stream size : 1.18 GiB (5%) Title : Многоголосый, Позитив-Мультимедиа Language : Russian Default : No Forced : No

Audio #3 ID : 4 Format : AC-3 Format/Info : Audio Coding 3 Mode extension : CM (complete main) Format settings, Endianness : Big Codec ID : A_AC3 Duration : 4h 23mn Bit rate mode : Constant Bit rate : 640 Kbps Channel(s) : 6 channels Channel positions : Front: L C R, Side: L R, LFE Sampling rate : 48.0 KHz Bit depth : 16 bits Compression mode : Lossy Stream size : 1.18 GiB (5%) Title : Многоголосый, Киномания/Супербит-СРИ Language : Russian Default : No Forced : No

Audio #4 ID : 5 Format : AC-3 Format/Info : Audio Coding 3 Mode extension : CM (complete main) Format settings, Endianness : Big Codec ID : A_AC3 Duration : 4h 23mn Bit rate mode : Constant Bit rate : 640 Kbps Channel(s) : 6 channels Channel positions : Front: L C R, Side: L R, LFE Sampling rate : 48.0 KHz Bit depth : 16 bits Compression mode : Lossy Stream size : 1.18 GiB (5%) Title : Оригинал, Английский Language : English Default : No Forced : No

Text #1 ID : 6 Format : UTF-8 Codec ID : S_TEXT/UTF8 Codec ID/Info : UTF-8 Plain Text Title : Русские [форсированные] Language : Russian Default : Yes Forced : No

Text #2 ID : 7 Format : UTF-8 Codec ID : S_TEXT/UTF8 Codec ID/Info : UTF-8 Plain Text Title : Русские [полные] Language : Russian Default : No Forced : No

Text #3 ID : 8 Format : UTF-8 Codec ID : S_TEXT/UTF8 Codec ID/Info : UTF-8 Plain Text Title : Английские [SDH] Language : English Default : No Forced : No

Menu 00:00:00.000 : en: 1. The Finding of the Ring 00:06:24.342 : en: 2. Journey to the Cross-Roads 00:09:21.394 : en: 3. The Road to Isengard 00:11:21.848 : en: 4. The Voice of Saruman 00:18:23.311 : en: 5. Return to Edoras 00:23:05.009 : en: 6. Gollum's Villany 00:27:03.330 : en: 7. Eowyn's Dream 00:29:00.697 : en: 8. The Palantir 00:37:06.433 : en: 9. Arwen's Vision 00:40:02.567 : en:10. The Reforging of Narsil 00:42:03.229 : en:11. Minas Tirith 00:47:52.203 : en:12. The Decline of Gondor 00:50:18.641 : en:13. Cross-Roads of the Fallen King 00:52:18.761 : en:14. "The Deep Breath Before the Plunge" 00:55:35.332 : en:15. Minas Morgul 00:59:36.406 : en:16. Sam's Warning 01:00:23.703 : en:17. Pippin's Task 01:00:50.605 : en:18. Osgiliath Invaded 01:04:30.075 : en:19. The Lighting of the Beacons 01:07:16.032 : en:20. Theoden's Decision 01:10:35.314 : en:21. The Fall of Osgiliath 01:14:54.824 : en:22. The Wizard's Pupil 01:17:21.971 : en:23. The Stairs of Cirith Ungol 01:19:21.799 : en:24. "Courage Is the Best Defense" 01:20:01.088 : en:25. Peregrin of the Tower Guard 01:21:26.799 : en:26. Allegiance to Denethor 01:23:48.941 : en:27. The Parting of Sam and Frodo 01:29:08.593 : en:28. The Sacrifice of Faramir 01:33:57.590 : en:29. Marshalling at Dunharrow 01:38:08.049 : en:30. Anduril - Flame of the West 01:42:49.705 : en:31. Aragorn Takes the Paths of the Dead 01:45:34.245 : en:32. "No More Despair" 01:46:57.453 : en:33. Dwimorberg - the Haunted Mountain 01:49:24.433 : en:34. The Muster of Rohan 01:51:09.997 : en:35. The Paths of the Dead 01:58:39.696 : en:36. The Siege of Gondor 02:07:41.500 : en:37. The Corsairs of Umbar 02:08:42.779 : en:38. Shelob's Lair 02:17:50.451 : en:39. Merry's Simple Courage 02:19:40.770 : en:40. Grond - The Hammer of the Underworld 02:20:17.139 : en:41. The Tomb of the Stewards 02:21:50.775 : en:42. Breaking the Gate of Gondor 02:22:57.591 : en:43. The Choices of Master Samwise 02:28:59.328 : en:44. Denethor's Madness 02:30:04.643 : en:45. The Witch King's Hour 02:32:29.663 : en:46. The Ride of the Rohirrim 02:36:44.084 : en:47. The Pyre of Denethor 02:38:51.169 : en:48. The Battle of Pelennor Fields 02:43:46.714 : en:49. "A Far Green Country" 02:45:17.138 : en:50. The Nazugl and His Prey 02:47:03.077 : en:51. The Black Ships 02:47:55.504 : en:52. Shieldmaiden of Rohan 02:48:39.757 : en:53. Victory at Minas Tirith 02:51:15.454 : en:54. The Passing of Theoden 02:53:18.160 : en:55. Oaths Fulfilled 02:54:25.102 : en:56. The Houses of Healing 02:56:41.113 : en:57. Pippin Looks After Merry 02:57:33.165 : en:58. The Tower of Cirith Ungol 03:04:29.080 : en:59. The Last Debate 03:06:11.433 : en:60. Aragorn Masters the Palantir 03:07:40.522 : en:61. The Captain and the White Lady 03:08:30.655 : en:62. In the Company of Orcs 03:12:12.043 : en:63. The Land of Shadow 03:16:23.753 : en:64. The Mouth of Sauron 03:19:39.657 : en:65. The Black Gate Opens 03:23:13.454 : en:66. "I Can't Carry It for You... But I Can Carry You" 03:25:26.253 : en:67. The Last Move 03:26:29.358 : en:68. Mount Doom 03:28:25.432 : en:69. "The Eagles Are Coming!" 03:28:59.758 : en:70. The Crack of Doom 03:34:38.012 : en:71. Sauron Defeated 03:36:51.396 : en:72. The End of All Things 03:40:20.396 : en:73. The Fellowship Reunited 03:42:43.497 : en:74. The Return of the King 03:47:36.540 : en:75. Homeward Bound 03:52:18.447 : en:76. The Grey Havens 04:01:37.047 : en:77. End Credits 04:12:44.463 : en:78. Fan Club Credits

rutor.org :: Властелин колец: Кинотрилогия / The Lord of the Rings: Trilogy (2001-2003) Blu-Ray CEE

main-rutor.org

Год выпуска: 2001/2002/2003Страна: США, Германия, Новая Зеландия, New Line Cinema, The Saul Zaentz Company, WingNut FilmsЖанр: боевик, фэнтези, приключенияПродолжительность: 01:45:43+02:02:34 / 01:46:39+02:08:50 / 02:07:40+02:15:35Режиссер: Питер Джексон / Peter Jackson

Властелин колец: Братство кольца / The Lord of the Rings: The Fellowship of the Ring

Название: Властелин колец: Братство кольцаОригинальное название: The Lord of the Rings: The Fellowship of the RingГод выпуска: 2001Жанр: боевик, фэнтези, приключенияРежиссер: Питер ДжексонВ ролях: Элайджа Вуд, Шон Эстин, Вигго Мортенсен, Иэн МакКеллен, Доминик Монахэн, Билли Бойд, Шон Бин, Орландо Блум, Джон Рис-Дэвис, Кристофер Ли

Описание: Сказания о Средиземье — это хроника Великой войны за Кольцо, войны, длившейся не одну тысячу лет. Тот, кто владел Кольцом, получал власть над всеми живыми тварями, но был обязан служить злу. Тихая деревня, где живут хоббиты. Волшебник Гэндальф, придя на 111-й день рождения к своему старому другу Бильбо Бэггинсу, начинает вести разговор о кольце, которое Бильбо нашел много лет назад. Это кольцо принадлежало когда-то темному властителю Средиземья Саурону, и оно дает большую власть своему обладателю. Теперь Саурон хочет вернуть себе власть над Средиземьем. Бильбо отдает найденное кольцо своему племяннику Фродо, который пытается научиться справляться с тем страшным могуществом, которое дает ему кольцо…

Страна: США, Новая Зеландия, ГерманияПродолжительность: 01:45:43 +02:02:34Перевод: Дублированное [лицензия]

ФайлКачество: m2tsКонтейнер: Blu-Ray CEEВидео: h364, 1920h2080p, 23,976 fps, 16:9, High Profile 4.1, 29 857 kbps / 29 894 kbps / 30 236 kbpsАудио: DTS-HD Master Audio 6.1 Russian 4761 / 4442 / 4496 kbps, Dolby Digital Audio 5.1 Russian (Dubbed), Dolby Digital EX Audio 5.1 Russian (MVO - Positive), DTS-HD Master Audio 6.1 English 4718 / 4430 / 4476 kbps , Dolby Digital Audio 2.0 English 192 kbpsCубтитры: Russian (Positive-media, fans of the film, in the Elven language), English, Chinese, Czech, Korean, Polish, Hebrew

Властелин колец: Две крепости / The Lord of the Rings: The Two Towers

Название: Властелин колец: Две крепостиОригинальное название: The Lord of the Rings: The Two TowersГод выпуска: 2002Жанр: боевик, фэнтези, приключенияРежиссер: Питер ДжексонВ ролях: Элайджа Вуд, Вигго Мортенсен, Шон Эстин, Орландо Блум, Хьюго Уивинг, Лив Тайлер, Карл Урбан, Иэн МакКеллен, Брюс Олпресс, Миранда Отто...

Описание: Братство распалось, но Кольцо Всевластья должно быть уничтожено. Фродо и Сэм вынуждены доверить свои жизни Голлуму, который взялся провести их к вратам Мордора. Громадная Армия Сарумана приближается: члены братства и их союзники готовы принять бой. Битва за Средиземье продолжается.…

Страна: Германия, США, Новая ЗеландияПродолжительность: 01:46:39 +02:08:50Перевод: Дублированное [лицензия]

ФайлКачество: m2tsКонтейнер: Blu-Ray CEEВидео: h364, 1920h2080p, 23,976 fps, 16:9, High Profile 4.1, 29 857 kbps / 29 894 kbps / 30 236 kbpsАудио: DTS-HD Master Audio 6.1 Russian 4761 / 4442 / 4496 kbps, Dolby Digital Audio 5.1 Russian (Dubbed), Dolby Digital EX Audio 5.1 Russian (MVO - Positive), DTS-HD Master Audio 6.1 English 4718 / 4430 / 4476 kbps , Dolby Digital Audio 2.0 English 192 kbpsCубтитры: Russian (Positive-media, fans of the film, in the Elven language), English, Chinese, Czech, Korean, Polish, Hebrew

Властелин колец: Возвращение Короля / The Lord of the Rings: The Return of the King

Название: Властелин колец: Возвращение КороляОригинальное название: The Lord of the Rings: The Return of the KingГод выпуска: 2003Жанр: боевик, фэнтези, приключенияРежиссер: Питер ДжексонВ ролях: Элайджа Вуд, Шон Эстин, Орландо Блум, Вигго Мортенсен, Энди Серкис, Доминик Монахэн, Иэн МакКеллен, Миранда Отто, Лив Тайлер, Карл Урбан...

Описание: Последняя часть трилогии о Кольце Всевластия и о героях, взявших на себя бремя спасения Средиземья. Повелитель сил Тьмы Саурон направляет свои бесчисленные рати под стены Минас-Тирита, крепости Последней Надежды. Он предвкушает близкую победу, но именно это и мешает ему заметить две крохотные фигурки — хоббитов, приближающихся к Роковой Горе, где им предстоит уничтожить Кольцо Всевластия. Улыбнется ли им счастье?..…

Страна: Германия, США, Новая ЗеландияПродолжительность: 02:07:40 +02:15:35Перевод: Дублированное [лицензия]

ФайлКачество: m2tsКонтейнер: Blu-Ray CEEВидео: h364, 1920h2080p, 23,976 fps, 16:9, High Profile 4.1, 29 857 kbps / 29 894 kbps / 30 236 kbpsАудио: DTS-HD Master Audio 6.1 Russian 4761 / 4442 / 4496 kbps, Dolby Digital Audio 5.1 Russian (Dubbed), Dolby Digital EX Audio 5.1 Russian (MVO - Positive), DTS-HD Master Audio 6.1 English 4718 / 4430 / 4476 kbps , Dolby Digital Audio 2.0 English 192 kbpsCубтитры: Russian (Positive-media, fans of the film, in the Elven language), English, Chinese, Czech, Korean, Polish, Hebrew

rutor.org :: Властелин колец: Кинотрилогия / The Lord of the Rings: The Motion Picture Trilogy (2001-2003) HDRip

При наведении указателя на фамилию актера, появляется фото актера, если эта опция установлена в браузере

Элайджа Вуд Elijah Jordan Wood Элайджа Джордан Вуд родился 28 января 1981 года в Кедэр - Рэпидс (штат Айова, США). Снимался в рекламе и в телефильмах, а в кино дебютировал маленькой ролью в ленте `Назад в будущее 2` (1989). Самые известные фильмы с его участием: `Приключения Геккельбери Финна` (1993) и `Хороший сын` (с участием Маколея Калкина), `Война` (1994), где главную роль исполнял Кевин Костнер, `Норт` (1994) Роба Райнера, `Оливер Твист` (1997).Вигго Мортенсен Вигго Мортенсен родился в 1958 году в США. Отец его - американец, а мать - датчанка. В кино актер дебютировал в 1984 году в фильме `Джордж Вашингтон`. Мортенсен играл в основном роли второго плана и известен по фильмам `Свидетель` (1985), `Индейский бегун`, `Путь Карлито`, `Багровый прилив`. В 1996 году актер снялся в `Дневном свете` с Сильвестром Сталлоне, а в 1997 году в `Солдате Джейн` с Деми Мур.Шон Эстин Шон Астин (Остин) родился 25 февраля 1971 года в Санта-Монике (штат Калифорния, США). Его мать - актриса Патти Дюк, приемный отец - актер и режиссер Джон Астин, усыновивший мальчика, когда тому было три года. (С его биологическим отцом Патти Дюк прожила всего месяц.) С отличием окончил Калифорнийский университет в Лос-Анджелесе (UCLA), где получил диплом бакалавра сразу по двум дисциплинам - истории и американской литературе и культуре. С детских лет Шон стремился стать актером, и родители поддерживали его в этом стремлении. В девять лет он впервые оказался перед камерой - вместе с матерью, затем появлялся в различных телевизионных постановках, а первой его настоящей работой в кино стал фильм Ричарда Доннера "The Goonies" (1985). За роль Микки Уолша Шон Астин был отмечен как лучший юный актер. Так ярко началась его карьера в кино. В 1988 году Шон Астин выступил как режиссер, сняв короткометражный фильм "О моей чести", причем финансировала постановку собственная продюсерская компания Астина. В 1989 году он вновь был отмечен как лучший юный актер - за фильм "Оставаясь вместе", где его партнером был Дермот Малруни. В том же году Шон Астин снялся в небольшой роли в драме Дэнни Де Вито "Война в семействе Роуз". Затем последовали приключенческие картины "Мемфисская красотка" (1990) и "Игрушечный солдат" (1991). Широкую известность принесла актеру заглавная роль в фильме "Руди" (1993), а за независимую ленту "Собачья жизнь" (1995) он был назван лучшим актером на кинофестивале в Форт-Лодердейле. В том же году короткометражка режиссера Шона Астина "Суд кенгуру" (1995) - он также был сценаристом и продюсером - номинировался на премию Американской киноакадемии. Во второй половине 1990-х годов актер продолжал активно сниматься, как в ведущих, так и в небольших ролях в различных фильмах, и летом 1999 года он получил предложение сыграть роль Сэма в экранизации книги Дж.Толкина "Властелин колец", которую осуществлял режиссер Питер Джексон. Причем, чтобы получить эту роль и больше походить на хоббита, Шону Астину пришлось набрать 30 фунтов…Иэн МакКеллен Будущий сэр Иэн Мюррей Маккеллен родился 25 мая 1939 года в семье инженера, где уже была пятилетняя дочь Джин. Как раз перед началом войны семья переехала в Виген, шахтерский город на юге Ланкашира, так что в начале жизни Иэну пришлось спать под железным "бомбозащитным" столом в обеденной комнате. Многие играли Смерть до него, многие будут играть после. Но едва ли у кого-то получиться сделать Смерть такой доброй. Когда Иэну было три года, родители отвели его на спектакль "Питер Пэн" в Манчестер Опера Хаус (шутка судьбы: теперь сэр Иэн играет капитана Крюка и мистера Дарлинга в постановке Королевского Национального театра). Когда же ему стукнуло семь, сестра взяла его на "Двенадцатую ночь" Шекспира в любительском театре, а потом на "Макбета" и "Сон в летнюю ночь", самостоятельно поставленные ею самой в школьном театре. Кстати, Джин Маккеллен до сих пор работает актером, режиссером и продюсером в любительском театре. В школе Болтон, где учился Иэн, тоже ставили спектакли, в основном отрывки из классических пьес, переводы из греческих трагедий, французские одноактные пьесы или специально написанные самими учащимися и учителями. Дебютом Иэна Маккеллена была роль девицы, которая с помощью обмана прорывается в финал конкурса красоты (!). Первой шекспировской ролью стал Мальволио (в тринадцать лет). Каждое лето Иэн ездил в школьный лагерь, в программу которого входило посещение спектаклей Королевского шекспировского театра, так что Иэн видел Лоуренса Оливье, Вивьен Ли, Чарльза Лоутона, Джона Гилгуда, Пегги Эшкрофт. В Кэмбридже Иэн Маккеллен, разумеется, тут же записался в студенческий театр. Их постановка двух сцен из "Генриха Четвертого" с Дереком Джакоби в роли принца Гарри была даже замечена прессой. Закончив колледж, Иэн Маккеллен уже твердо знал, что станет актером. Он даже не стал делать передышку на обучение в актерской студии, а сразу получил роль в театре Белгрэйд. Через три года он вместе со своим близким другом и двумя шотландскими терьерами перебрался в Лондон. В 1988-м году Иэн Маккеллен открыто заявил о своей сексуальной ориентации во время выступления на ВВС. С тех пор он является членом многих движений за права сексуальных меньшинств, что не помешало британской королеве посвятить его в рыцари.Доминик Монахэн Доминик Монаган родился в Берлине, Германия. Мать — медсестра, отец — учитель. У Монагана есть старший брат — Мэттью, по профессии — учитель, певец и музыкант. Когда Доминику было 11 лет, его семья переехала в Большой Манчестер, а после этого — в сам Манчестер. Доминик свободно владеет двумя языками — английским и немецким. Желание стать актёром у Доминика появилось ещё в детстве после просмотра «Звёздных войн». В школе он играл в различных постановках, таких как: «Приключения Оливера Твиста» и «Рождественская песнь в прозе». Как актёр, Доминик Монаган известен ролями Мериадока Брендибака в трилогии «Властелин колец», Чарли Пэйса в драме «Остаться в живых» и Саймона Кэмпоса в сериале «Вспомни, что будет». В 2010 году снялся в клипе Эминема «Love The Way You Lie». С 2004 года встречался с Эванджелин Лилли. В 2005 году состоялась их помолвка. В их отношениях был период расставания, но в 2008 году они снова были вместе, однако позже расстались окончательно.Билли Бойд Билли Бойд родился 28 августа 1968 года в Глазго, в семье Уильяма и Мэри Бойд. Мать Билли рано умерла, и Билли вместе со старшей сестрой Маргарет воспитывала бабушка.

В 1984 году, в возрасте шестнадцати лет, он выступал в музыкально-театральной студии в Глазго. До начала своей актёрской карьеры Билли в течение семи лет работал в качестве переплетчика, по иронии судьбы однажды он переплетал и книгу «Властелин колец». Затем он успешно закончил Шотландскую королевскую академию музыки и драмы по специальности «драматическое искусство».

Одновременно с работой в кино и на телевидении Билли Бойд с удовольствием играл и на театральной сцене, в таких спектаклях, как «Баллада о безумной Паоле», «Сан-Диего» и других.

Кроме того, Билли отличный музыкант: он поёт и играет на гитаре, басу и барабанах. В фильме «Властелин колец: Возвращение короля» он сам написал музыку и исполнил песню «The Edge of Night». Он также лидер музыкального коллектива «Beecake». Среди прочих увлечений актера Билли Бойда — спорт. В Новой Зеландии, во время съемок «Властелина колец», он впервые занялся сёрфингом и сохранил любовь к нему до сих пор. Он также занимается джиткундо и кали (эскрима).

Билли Бойд живет в Глазго вместе со своей женой Али МакКиннон и сыном Джеком Уильямом Бойдом (родился 26 апреля 2006). Бойд носит татуировку в виде слова «девять» на тенгварском языке, в память о девяти членах Братства кольца. Такую же татуировку носят и остальные актёры Братства (Элайджа Вуд, Шон Астин, Шон Бин, Иан МакКеллен, Доминик Монаган, Вигго Мортенсен и Орландо Блум), за исключением Джона Рис-Дэвиса.

С Домиником Монаганом Бойд поддерживает тесные дружеские отношения.

Билли Бойд является спонсором Шотландского театра юного зрителя, а также Национального хора мальчиков Шотландии.Шон Бин Шон Бин родился 17 апреля 1959 года в Шеффилде, Йоркшир, Англия. После окончания школы, с отличием по искусству и английскому языку, Шон продавал сыр в супермаркете, убирал снег, работал в сварочной мастерской отца. Затем он поступил и успешно окончил (ссеребряной медалью за свою выпускную роль в спектакле `В ожидании Годо`) лондонскую Королевскую Академию драматического искусства. Его профессиональный актерский дебют состоялся на сцене Citizen`s Theatre в Глазго, где Шон сыграл Тибальта в `Ромео и Джульетте`, затем актер работал в Королевском Шекспировском театре. Карьера Бина в кино и на телевидении началась несколько позже, в 1984 году. Наиболее известные роли Шона Бина - боевик ИРА в `Играх патриотов`, злодей в `Клариссе`, агент 006 в `Золотом глазе`. Зрители нашей страны знакомы с актером в основном по британскому сериалу о королевском стрелке Шарпе, где Бин играл главного героя. Из последних работ Бина заметна роль в фильме `Bravo Two Zero`, о войне в Персидском заливе. Шон Бин женат на актрисе Абигайль Краттенден (Abigail Cruttenden), сыгравшей в сериале о Шарпе жену главного героя Джейн. От второго брака с актрисой Мелани Хилл у Бина две маленьких дочери.Орландо Блум Орландо Блум родился 13 января 1977 года в Кентербери, графство Кент, Великобритания. Его мать Соня занималась бизнесом, управляла языковой школой для иностранных студентов, а также увлекалась писательством. Его отец, Гарри Блум, еврей, был родом из ЮАР и работал профессором права в Университете Кента. Ранее он вел борьбу против апартеида в ЮАР, был одним из адвокатов Нельсона Манделы. Впоследствии Гарри Блум написал несколько книг о расовой сегрегации в ЮАР, за что преследовался южноафриканским правительством и в 1963 году был вынужден эмигрировать в Великобританию.

В возрасте четырёх лет Орландо лишился отца, и воспитание мальчика и его старшей сестры Саманты легло на плечи матери и близкого друга семьи Блумов, Колина Стоуна, назначенного их опекуном. Позднее, когда Орландо было тринадцать лет, мать призналась ему, что именно Стоун является на самом деле его биологическим отцом. Соня прививала детям любовь к искусству с ранних лет, и потому Орландо рано проявил склонность к языкам, фотографии и театру. Кроме того в юности он увлекался лошадьми и был неплохим всадником, что впоследствии пригодилось в его кинокарьере. Блум говорит, что он пытается «не отрывать себя от настоящей жизни настолько, насколько это возможно». Он болеет за Манчестер Юнайтед и живёт в Лондоне. Во время съемок фильма Царство небесное в Марокко Орландо Блум спас и взял к себе собаку Сиди (помесь дворняги и породы — салюки, чёрная с белым пятном на груди). Блум — буддист. В 2004 году стал членом организации Сока Гаккай. Также является членом организации, которая борется за экологию. В поддержку кампании реновировал свой дом в Лондоне, поставив солнечные батареи, распределяя мусор для переработки и утилизовав использованные лампочки. Участвует в программах ЮНИСЕФ, будучи международным послом фонда.

Блум встречался с американской актрисой Кейт Босуорт. Встретились около кофейни в 2002 году, где был представлен ей их общим другом. Вскоре он опять встретил её на премьере фильма Властелин колец: Две крепости. Оба состояли во временной связи с 2002 года до расставания в сентябре 2006 года. Имя Орландо часто связывают с актрисами Ума Турман, Кирстен Данст, Сиенной Миллер, Джессикой Биль, Пенелопой Крус, Наоми Харрис. Кроме того, ходят слухи о романе с Дженнифер Энистон после того, как их видели вместе на отдыхе в Мехико. В июле 2010 года женился на австралийской модели Миранде Керр. 6 января 2011 года у пары родился сын Флинн. Это первенец для обоих.

У Блума была масса травм: перелом левой руки, повреждение черепа после падения с дерева, сломанный нос в результате игры в регби, перелом правой ноги в Швейцарии во время катания на лыжах, перелом левой ноги (катание на мотоцикле), перелом правого запястья во время сноубординга. В 1998 году, ещё во время обучения в школе, Орландо получил тяжелую травму, когда помогал чинить крышу террасы своему другу. «Я сломал спину. Я выпал из окна… у друзей была застекленная крыша на площадке прямо под квартирой, и я скатился на водосточный желоб. Он не выдержал, и я пролетел три этажа. Мне сказали, что я, возможно, не смогу снова ходить. А потом меня прооперировали, и я вышел из больницы где-то через 12 дней». Стараниями хирургов он смог довольно быстро вернуться к полноценной жизни.Джон Рис-Дэвис Джон Рис-Дэвис родился 5 мая 1944 года в Солсбери, Великобритания. Окончил Университет Восточной Англии (University of East Anglia), затем поступил в Королевскую академию драматического искусства (Royal Academy of Dramatic Art) в Лондоне. Начинает работать в театре и на телевидении.

Снимался в трёх сезонах фантастического телесериала «Скользящие» (Sliders) в роли профессора Максимилиана Артуро, в одном из фильмов про Джеймса Бонда в роли генерала Леонида Пушкина. В начале 2000-х сыграл гнома Гимли в кинотрилогии «Властелин Колец».

Также озвучивал такие известные мультфильмы как Аладдин и король разбойников (голос — Короля разбойников / Кассима), Губка Боб Квадратные Штаны (голос — Мэн Рея) и Тобиаса в компьютерной игре Freelancer.

Лив Тайлер Лив Тайлер (англ. Liv Tyler, род. 1 июля 1977), урождённая Лив Рундгрен (англ. Liv Rundgren) — американская киноактриса и модель. Мать Лив — певица и бывшая модель Бебе Бьюэл — родила дочь от любовной связи с музыкантом Стивеном Тайлером, лидером рок-группы Aerosmith. Она назвала девочку в честь норвежской актрисы Лив Ульман. До девятилетнего возраста Лив считала своим биологическим отцом музыканта Тодда Рундгрена, за которым её мать была замужем. Правда открылась после того, как Лив обратила внимание, что невероятно похожа на дочь Стивена Тайлера, Мию Тайлер. Впоследствии Лив взяла фамилию своего настоящего отца.

В четырнадцать лет Лив начала карьеру с работы моделью. На телеэкране она появилась в 1994 году, снявшись вместе с Алисией Сильверстоун в клипе Aerosmith на песню Crazy. Затем её одновременно пригласили сняться в фильмах «Безмолвное падение» и «Тяжёлый». Пока Лив снималась в первом фильме, съёмки второго откладывались до тех пор, пока она не освободилась. К двадцати годам Лив снялась в нескольких успешных картинах, в том числе в фильме Бернардо Бертолуччи «Ускользающая красота».

Наибольшую известность Лив принесли роли в фантастическом блокбастере «Армагеддон», где она снялась вместе с Брюсом Уиллисом и Беном Аффлеком, и кинотрилогии «Властелин колец».

Лив Тайлер снялась в роли Татьяны Лариной в фильме «Онегин» и при этом даже не прочитала роман Пушкина, что не удивительно, если учесть, что она страдает дислексией.

25 марта 2003 года Лив вышла замуж за британского музыканта Ройстона Лэнгдона из группы Spacehog, а 14 декабря 2004 года в роддоме Нью-Йорка родила сына, Майло Уильяма Лэнгдона. В 2008 году стало официально известно, что Лив Тайлер и Ройстон Лэнгдон развелись. Представитель актрисы сообщил: «Лив Тайлер и Ройстон Лэнгдон подтверждают развод. Они остаются добрыми друзьями и преданными родителями сына Майло и призывают уважать частную жизнь семьи».Карл Урбан Карл Урбан (англ. Karl Urban; родился 7 июня 1972 года) — новозеландский актёр кино и телевидения, наиболее известен ролью Эомера в трилогии «Властелин Колец», а также ролью Цезаря в сериале «Зена — королева воинов». Родился 7 июня 1972 года в новозеландском городе Веллингтоне. В возрасте восьми лет впервые появился в передачах на телевидении. Учился в церковной школе, поступил в Викторианский университет в Веллингтоне, закончить который ему помешала стремительно развивающаяся карьера в кино.

Первая роль в кино — полицейская драма «Акула в парке», 1992 год. В 1993 Карлу была предложена роль в картине «Shortland Street». В середине 1990-х он попал в состав американских телесериалов «Зена — королева воинов» и «Удивительные странствия Геракла», снимавшихся по всему миру. Важной ролью для карьеры стала роль фермера в «Цене молока» (2001), благодаря которой его узнали зрители по всему миру. Жена Натали Вионжи (Natalie Wihongi) (гример), сын Хантер родился в ноябре 2000 года, сын Индиана родился в январе 2006 года.Иан Холм Сэр Иэн Холм (англ. Ian Holm; род. 12 сентября 1931 года) — британский актёр, лауреат премии BAFTA и театральной премии «Тони». Известен по фильмам «Пятый элемент» и «Чужой», а также по кинотрилогии Питера Джексона «Властелин колец». Иэн Холм Катберт родился 12 сентября 1931 года в Гудмэйз (Goodmayes) (Великобритания), в 1950 году поступил в Королевскую академию драматического искусства, а в 1953 году пошёл в армию. Много играл в британских театрах, заслужив славу талантливого актёра, а в 1967 году принял участие в постановке «Возвращающийся домой» в Нью-Йоркском театре. В кино Холм снялся первый раз в 1958 году — «Девушки у моря», всего на его счёту более 110 ролей (преимущественно второго плана), среди которых выделяются: андроид Эш в «Чужом» (1979), Наполеон в «Бандитах времени» (1981), мистер Курцманн в «Бразилии» (1985), отец Вито Корнелиус в «Пятом элементе» (1997) и Бильбо Бэггинс в трилогии «Властелин колец» (2001—2003).

В 1981 году Иэн Холм был номинирован на премию Американской Киноакадемии «Оскар» в категории «Лучшая мужская роль второго плана» за роль в фильме «Огненные колесницы».

В 1998 году королева Елизавета II посвятила Холма в рыцари и дала ему дворянское звание за вклад в развитие драмы.

Холм был женат четырежды. Первые три брака завершились разводом. На своей третьей жене, британской актрисе Пенелопе Уилтон, он женился в 1991 году и расстался с ней в 2001. В настоящее время он состоит в браке с художницей Софи де Стемпл.

Миранда Отто Миранда Отто (англ. Miranda Otto, родилась 16 декабря 1967 года, Брисбен, штат Квинсленд, Австралия) — австралийская актриса. Наиболее известна по своей роли в кинотрилогии Питера Джексона «Властелин колец», где сыграла Эовин, племянницу короля Теодена. Миранда Отто родилась в актёрской семье. Отец — известный австралийский актёр Барри Отто. Мать Миранды, Линдсей Отто, оставила карьеру актрисы после рождения дочери. Сестра Миранды, Грейси Отто, также актриса. В 1973 году родители Миранды расстались, однако отец поддерживал контакты с семьёй и общение с ним оказало влияние на решение Миранды стать актрисой, хотя в детстве она занималась также балетом. Первую роль в кино Миранда получила в 1986 году в драме «Война Эммы». В 1990 году она закончила обучение в Национальном институте драматического искусства в Сиднее, после чего в 1991 году впервые появилась в заметной роли в фильме «Девушка, которая опоздала». Впоследствии снималась в основном в фильмах, не выходивших в широкий прокат. Кроме того, у неё были небольшие роли в голливудских картинах Тонкая красная линия (1998) и Что скрывает ложь (2000). Широкую известность Миранда Отто получила в связи с исполнением роли Эовин в кинотрилогии Питера Джексона Властелин колец. До начала съёмок ей пришлось шесть месяцев заниматься верховой ездой и учиться бою на мечах. В 1997 году Миранда Отто начала встречаться с актёром Ричардом Роксбергом, однако в 2000 году они расстались. В 2003 году вышла замуж за актёра Питера О’Брайена. В 2005 году у них родилась дочь.Кристофер Ли Сэр Кри́стофер Фрэнк Каранди́ни Ли CBE (англ. Christopher Frank Carandini Lee, род. 27 мая 1922) — английский актёр, занесённый в Книгу рекордов Гиннесса как актёр, имя которого было указано в титрах наибольшего количества фильмов (264 картины), из них 69 фильмов ужасов. Прославился как исполнитель ролей графа Дракулы, Сарумана, графа Дуку, Шерлока Холмса, Франциско Скараманги, а также как известный актёр озвучания. Командор ордена Британской Империи. В 1946 году Ли заключил семилетний контракт с кинокомпанией «Rank Organisation». На это решение повлиял его двоюродный брат, итальянский посол в Англии — Николо Карандини. Начал учиться в драматической школе, выступал в театре и на радио, сыграл несколько небольших ролей в кино. В 1947 году поступил в актёрскую школу. В 1948 году, играя эпизодическую роль в фильме «Гамлет», знакомится с Питером Кашингом. В 1957 году принял предложение студии Хаммер и снялся в фильме «Проклятие Франкенштейна», этот шаг положил начало сотрудничеству актёра со студией и, в дальнейшем, Ли снимается в серии фильмов ужасов студии «Хаммер». В 1958 году Ли снимается в роли Дракулы в одноимённом фильме. Всего Ли сыграл в 16 фильмах студии «Хаммер», девять раз сыграв роль Дракулы.

В 1958 году Ли снялся в фильме «Коридоры крови» вместе с Борисом Карлоффом. Ли играл сэра Генри Баскервиля и Майкрофта Холмса в фильмах «Собака Баскервилей» (1959) и «Частная жизнь Шерлока Холмса» (1970), а также самого Шерлока Холмса в фильмах «Шерлок Холмс и смертоносное ожерелье» (1962), «Шерлок Холмс и кинозвезда» (1991) и «Происшествие на водопаде Виктория» (1991). В 1961 году Кристофер женился на Бриджит Кренке. В 1970-х Ли переезжает в Голливуд, но пробыв там несколько лет возвращается обратно в Англию. В 1972 году Ли создал собственную компанию Charlemagne Productions, с помощью которой финансирует съёмку двух своих фильмов ужасов. В 1974 году сыграл противника Джеймса Бонда в фильме «Человек с золотым пистолетом». Снимался в роли Като в фильме «Мио, мой Мио» (1987, СССР-Швеция) режиссёра Владимира Грамматикова.

В 2000-х годах снялся в «Звёздных войнах» в роли графа Дуку, сыграл роль Сарумана в экранизации трилогии Толкина. Всего с 1948 года сыграл в более чем 220 фильмах.

5 ноября 2009 года посвящен в рыцари Британской империи. Торжественная церемония, которой руководил принц Чарльз, прошла в Букингемском дворце.Энди Серкис Энди Серкис (Andy Serkis; род. 20 апреля 1964 года в Лондоне) — английский актёр. Известен прежде всего за роль Голлума в киноэпопее «Властелин колец» (2001—2003), где его движения и голос были использованы при создании компьютерного персонажа. Отец Энди — гинеколог армянского происхождения, родившийся в Ираке; мать — англичанка. Энди cыграл в кино и на телевидении более 30 ролей. Помимо «Властелина колец» он сыграл в третьем фильме Смеагорла — хоббита, который позже станет Голлумом. Его работа послужила отправной точкой для горячих споров о том, где проходит граница между актёрской игрой и компьютерной графикой. Несмотря на заявления некоторых критиков о том, что Серкис заслуживает «Оскара» за эту роль, Академия киноискусства решила, что он не подходит под критерии, так как актёр при этом должен был лично присутствовать на экране.

В новой экранизации «Кинг-Конга» с Серкиса сняли движения Кинг-Конга, а также он сыграл кока Лампи.

Энди Серкис является режиссёром по персонажам и сюжетным роликам игр для Play Station 3: - Heavenly Sword, где он использовал себя самого для создания образа короля Бохана; - Enslaved студии Ninja Theory. С помощью технологии Motion Capture копировали движения для главного персонажа МонкиХьюго Уивинг Хью́го Уо́ллес Уи́винг (англ. Hugo Wallace Weaving, род. 4 апреля 1960 в Нигерии) — австралийский киноактёр. Самые известные роли — Агент Смит в кинотрилогии «Матрица», роль Элронда в экранизации Питером Джексоном трилогии «Властелин Колец» Джона Р. Р. Толкина, а также роль V в фильме «V — значит вендетта». Первая серьёзная роль у Уивинга была в телесериале «Bodyline» в 1984 году, в роли английского капитана Douglas Jargine.

Уивинг снимался в 1988 году в австралийском фильме «The Dirtwater Dynasty» и позже, в 1989 году, в фильме «Бангкок Хилтон». В 1991 году он получил награду от Австралийского института кино (Australian Film Institute) как лучший актёр за свою игру в низкобюджетных фильмах. Он также сыграл сэра Джона в 1993 году в комедии «Yahoo Serious», эпизоде «Reckless Kelly», пасквиле на известного австралийского преступника Неда Келли. Однако Уивинг впервые получил известность за океаном за свою роль в кинофильме «Приключения Присциллы, Королевы Пустыни» (1994). В 1998 он получил награду как лучший актёр на Монреальском кинофестивале за свою игру в «The Interview». Также Уивинг играл Посейдона в минисерийной адаптации Одиссеи. Озвучивал анимационный фильм «The Magic Pudding».

Его роль загадочного Агента Смита в блокбастере 1999 года «Матрица» принесла ему всемирную известность и сделала его лицо узнаваемым по всему миру. Уивинг повторил свою роль Смита в сиквелах Матрицы 2003 года «Матрица: Перезагрузка» и «Матрица: Революция». Он упрочил свой успех съёмками в роли эльфа Элронда в киноадаптации трилогии Джона Толкина «Властелин Колец», предпринятой Питером Джексоном.

Уивинг исполнил главные роли в фильмах «Everything Goes» (2004) и «V — значит вендетта» (2005), в последней картине он сыграл V. Эта роль первоначально предназначалась Джеймсу Пьюрфою, но тот после четырёх недель съёмок отказался от роли.

Хьюго проживает со своей подругой (Катриной Гринвуд) и детьми (Гарри и Холли) в Сиднее (Австралия). Международная пресса любит заявлять, что они женаты, но на самом деле Уивинг дал знать про своё отрицательное отношение к браку.

В интервью он говорит, что часто курит и пьет алкогольные напитки.

Не так уж и хорошо известно, что Уивинг болен эпилепсией, которая проявилась у него примерно в 15 лет, он упоминал о ней в интервью. Этот недуг является преградой для получения Хьюго водительского удостоверения.Бернард Хилл Бернард Хилл родился 17 декабря 1944 года в английском городе Манчестере. Разумеется в обычной семье и, конечно, вырос он в среде, в которой даже помыслить никто не мог об актерской стезе. Среди его прадедов и прабабушек были ирландцы. Cам Хилл необычно гордится этим фактом. Вообще он настоящий manc. Так в Англии называют жителей Манчестера -города, который можно назвать одновременно «Ленинградом» и «Одессой» Великобритании. Хилл до 30 лет жил там, затем полюбил «деревенскую» (по понятиям англичан) жизнь и сейчас живет в Северном Суффолке.

Окончил Бернард Хилл Театральный институт. Интересно, что вначале он поступил в Политехнический, но ушел оттуда через год, чтобы стать актером. После учебы играет в театре. Его начинают снимать в кино. Успех пришел после фильма "Boys from the Blackstuff" о безработном, готовым на все ради работы. Фильм был в свое время целым событием для страны. Многие слова из роли Хилла вошли тогда даже в обиход английского языка. В этом проявилась одна из черт Бернарда-умение «играть» словами, при чем часто на грани фола. За эту роль Хилл получил свою первую BAFTA -высшая актерская награда Великобритании.

В 80-ых Хилл обзавелся семьей, у него родилась дочь. Он продолжает сниматься в кино, играя харАктерных персонажей, в том числе в таких известных картинах как «Баунти»(в главной роли –Энтони Хопкинс), «Ганди», «Ширли Валентайн», «Лунные горы», Позже, в 90-ых появляются известные и у нас фильмы: «Призрак и тьма»(в главной роли Майкл Дуглас), «Король скорпионов», «Сон в летнюю ночь (тот что с Мишель Пфайфер), «Титаник» У себя на родине, в Англии, Хилл играет ведущие роли во многих шекспировских постановках. Любим и известен у себя в стране.Брэд Дуриф Брэдфорд Клод Дуриф (англ. Bradford Claude Dourif; род. 1950) — культовый американский актёр, играющий в весьма разнообразных категориях кино: от оскароносных блокбастеров вроде «Властелина колец» до низкопробных фильмов ужасов, выходящих straight-to-video. Брэдфорд Клод Дуриф родился 18 марта 1950 года в Хантингтоне, штат Западная Виргиния, США, в большой семье вместе с братом и тремя сёстрами. Обучаясь в школе, Брэд проявил интерес к актёрству, который был поддержан его матерью, игравшей в своё время в любительском театре. В 19 лет Дуриф оставил родной Хантингтон и уехал в Нью-Йорк, где играл в целом ряде театральных постановок, пока его не заметил режиссёр Милош Форман и не пригласил в свою картину «Полёт над гнездом кукушки».

Роль в этом фильме стала настоящим прорывом для начинающего актёра. Брэд Дуриф получил премию «Золотой глобус» как «лучший дебютант», премию Британской киноакадемии БАФТА, а также номинацию на премию «Оскар» в категории «лучший актёр второго плана».

Скептически относящийся к славе, Дуриф продолжил играть небольшие роли у самых именитых режиссёров вперемешку с появлениями во второсортных фильмах ужасов и триллерах. Однако несмотря на все попытки сломать стереотипическое восприятие своей внешности, актёр оказался обречён на преобладание именно второй категории кино в своей кинобиографии. Дуриф на протяжении своей карьеры сыграл бесчисленное количество убийц, психопатов, маньяков и вообще странных персонажей, несмотря на появления в фильмах Дэвида Линча, Алана Паркера и Жана-Пьера Жене. Сейчас уже можно со справедливостью говорить о культовой славе актёра, давшего свой голос знаменитому Чаки в хоррор-сериале «Детская игра», среди поклонников фильмов ужасов.

Одним из последних заметных появлений Брэда Дурифа стала роль Гримы Гнилоуста в знаменитой экранизации романа Дж. Р. Р. Толкина «Властелин колец». Питер Джексон, пригласивший его на роль, давно являлся поклонником актёра. Несмотря на то, что сцены с появлением Гримы были вырезаны из третьей серии фильма в связи со слишком большой продолжительностью, эти эпизоды позже вошли в режиссёрскую версию картины.

main-rutor.org

Властелин колец / The Lord of the Rings [2001-2003 BDRip 1080p Дубляж] 60fps скачать через торрент

piratbit.ru

Качают: 1 [ 2 MB/s ]
Размер: 58.29 GB | Добавлен: 3 года 2 мес. назад | Торрент скачан:1246 раз
Реклама Дарим 3000 рублей за регистрацию, не упусти свой шанс получить шикарный бонус!!!

09-08-2014 00:54 Властелин колец Скачать торрент  

Автор рипов:Tiberiumsun69

Перед скачиванием обязательно проверьте Сэмплы на своем оборудовании.

Властелин колец: Братство кольца / The Lord of the Rings: The Fellowship of the Ring «Power can be held in the smallest of things...» ✦ Год выпуска: 2001✦ Страна: США, Новая Зеландия✦ Жанр:фэнтези, боевик, приключения✦ Продолжительность: 03:48:18✦ Перевод:Дубляж✦ Язык субтитров: Rus (форс.), Rus (полные), Eng (форс.), Eng (полные)✦ Вид субтитров: Вшитые✦ Режиссер:Питер Джексон / Peter Jackson
  • В ролях: Элайджа Вуд (Frodo Baggins), Иэн МакКеллен (Gandalf the Grey), Вигго Мортенсен (Aragorn), Шон Бин (Boromir), Орландо Блум (Legolas Greenleaf), Джон Рис-Дэвис (Gimli), Иэн Холм (Bilbo Baggins), Шон Эстин (Samwise «Sam» Gamgee), Билли Бойд (Peregrin «Pippin» Took), Доминик Монахэн (Meriadoc «Merry» Brandybuck), Хьюго Уивинг (Elrond), Кейт Бланшетт (Galadriel)
  • Описание:Сказания о Средиземье - это хроника Великой войны за Кольцо, войны, длившейся не одну тысячу лет. Тот, кто владел Кольцом, получал власть над всеми живыми тварями, но был обязан служить злу. Тихая деревня, где живут хоббиты. Волшебник Гэндальф, придя на 111-й день рождения к своему старому другу Бильбо Бэггинсу, начинает вести разговор о кольце, которое Бильбо нашел много лет назад. Это кольцо принадлежало когда-то темному властителю Средиземья Саурону, и оно дает большую власть своему обладателю. Теперь Саурон хочет вернуть себе власть над Средиземьем. Бильбо отдает найденное кольцо своему племяннику Фродо, который пытается научиться справляться с тем страшным могуществом, которое дает ему кольцо...
  • Мировая премьера:10 декабря 2001
      ✦ Качество: BDRip 1080p✦ Формат:MKV✦ Видео кодек: AVC✦ Аудио кодек:AC3✦ Видео: ~8075 kb/s, 1920*800,59,880 кадров/сек✦ Аудио: : AC3 5.1, 448 kb/s, 48,0 КГц Дуб.+ Позитив на вставки✦ Аудио 2: AC3 5.1, 640 kb/s, 48,0 КГц Позитив✦ Аудио 3: Английский: AC3 5.1, 640 kb/s-48,0 КГц✦ Навигация по главам: есть

    Код:

    ОбщееУникальный идентификатор : 181384545881967774554334433268688204245 (0x88756490EBBADB7098D2D6885A63B1D5)Полное имя : F:\Властелин колец 1080p 60fps\Властелин колец 1 1080p 60fps.mkvФормат : MatroskaВерсия формата : Version 4 / Version 2Размер файла : 16,0 ГбайтПродолжительность : 3 ч. 48 м.Общий поток : 10,0 Мбит/секДата кодирования : UTC 2014-05-12 17:02:10Программа кодирования : mkvmerge v6.9.1 ('Blue Panther') 64bit built on Apr 18 2014 18:23:38Библиотека кодирования : libebml v1.3.0 + libmatroska v1.4.1Attachment : Yes / Yes / Yes

    ВидеоИдентификатор : 1Формат : AVCФормат/Информация : Advanced Video CodecПрофиль формата : [email protected]Параметр CABAC формата : ДаПараметр ReFrames формата : 4 кадраИдентификатор кодека : V_MPEG4/ISO/AVCПродолжительность : 3 ч. 48 м.Битрейт : 8075 Кбит/секШирина : 1920 пикселейВысота : 800 пикселейСоотношение сторон : 2,40:1Режим частоты кадров : ПостоянныйЧастота кадров : 59,880 кадров/секЧастота кадров в оригинале : 59,940 кадров/секЦветовое пространство : YUVСубдискретизация насыщенности : 4:2:0Битовая глубина : 8 битТип развёртки : ПрогрессивнаяБит/(Пиксели*Кадры) : 0.088Размер потока : 12,9 Гбайт (81%)Библиотека кодирования : x264 core 130 r2273 b3065e6Настройки программы : cabac=1 / ref=4 / deblock=1:-1:-1 / analyse=0x3:0 / me=umh / subme=9 / psy=1 / psy_rd=1.00:0.10 / mixed_ref=1 / me_range=24 / chroma_me=0 / trellis=1 / 8x8dct=1 / cqm=0 / deadzone=21,11 / fast_pskip=0 / chroma_qp_offset=-3 / threads=6 / lookahead_threads=1 / sliced_threads=0 / nr=0 / decimate=0 / interlaced=0 / bluray_compat=0 / constrained_intra=0 / bframes=5 / b_pyramid=2 / b_adapt=2 / b_bias=0 / direct=1 / weightb=1 / open_gop=0 / weightp=2 / keyint=599 / keyint_min=59 / scenecut=40 / intra_refresh=0 / rc=crf / mbtree=0 / crf=18.0 / qcomp=0.60 / qpmin=0 / qpmax=69 / qpstep=4 / ip_ratio=1.40 / pb_ratio=1.30 / aq=1:0.90Язык : EnglishDefault : ДаForced : Нет

    Аудио #1Идентификатор : 2Формат : AC-3Формат/Информация : Audio Coding 3Расширение режима : CM (complete main)Параметр Endianness формата : BigИдентификатор кодека : A_AC3Продолжительность : 3 ч. 48 м.Вид битрейта : ПостоянныйБитрейт : 448 Кбит/секКаналы : 6 каналовРасположение каналов : Front: L C R, Side: L R, LFEЧастота : 48,0 КГцБитовая глубина : 16 битМетод сжатия : С потерямиРазмер потока : 732 Мбайт (4%)Заголовок : Dub + MVOЯзык : RussianDefault : ДаForced : Нет

    Аудио #2Идентификатор : 7Формат : AC-3Формат/Информация : Audio Coding 3Расширение режима : CM (complete main)Параметр Endianness формата : BigИдентификатор кодека : A_AC3Продолжительность : 3 ч. 48 м.Вид битрейта : ПостоянныйБитрейт : 640 Кбит/секКаналы : 6 каналовРасположение каналов : Front: L C R, Side: L R, LFEЧастота : 48,0 КГцБитовая глубина : 16 битМетод сжатия : С потерямиРазмер потока : 1,02 Гбайт (6%)Заголовок : MVOЯзык : RussianDefault : НетForced : Нет

    Аудио #3Идентификатор : 8Формат : AC-3Формат/Информация : Audio Coding 3Расширение режима : CM (complete main)Параметр Endianness формата : BigИдентификатор кодека : A_AC3Продолжительность : 3 ч. 48 м.Вид битрейта : ПостоянныйБитрейт : 640 Кбит/секКаналы : 6 каналовРасположение каналов : Front: L C R, Side: L R, LFEЧастота : 48,0 КГцБитовая глубина : 16 битМетод сжатия : С потерямиРазмер потока : 1,02 Гбайт (6%)Заголовок : OriginalЯзык : EnglishDefault : НетForced : Нет

    Текст #1Идентификатор : 3Формат : ASSИдентификатор кодека : S_TEXT/ASSИдентификатор кодека/Информация : Advanced Sub Station AlphaМетод сжатия : Без потерьЗаголовок : ForcedЯзык : RussianDefault : ДаForced : Нет

    Текст #2Идентификатор : 4Формат : UTF-8Идентификатор кодека : S_TEXT/UTF8Идентификатор кодека/Информация : UTF-8 Plain TextЗаголовок : FullЯзык : RussianDefault : НетForced : Нет

    Текст #3Идентификатор : 5Формат : ASSИдентификатор кодека : S_TEXT/ASSИдентификатор кодека/Информация : Advanced Sub Station AlphaМетод сжатия : Без потерьЗаголовок : ForsedЯзык : EnglishDefault : НетForced : Нет

    Текст #4Идентификатор : 6Формат : ASSИдентификатор кодека : S_TEXT/ASSИдентификатор кодека/Информация : Advanced Sub Station AlphaМетод сжатия : Без потерьЗаголовок : FullЯзык : EnglishDefault : НетForced : Нет

    Меню00:00:00.000 : en: 1. Prologue: One Ring To Rule Them All...00:07:36.790 : en: 2. Concerning Hobbits00:10:35.552 : en: 3. The Shire00:15:39.856 : en: 4. Very Old Friends00:19:58.489 : en: 5. A Long-expected Party00:25:32.614 : en: 6. Farewell Dear Bilbo00:29:57.379 : en: 7. Keep It Secret, Keep It Safe00:32:10.679 : en: 8. The Account Of Isildur00:34:51.798 : en: 9. At The Green Dragon00:36:18.176 : en:10. The Shadow of the Past00:45:04.160 : en:11. The Passing of the Elves00:46:44.301 : en:12. Saruman The White00:51:21.412 : en:13. A Short Cut to Mushrooms00:55:12.434 : en:14. Bucklebury Ferry00:57:30.072 : en:15. At the Sign of The Prancing Pony01:03:31.516 : en:16. The Nazgul01:07:16.115 : en:17. The Midgewater Marshes01:08:53.588 : en:18. The Spoiling Of Isengard01:10:35.940 : en:19. A Knife in the Dark01:15:15.386 : en:20. The Caverns of Isengard01:17:46.620 : en:21. Flight to the Ford01:24:11.546 : en:22. Rivendell01:26:12.501 : en:23. Many Meetings01:29:41.585 : en:24. The Fate of the Ring01:33:14.672 : en:25. The Sword That Was Broken01:35:54.082 : en:26. The Evenstar01:37:32.972 : en:27. The Council of Elrond01:45:45.000 : en:28. Gilraen's Memorial01:46:59.826 : en:29. Bilbo's Gifts01:48:43.221 : en:30. The Departure of the Fellowship01:50:00.631 : en:31. The Ring Goes South01:53:06.442 : en:32. The Pass of Caradhras01:57:52.728 : en:33. Moria02:04:18.113 : en:34. A Journey in the Dark02:10:48.461 : en:35. Balin's Tomb02:20:13.192 : en:36. The Bridge of Khazad-Dum02:29:54.648 : en:37. Lothlorien02:33:07.299 : en:38. Caras Galadhorn02:40:24.319 : en:39. The Mirror of Galadriel02:46:04.325 : en:40. The Fighting Uruk-Hai02:47:45.676 : en:41. Farewell to Lorien02:53:08.207 : en:42. The Great River02:58:00.457 : en:43. Parth Galen03:04:28.219 : en:44. The Breaking of the Fellowship03:11:44.155 : en:45. The Departure of Boromir03:14:26.484 : en:46. The Road Goes Ever On03:20:44.653 : en:47. Credits03:28:25.155 : en:48. Official Fan Club Credits

    Скриншоты: Каталог Новинок (Фильмы-трейлеры, Игры, Сериалы, Мультфильмы) © Оформление by Raven
  • Властелин колец: Две крепости / The Lord of the Rings: The Two Towers «Приключение продолжается» ✦ Год выпуска: 2002✦ Страна: США, Новая Зеландия✦ Жанр:фэнтези, боевик, приключения✦ Продолжительность:03:55:30✦ Перевод:Дубляж✦ Язык субтитров: Rus (форс.), Rus (полные), Eng (форс.), Eng (полные)✦ Вид субтитров: Вшитые✦ Режиссер:Питер Джексон / Peter Jackson
  • В ролях: Элайджа Вуд (Frodo Baggins), Шон Эстин (Samwise «Sam» Gamgee), Орландо Блум (Legolas Greenleaf), Вигго Мортенсен (Aragorn), Иэн МакКеллен (Gandalf), Доминик Монахэн (Meriadoc «Merry» Brandybuck), Миранда Отто (Eowyn), Джон Рис-Дэвис (Gimli / Voice of Treebeard), Энди Серкис (Gollum), Билли Бойд (Peregrin «Pippin» Took), Кристофер Ли (Saruman the White), Бернард Хилл (Theoden)
  • Описание:Братство распалось, но Кольцо Всевластья должно быть уничтожено. Фродо и Сэм вынуждены доверить свои жизни Голлуму, который взялся провести их к вратам Мордора. Громадная Армия Сарумана приближается: члены братства и их союзники готовы принять бой. Битва за Средиземье продолжается.
  • Мировая премьера:5 декабря 2002
      ✦ Качество: BDRip 1080p✦ Формат:MKV✦ Видео кодек: AVC✦ Аудио кодек:AC3✦ Видео: ~9417 kb/s, 1920*800,59,880 кадров/сек✦ Аудио: : AC3 5.1, 448 kb/s, 48,0 КГц Дуб.+ Позитив на вставки✦ Аудио 2: AC3 5.1, 640 kb/s, 48,0 КГц Позитив✦ Аудио 3: Английский: AC3 5.1, 640 kb/s-48,0 КГц✦ Навигация по главам: есть

    Код:

    ОбщееУникальный идентификатор : 241010040049354970603039776548714957457 (0xB550D865C55F2D468DEB7EC74D57CA91)Полное имя : F:\Властелин колец 1080p 60fps\Властелин колец 2 1080p 60fps.mkvФормат : MatroskaВерсия формата : Version 4 / Version 2Размер файла : 18,7 ГбайтПродолжительность : 3 ч. 55 м.Общий поток : 11,4 Мбит/секДата кодирования : UTC 2014-05-15 10:19:10Программа кодирования : mkvmerge v6.9.1 ('Blue Panther') 64bit built on Apr 18 2014 18:23:38Библиотека кодирования : libebml v1.3.0 + libmatroska v1.4.1Attachment : Yes / Yes / Yes

    ВидеоИдентификатор : 1Формат : AVCФормат/Информация : Advanced Video CodecПрофиль формата : [email protected]Параметр CABAC формата : ДаПараметр ReFrames формата : 4 кадраИдентификатор кодека : V_MPEG4/ISO/AVCПродолжительность : 3 ч. 55 м.Битрейт : 9417 Кбит/секШирина : 1920 пикселейВысота : 800 пикселейСоотношение сторон : 2,40:1Режим частоты кадров : ПостоянныйЧастота кадров : 59,880 кадров/секЧастота кадров в оригинале : 59,940 кадров/секЦветовое пространство : YUVСубдискретизация насыщенности : 4:2:0Битовая глубина : 8 битТип развёртки : ПрогрессивнаяБит/(Пиксели*Кадры) : 0.102Размер потока : 15,5 Гбайт (83%)Библиотека кодирования : x264 core 130 r2273 b3065e6Настройки программы : cabac=1 / ref=4 / deblock=1:-1:-1 / analyse=0x3:0 / me=umh / subme=9 / psy=1 / psy_rd=1.00:0.10 / mixed_ref=1 / me_range=24 / chroma_me=0 / trellis=1 / 8x8dct=1 / cqm=0 / deadzone=21,11 / fast_pskip=0 / chroma_qp_offset=-3 / threads=6 / lookahead_threads=1 / sliced_threads=0 / nr=0 / decimate=0 / interlaced=0 / bluray_compat=0 / constrained_intra=0 / bframes=5 / b_pyramid=2 / b_adapt=2 / b_bias=0 / direct=1 / weightb=1 / open_gop=0 / weightp=2 / keyint=599 / keyint_min=59 / scenecut=40 / intra_refresh=0 / rc=crf / mbtree=0 / crf=18.0 / qcomp=0.60 / qpmin=0 / qpmax=69 / qpstep=4 / ip_ratio=1.40 / pb_ratio=1.30 / aq=1:0.90Язык : EnglishDefault : ДаForced : Нет

    Аудио #1Идентификатор : 2Формат : AC-3Формат/Информация : Audio Coding 3Расширение режима : CM (complete main)Параметр Endianness формата : BigИдентификатор кодека : A_AC3Продолжительность : 3 ч. 55 м.Вид битрейта : ПостоянныйБитрейт : 448 Кбит/секКаналы : 6 каналовРасположение каналов : Front: L C R, Side: L R, LFEЧастота : 48,0 КГцБитовая глубина : 16 битМетод сжатия : С потерямиРазмер потока : 755 Мбайт (4%)Заголовок : Dub + MVOЯзык : RussianDefault : ДаForced : Нет

    Аудио #2Идентификатор : 7Формат : AC-3Формат/Информация : Audio Coding 3Расширение режима : CM (complete main)Параметр Endianness формата : BigИдентификатор кодека : A_AC3Продолжительность : 3 ч. 55 м.Вид битрейта : ПостоянныйБитрейт : 640 Кбит/секКаналы : 6 каналовРасположение каналов : Front: L C R, Side: L R, LFEЧастота : 48,0 КГцБитовая глубина : 16 битМетод сжатия : С потерямиРазмер потока : 1,05 Гбайт (6%)Заголовок : MVOЯзык : RussianDefault : НетForced : Нет

    Аудио #3Идентификатор : 8Формат : AC-3Формат/Информация : Audio Coding 3Расширение режима : CM (complete main)Параметр Endianness формата : BigИдентификатор кодека : A_AC3Продолжительность : 3 ч. 55 м.Вид битрейта : ПостоянныйБитрейт : 640 Кбит/секКаналы : 6 каналовРасположение каналов : Front: L C R, Side: L R, LFEЧастота : 48,0 КГцБитовая глубина : 16 битМетод сжатия : С потерямиРазмер потока : 1,05 Гбайт (6%)Заголовок : OriginalЯзык : EnglishDefault : НетForced : Нет

    Текст #1Идентификатор : 3Формат : ASSИдентификатор кодека : S_TEXT/ASSИдентификатор кодека/Информация : Advanced Sub Station AlphaМетод сжатия : Без потерьЗаголовок : ForcedЯзык : RussianDefault : ДаForced : Нет

    Текст #2Идентификатор : 4Формат : UTF-8Идентификатор кодека : S_TEXT/UTF8Идентификатор кодека/Информация : UTF-8 Plain TextЗаголовок : FullЯзык : RussianDefault : НетForced : Нет

    Текст #3Идентификатор : 5Формат : ASSИдентификатор кодека : S_TEXT/ASSИдентификатор кодека/Информация : Advanced Sub Station AlphaМетод сжатия : Без потерьЗаголовок : ForsedЯзык : EnglishDefault : НетForced : Нет

    Текст #4Идентификатор : 6Формат : ASSИдентификатор кодека : S_TEXT/ASSИдентификатор кодека/Информация : Advanced Sub Station AlphaМетод сжатия : Без потерьЗаголовок : FullЯзык : EnglishDefault : НетForced : Нет

    Меню00:00:00.000 : en: 1. The Foundations of Stone00:04:08.748 : en: 2. Elven Rope00:06:10.829 : en: 3. The Taming of Smeagol00:14:44.967 : en: 4. The Uruk-hai00:17:06.609 : en: 5. The Three Hunters00:19:17.948 : en: 6. The Burning of the Westfold00:23:07.094 : en: 7. Massacre at the Fords of Isen00:23:58.312 : en: 8. The Banishment of omer00:27:09.044 : en: 9. On the Trail of the Uruk-hai00:28:03.181 : en:10. Night Camp at Fangorn00:31:38.230 : en:11. The Riders of Rohan00:35:45.518 : en:12. The Fate of Merry and Pippin00:38:17.879 : en:13. Treebeard00:41:47.797 : en:14. The Passage of the Marshes00:50:49.755 : en:15. The White Rider00:58:19.413 : en:16. The Song of the Entwives01:00:40.178 : en:17. The Heir of Numenor01:02:48.306 : en:18. The Black Gate is Closed01:08:05.999 : en:19. Ent Draft01:12:41.732 : en:20. The King of the Golden Hall01:24:17.344 : en:21. The Funeral of Theodred01:25:41.636 : en:22. Simbelmyne on the Burial Mounds01:27:34.332 : en:23. The King's Decision01:30:45.523 : en:24. Brego01:32:30.587 : en:25. The Ring of Barahir01:34:31.040 : en:26. A Daughter of Kings01:35:57.043 : en:27. Exodus from Edoras01:37:02.316 : en:28. The Forests of Ithilien01:38:43.960 : en:29. Gollum and Smeagol01:41:14.819 : en:30. Of Herbs and Stewed Rabbit01:46:40.000 : en:31. Dwarf Women01:47:22.793 : en:32. One of the Dunedain01:49:52.651 : en:33. The Evenstar01:54:59.207 : en:34. The Wolves of Isengard02:01:37.396 : en:35. Helm's Deep02:04:17.515 : en:36. Isengard Unleashed02:06:53.963 : en:37. The Grace of the Valar02:08:31.519 : en:38. Arwen's Fate02:12:14.283 : en:39. The Story Foreseen from Lorien02:14:40.262 : en:40. The Window on the West02:18:29.866 : en:41. Sons of the Steward02:23:09.437 : en:42. The Forbidden Pool02:30:31.128 : en:43. Aragorn's Return02:36:04.378 : en:44. Entmoot02:37:24.250 : en:45. The Glittering Caves02:40:32.521 : en:46. "Where Is the Horse and the Rider?"02:42:17.251 : en:47. "Don't Be Hasty, Master Meriadoc!"02:43:07.926 : en:48. The Host of the Eldar02:46:42.015 : en:49. The Batter of the Hornburg02:53:04.397 : en:50. Old Entish02:54:41.452 : en:51. The Breach of the Deeping Wall02:58:06.574 : en:52. The Entmoot Decides02:59:51.721 : en:53. The Retreat to the Hornburg03:05:54.208 : en:54. Master Peregrin's Plan03:07:19.293 : en:55. Osgiliath03:07:54.036 : en:56. The Last March of the Ents03:10:23.560 : en:57. The Nazgul Attack03:12:55.545 : en:58. Forth Eorlingas03:17:34.032 : en:59. The Flooding of Isengard03:20:00.386 : en:60. The Tales That Really Mattered...03:24:45.671 : en:61. Fangorn Comes to Helm's Deep03:25:37.224 : en:62. The Final Tally03:26:18.764 : en:63. Flotsam and Jetsam03:28:22.555 : en:64. Farewell to Faramir03:30:52.413 : en:65. "The Battle for Middle-Earth is About to Begin"03:32:32.096 : en:66. Gollum's Plan03:34:56.240 : en:67. End Credits03:43:52.525 : en:68. Fan Club Credits

    Скриншоты: Каталог Новинок (Фильмы-трейлеры, Игры, Сериалы, Мультфильмы) © Оформление by Raven
  • Властелин колец: Возвращение Короля / The Lord of the Rings: The Return of the King «There can be no triumph without loss. No victory without suffering. No freedom without sacrifice» ✦ Год выпуска: 2003✦ Страна: США, Новая Зеландия✦ Жанр:фэнтези, боевик, приключения✦ Продолжительность:04:23:16✦ Перевод:Дубляж✦ Режиссер:Питер Джексон / Peter Jackson
  • В ролях: Элайджа Вуд (Frodo), Вигго Мортенсен (Aragorn), Шон Эстин (Sam), Иэн МакКеллен (Gandalf), Орландо Блум (Legolas), Доминик Монахэн (Merry), Билли Бойд (Pippin), Энди Серкис (Gollum / Smeagol), Миранда Отто (Eowyn), Бернард Хилл (Theoden), Карл Урбан (Eomer), Дэвид Уэнэм (Faramir)
  • Описание:Последняя часть трилогии о Кольце Всевластия и о героях, взявших на себя бремя спасения Средиземья. Повелитель сил Тьмы Саурон направляет свои бесчисленные рати под стены Минас-Тирита, крепости Последней Надежды. Он предвкушает близкую победу, но именно это и мешает ему заметить две крохотные фигурки - хоббитов, приближающихся к Роковой Горе, где им предстоит уничтожить Кольцо Всевластия. Улыбнется ли им счастье?
  • Мировая премьера:1 декабря 2003
      ✦ Качество: BDRip 1080p✦ Формат:MKV✦ Видео кодек: AVC✦ Аудио кодек:AC3✦ Видео: ~10900 kb/s, 1920*792, 59,940 кадров/сек✦ Аудио: : AC3 5.1, 448 kb/s, 48,0 КГц Дуб.+ Позитив на вставки✦ Аудио 2: AC3 5.1, 640 kb/s, 48,0 КГц Позитив✦ Аудио 3: Английский: AC3 5.1, 640 kb/s-48,0 КГц✦ Навигация по главам: есть

    Код:

    ОбщееУникальный идентификатор : 224329666075329561038957529155611576286 (0xA8C452772B77420EA951D179B4C6C7DE)Полное имя : F:\Властелин колец 1080p 60fps\Властелин колец 3 1080p 60fps.mkvФормат : MatroskaВерсия формата : Version 4 / Version 2Размер файла : 23,6 ГбайтПродолжительность : 4 ч. 23 м.Общий поток : 12,8 Мбит/секДата кодирования : UTC 2014-05-17 23:00:28Программа кодирования : mkvmerge v6.9.1 ('Blue Panther') 64bit built on Apr 18 2014 18:23:38Библиотека кодирования : libebml v1.3.0 + libmatroska v1.4.1Attachment : Yes / Yes / Yes

    ВидеоИдентификатор : 1Формат : AVCФормат/Информация : Advanced Video CodecПрофиль формата : [email protected]Параметр CABAC формата : ДаПараметр ReFrames формата : 4 кадраИдентификатор кодека : V_MPEG4/ISO/AVCПродолжительность : 4 ч. 23 м.Битрейт : 10,9 Мбит/секШирина : 1920 пикселейВысота : 792 пикселяСоотношение сторон : 2,40:1Режим частоты кадров : ПостоянныйЧастота кадров : 59,880 кадров/секЧастота кадров в оригинале : 59,940 кадров/секЦветовое пространство : YUVСубдискретизация насыщенности : 4:2:0Битовая глубина : 8 битТип развёртки : ПрогрессивнаяБит/(Пиксели*Кадры) : 0.119Размер потока : 20,0 Гбайт (85%)Библиотека кодирования : x264 core 130 r2273 b3065e6Настройки программы : cabac=1 / ref=4 / deblock=1:-1:-1 / analyse=0x3:0 / me=umh / subme=9 / psy=1 / psy_rd=1.00:0.10 / mixed_ref=1 / me_range=24 / chroma_me=0 / trellis=1 / 8x8dct=1 / cqm=0 / deadzone=21,11 / fast_pskip=0 / chroma_qp_offset=-3 / threads=6 / lookahead_threads=1 / sliced_threads=0 / nr=0 / decimate=0 / interlaced=0 / bluray_compat=0 / constrained_intra=0 / bframes=5 / b_pyramid=2 / b_adapt=2 / b_bias=0 / direct=1 / weightb=1 / open_gop=0 / weightp=2 / keyint=599 / keyint_min=59 / scenecut=40 / intra_refresh=0 / rc=crf / mbtree=0 / crf=18.0 / qcomp=0.60 / qpmin=0 / qpmax=69 / qpstep=4 / ip_ratio=1.40 / pb_ratio=1.30 / aq=1:0.90Язык : EnglishDefault : ДаForced : Нет

    Аудио #1Идентификатор : 2Формат : AC-3Формат/Информация : Audio Coding 3Расширение режима : CM (complete main)Параметр Endianness формата : BigИдентификатор кодека : A_AC3Продолжительность : 4 ч. 23 м.Вид битрейта : ПостоянныйБитрейт : 448 Кбит/секКаналы : 6 каналовРасположение каналов : Front: L C R, Side: L R, LFEЧастота : 48,0 КГцБитовая глубина : 16 битМетод сжатия : С потерямиРазмер потока : 844 Мбайт (3%)Заголовок : Dub + MVOЯзык : RussianDefault : ДаForced : Нет

    Аудио #2Идентификатор : 7Формат : AC-3Формат/Информация : Audio Coding 3Расширение режима : CM (complete main)Параметр Endianness формата : BigИдентификатор кодека : A_AC3Продолжительность : 4 ч. 23 м.Вид битрейта : ПостоянныйБитрейт : 640 Кбит/секКаналы : 6 каналовРасположение каналов : Front: L C R, Side: L R, LFEЧастота : 48,0 КГцБитовая глубина : 16 битМетод сжатия : С потерямиРазмер потока : 1,18 Гбайт (5%)Заголовок : MVOЯзык : RussianDefault : НетForced : Нет

    Аудио #3Идентификатор : 8Формат : AC-3Формат/Информация : Audio Coding 3Расширение режима : CM (complete main)Параметр Endianness формата : BigИдентификатор кодека : A_AC3Продолжительность : 4 ч. 23 м.Вид битрейта : ПостоянныйБитрейт : 640 Кбит/секКаналы : 6 каналовРасположение каналов : Front: L C R, Side: L R, LFEЧастота : 48,0 КГцБитовая глубина : 16 битМетод сжатия : С потерямиРазмер потока : 1,18 Гбайт (5%)Заголовок : OriginalЯзык : EnglishDefault : НетForced : Нет

    Текст #1Идентификатор : 3Формат : ASSИдентификатор кодека : S_TEXT/ASSИдентификатор кодека/Информация : Advanced Sub Station AlphaМетод сжатия : Без потерьЗаголовок : ForcedЯзык : RussianDefault : ДаForced : Нет

    Текст #2Идентификатор : 4Формат : UTF-8Идентификатор кодека : S_TEXT/UTF8Идентификатор кодека/Информация : UTF-8 Plain TextЗаголовок : FullЯзык : RussianDefault : НетForced : Нет

    Текст #3Идентификатор : 5Формат : ASSИдентификатор кодека : S_TEXT/ASSИдентификатор кодека/Информация : Advanced Sub Station AlphaМетод сжатия : Без потерьЗаголовок : ForsedЯзык : EnglishDefault : НетForced : Нет

    Текст #4Идентификатор : 6Формат : ASSИдентификатор кодека : S_TEXT/ASSИдентификатор кодека/Информация : Advanced Sub Station AlphaМетод сжатия : Без потерьЗаголовок : FullЯзык : EnglishDefault : НетForced : Нет

    Меню00:00:00.000 : en: 1. The Finding of the Ring00:06:24.342 : en: 2. Journey to the Cross-Roads00:09:21.394 : en: 3. The Road to Isengard00:11:21.848 : en: 4. The Voice of Saruman00:18:23.311 : en: 5. Return to Edoras00:23:05.009 : en: 6. Gollum's Villany00:27:03.330 : en: 7. Eowyn's Dream00:29:00.697 : en: 8. The Palantir00:37:06.433 : en: 9. Arwen's Vision00:40:02.567 : en:10. The Reforging of Narsil00:42:03.229 : en:11. Minas Tirith00:47:52.203 : en:12. The Decline of Gondor00:50:18.641 : en:13. Cross-Roads of the Fallen King00:52:18.761 : en:14. "The Deep Breath Before the Plunge"00:55:35.332 : en:15. Minas Morgul00:59:36.406 : en:16. Sam's Warning01:00:23.703 : en:17. Pippin's Task01:00:50.605 : en:18. Osgiliath Invaded01:04:30.075 : en:19. The Lighting of the Beacons01:07:16.032 : en:20. Theoden's Decision01:10:35.314 : en:21. The Fall of Osgiliath01:14:54.824 : en:22. The Wizard's Pupil01:17:21.971 : en:23. The Stairs of Cirith Ungol01:19:21.799 : en:24. "Courage Is the Best Defense"01:20:01.088 : en:25. Peregrin of the Tower Guard01:21:26.799 : en:26. Allegiance to Denethor01:23:48.941 : en:27. The Parting of Sam and Frodo01:29:08.593 : en:28. The Sacrifice of Faramir01:33:57.590 : en:29. Marshalling at Dunharrow01:38:08.049 : en:30. Anduril - Flame of the West01:42:49.705 : en:31. Aragorn Takes the Paths of the Dead01:45:34.245 : en:32. "No More Despair"01:46:57.453 : en:33. Dwimorberg - the Haunted Mountain01:49:24.433 : en:34. The Muster of Rohan01:51:09.997 : en:35. The Paths of the Dead01:58:39.696 : en:36. The Siege of Gondor02:07:41.500 : en:37. The Corsairs of Umbar02:08:42.779 : en:38. Shelob's Lair02:17:50.451 : en:39. Merry's Simple Courage02:19:40.770 : en:40. Grond - The Hammer of the Underworld02:20:17.139 : en:41. The Tomb of the Stewards02:21:50.775 : en:42. Breaking the Gate of Gondor02:22:57.591 : en:43. The Choices of Master Samwise02:28:59.328 : en:44. Denethor's Madness02:30:04.643 : en:45. The Witch King's Hour02:32:29.663 : en:46. The Ride of the Rohirrim02:36:44.084 : en:47. The Pyre of Denethor02:38:51.169 : en:48. The Battle of Pelennor Fields02:43:46.714 : en:49. "A Far Green Country"02:45:17.138 : en:50. The Nazugl and His Prey02:47:03.077 : en:51. The Black Ships02:47:55.504 : en:52. Shieldmaiden of Rohan02:48:39.757 : en:53. Victory at Minas Tirith02:51:15.454 : en:54. The Passing of Theoden02:53:18.160 : en:55. Oaths Fulfilled02:54:25.102 : en:56. The Houses of Healing02:56:41.113 : en:57. Pippin Looks After Merry02:57:33.165 : en:58. The Tower of Cirith Ungol03:04:29.080 : en:59. The Last Debate03:06:11.433 : en:60. Aragorn Masters the Palantir03:07:40.522 : en:61. The Captain and the White Lady03:08:30.655 : en:62. In the Company of Orcs03:12:12.043 : en:63. The Land of Shadow03:16:23.753 : en:64. The Mouth of Sauron03:19:39.657 : en:65. The Black Gate Opens03:23:13.454 : en:66. "I Can't Carry It for You... But I Can Carry You"03:25:26.253 : en:67. The Last Move03:26:29.358 : en:68. Mount Doom03:28:25.432 : en:69. "The Eagles Are Coming!"03:28:59.758 : en:70. The Crack of Doom03:34:38.012 : en:71. Sauron Defeated03:36:51.396 : en:72. The End of All Things03:40:20.396 : en:73. The Fellowship Reunited03:42:43.497 : en:74. The Return of the King03:47:36.540 : en:75. Homeward Bound03:52:18.447 : en:76. The Grey Havens04:01:37.047 : en:77. End Credits04:12:44.463 : en:78. Fan Club Credits

    Скриншоты: Каталог Новинок (Фильмы-трейлеры, Игры, Сериалы, Мультфильмы) © Оформление by Raven
  • Просьба раздающим на других сайтах "Подписывайте пожалуйста автора рипа Tiberiumsun69" Скачать Властелин колец через торрент http://pic.pb.wtf/new/img/2014-08/09/58w25vcftvwopt7t42s3krabe.jpg Скачать фильм Властелин колец через торрент бесплантно в хорошем качестве Описание:Сказания о Средиземье - это хроника Великой войны за Кольцо, войны, длившейся не одну тысячу лет. Тот, кто владел Кольцом, получал ... 2014-08-09 00:54 10 10 75

    Loading...

    Loading...

    Рекламный пират

    10-08-2014 21:14 Властелин колец Скачать торрент  

    Спасибо огромное :pleasantry: !!! Забираю ...

    11-08-2014 10:16 Властелин колец Скачать торрент  

    Это театральные или режиссёрские версии?

    11-08-2014 14:31 Властелин колец Скачать торрент  

    kain80 писал(а):

    Это театральные или режиссёрские версии?

    Режиссерские версии. Extended edition

    14-08-2014 13:58 Властелин колец Скачать торрент  

    блин у меня есть все три части с переводом позитив ММ и перевод в этой раздаче почему то отличается от того что у меня,вроде бы и похоже местами, но всё равно что то не то:(

    20-12-2014 17:36 Властелин колец Скачать торрент  

    У меня одного рассинхрон?

    26-12-2014 23:48 Властелин колец Скачать торрент  

    Замечательная сборка. Автору низкий поклон за труды

    18-03-2015 21:51 Властелин колец Скачать торрент  

    супер трилогия

    18-03-2015 21:53 Властелин колец Скачать торрент  

    дайте скорости пожалуйста

    Pекламный агент PB

    18-05-2015 11:44 Властелин колец Скачать торрент  

    дайте скорости плиииз!!!

    06-07-2015 02:13 Властелин колец Скачать торрент  

    KyJI9 писал(а):

    У меня одного рассинхрон?

    у меня тоже рассинхрон... по крайней мере в первой части - остальные еще не скачал...

    22-10-2015 18:46 Властелин колец Скачать торрент  

    Почти идеально. Вот только у всех частей рассинхрон, и смотреть так невозможно...

    Дорогой пользователь! Огромная просьба, поблагодарите релизера, оцените раздачу и оставьте свои комментарий, если Вы скачали Властелин колец через торрент бесплатно! Внесите свою лепту в развитие PiratBit!

    Комментировать посты могут только пользователи прошедшие не сложную регистрацию

    Властелин колец через торрент Скачать бесплатно Властелин колец Властелин колец скачать торрент Властелин колец смотреть онлайн Cкачать фильм Властелин колец бесплатно Властелин колец скачать торрент в хорошем качестве Властелин колец смотреть онлайн бесплатно в хорошем качестве

    Вы не можете начинать темыВы не можете отвечать на сообщенияВы не можете редактировать свои сообщенияВы не можете удалять свои сообщенияВы не можете голосовать в опросахВы не можете прикреплять файлы к сообщениямВы можете скачивать файлы


    Смотрите также