Большой и добрый великан torrent


Скачать торрент Большой и добрый великан / The BFG (2016) HDRip-AVC

Информация о фильмеНазвание: Большой и добрый великанОригинальное название: The BFGГод выпуска: 2016Жанр: Фэнтези, экранизация, приключения, семейныйРежиссер: Стивен СпилбергВ ролях: Марк Райлэнс, Руби Барнхилл, Пенелопа Уилтон, Джемейн Клемент, Ребекка Холл, Рейф Сполл, Билл Хейдер, Оулавюр Дарри Оулафссон, Адам Годли, Майкл Адамуэйт

О фильме: В центре истории девочка по имени Софи, которая не смогла заснуть до полуночи и в окошко увидела огромного великана, который подходил к соседним домам и начинал дуть в окна спален. В полном соответствии со старинными поверьями и детскими страшилками, великан увидел Софи и унес к себе домой, в страну великанов. Как оказалось, он в этой самой стране был единственным добрым великаном: действуя в обстановке строжайшей секретности, он коллекционировал хорошие сны, которые по ночам раздавал детям. Уши у него устроены таким образом, что он слышит, что и о чем снится ребятам, и никогда не позволяет им видеть кошмары.

Страна: Великобритания, Канада, СШАСтудия: Amblin Entertainment, DreamWorks SKG, Reliance EntertainmentПродолжительность: 01:57:06Перевод: Профессиональный (дублированный) Blu-ray EUR

ФайлКачество: HDRip-AVCФормат: МКVВидео: 984x412, 23.976 fps, [email protected], ~1581 kbpsАудио: AC3, 6 ch, 448 kbps Субтитры: Русские форсированные, Английские

M/I

General Unique ID : 242354392095309581640072834180121405234 (0xB653C2121F1AD3F98068669531C4A732) Complete name : D:Большой и добрый великан.(2016).HDRIP-AVC.[-=DoMiNo=-].mkv Format : Matroska Format version : Version 4 / Version 2 File size : 1.66 GiB Duration : 1 h 57 min Overall bit rate : 2 028 kb/s Movie name : Большой и добрый великан Deion : В центре истории девочка по имени Софи, которая не смогла заснуть до полуночи и в окошко увидела огромного великана, который подходил к соседним домам и начинал дуть в окна спален. В полном соответствии со старинными поверьями и детскими страшилками, великан увидел Софи и унес к себе домой, в страну великанов.Как оказалось, он в этой самой стране был единственным добрым великаном: действуя в обстановке строжайшей секретности, он коллекционировал хорошие сны, которые по ночам раздавал детям. Уши у него устроены таким образом, что он слышит, что и о чем снится ребятам, и никогда не позволяет им видеть кошмары. Encoded date : UTC 2017-01-17 13:04:53 Writing application : mkvmerge v8.3.0 ('Over the Horizon') 64bit Writing library : libebml v1.3.1 + libmatroska v1.4.2 / Lavf57.41.100 Attachments : poster.jpg ACTORS : Марк Райлэнс, Руби Барнхилл, Пенелопа Уилтон, Джемейн Клемент, Ребекка Холл, Рейф Сполл, Билл Хейдер, Оулавюр Дарри Оулафссон, Адам Годли, Майкл Адамуэйт, Дэниэл Бэйкон, Джонатан Холмс, Крис Гиббс, Пол Мониз де Са, Мэрилин Норри, Каллум Сигрем Эйрли, Хэйг Сазерленд, Шона Хансен, Денис Джонс, Габриель Роз, Энтони Ингрэм, Крис Шилдс, Мэтт Фрюэр, Джеффри Вэйд, Джон Эммет Трэйси, Уильям Сэмплз, Энди Томпсон, Пол Барнхилл, Люсия Райан, Джулия Торранс, Кал Дэвис, Кайл Мэлони, Майкл Маклауд, Дэвид Орр, Закари Рид, Дэвид Гловер, Джошуа Каллаган, Тодд Биффард, Рэнди Рэфьюз, Жерардо Баркала, Грэхэм Керри, Джаббз Фаруки, Симона Хьюз, Джефф Кент COMPOSER : Джон Уильямс COUNTRY : Великобритания, Канада, США DATE : 2016 DIRECTOR : Стивен Спилберг ENCODING_INFO : MATROSKA,WEBM > MKV / h364 > X264 VBR-2P 1581kbps Произвольный / AC3 > COPY GENRE : фэнтези, приключения, семейный HD_VIDEO : 1 IMDB_RATING : 6.60 ITUNEXTC : mpaa|PG|200| MEDIA_TYPE : 9 ORIGINAL_ACTORS : Mark Rylance, Ruby Barnhill, Penelope Wilton, Jemaine Clement, Rebecca Hall, Rafe Spall, Bill Hader, Ólafur Darri Ólafsson (в титрах: Olafur Darri Olafsson), Adam Godley, Michael Adamthwaite (в титрах: Michael David Adamthwaite), Daniel Bacon, Jonathan Holmes, Chris Gibbs, Paul Moniz de Sa, Marilyn Norry, Callum Seagram Airlie, Haig Sutherland, Shauna Hansen, Denise Jones, Gabrielle Rose, Anthony Ingram, Chris Shields, Matt Frewer, Geoffrey Wade, John Emmet Tracy, William Samples, Andy Thompson, Paul Barnhill (в титрах: Paul Stuart Barnhill), Lucia Ryan, Julia Torrance (в титрах: Julia Elizabeth Torrance), Cal Davis, Kyle Maloney, Michael Mcleod, David Orr, Zachary Read, David Glover, Joshua Callagan, Todd Biffard, Randy Rafuse, Gerardo Barcala, Graham Curry, Jabbz Farooqi, Simona Hughes, Jeff Kent ORIGINAL_TITLE : The BFG PRODUCER : Фрэнк Маршалл, Сэм Мерсер, Стивен Спилберг, Кэтлин Кеннеди, Кристи Макоско Кригер, Джон Мэдден, Мелисса Мэтисон, Майкл Сигел, Адам Сомнер RATING : 6.165 WRITER : Мелисса Мэтисон, Роальд Даль

Video ID : 1 Format : AVC Format/Info : Advanced Video Codec Format profile : [email protected] Format settings, CABAC : Yes Format settings, ReFrames : 12 frames Codec ID : V_MPEG4/ISO/AVC Duration : 1 h 57 min Bit rate : 1 581 kb/s Width : 984 pixels Height : 412 pixels Display aspect ratio : 2.40:1 Frame rate mode : Constant Frame rate : 23.976 (24000/1001) FPS Color space : YUV Chroma subsampling : 4:2:0 Bit depth : 8 bits Scan type : Progressive Bits/(Pixel*Frame) : 0.163 Stream size : 1.29 GiB (78%) Title : Rip_by_-=DoMiNo=- Writing library : x264 core 148 r2721M 72d53ab Encoding settings : cabac=1 / ref=12 / deblock=1:-3:-3 / analyse=0x3:0x133 / me=umh / subme=11 / psy=1 / psy_rd=1.00:0.10 / mixed_ref=1 / me_range=32 / chroma_me=1 / trellis=2 / 8x8dct=1 / cqm=0 / deadzone=21,11 / fast_pskip=0 / chroma_qp_offset=-3 / threads=5 / lookahead_threads=1 / sliced_threads=0 / nr=0 / decimate=1 / interlaced=0 / bluray_compat=0 / constrained_intra=0 / bframes=11 / b_pyramid=2 / b_adapt=2 / b_bias=0 / direct=3 / weightb=1 / open_gop=0 / weightp=2 / keyint=230 / keyint_min=23 / scenecut=40 / intra_refresh=0 / rc=2pass / mbtree=0 / bitrate=1581 / ratetol=1.0 / qcomp=0.70 / qpmin=0 / qpmax=69 / qpstep=4 / cplxblur=20.0 / qblur=0.5 / ip_ratio=1.40 / pb_ratio=1.30 / aq=1:1.00 Language : English Default : Yes Forced : No Color range : Limited Matrix coefficients : BT.709

Audio ID : 2 Format : AC-3 Format/Info : Audio Coding 3 Mode extension : CM (complete main) Format settings, Endianness : Big Codec ID : A_AC3 Duration : 1 h 57 min Bit rate mode : Constant Bit rate : 448 kb/s Channel(s) : 6 channels Channel positions : Front: L C R, Side: L R, LFE Sampling rate : 48.0 kHz Frame rate : 31.250 FPS (1536 spf) Bit depth : 16 bits Compression mode : Lossy Stream size : 375 MiB (22%) Title : DUB_BD CEE Default : Yes Forced : No

Text #1 ID : 3 Format : UTF-8 Codec ID : S_TEXT/UTF8 Codec ID/Info : UTF-8 Plain Text Duration : 1 h 48 min Bit rate : 0 b/s Count of elements : 8 Stream size : 363 Bytes (0%) Title : RUS_Forsed Language : Russian Default : Yes Forced : No

Text #2 ID : 4 Format : UTF-8 Codec ID : S_TEXT/UTF8 Codec ID/Info : UTF-8 Plain Text Duration : 1 h 45 min Bit rate : 32 b/s Count of elements : 928 Stream size : 24.8 KiB (0%) Title : ENG_Full Language : English Default : No Forced : No

Text #3 ID : 5 Format : UTF-8 Codec ID : S_TEXT/UTF8 Codec ID/Info : UTF-8 Plain Text Duration : 1 h 47 min Bit rate : 37 b/s Count of elements : 1205 Stream size : 29.9 KiB (0%) Title : ENG_SDH Language : English Default : No Forced : No

Menu 00:00:00.000 : :00:00:00.000 00:03:33.463 : :00:03:33.463 00:08:02.732 : :00:08:02.732 00:14:05.178 : :00:14:05.178 00:19:45.851 : :00:19:45.851 00:24:50.030 : :00:24:50.030 00:28:29.541 : :00:28:29.541 00:33:33.094 : :00:33:33.094 00:36:51.418 : :00:36:51.418 00:41:04.295 : :00:41:04.295 00:45:48.245 : :00:45:48.245 00:51:52.401 : :00:51:52.401 00:57:36.662 : :00:57:36.662 01:03:46.239 : :01:03:46.239 01:13:41.917 : :01:13:41.917 01:21:54.701 : :01:21:54.701

krutor.org

Скачать торрент Большой и добрый великан / The BFG (2016) TC-AVC

Информация о фильмеНазвание: Большой и добрый великанОригинальное название: The BFGГод выхода: 2016Жанр: фэнтези, приключения, семейныйРежиссер: Стивен СпилбергВ ролях: Марк Райлэнс, Руби Барнхилл, Пенелопа Уилтон, Джемейн Клемент, Ребекка Холл, Рейф Сполл, Билл Хейдер, Оулавюр Дарри Оулафссон, Адам Годли, Майкл Адамуэйт

О фильме: В центре истории девочка по имени Софи, которая не смогла заснуть до полуночи и в окошко увидела огромного великана, который подходил к соседним домам и начинал дуть в окна спален. В полном соответствии со старинными поверьями и детскими страшилками, великан увидел Софи и унес к себе домой, в страну великанов. Как оказалось, он в этой самой стране был единственным добрым великаном: действуя в обстановке строжайшей секретности, он коллекционировал хорошие сны, которые по ночам раздавал детям. Уши у него устроены таким образом, что он слышит, что и о чем снится ребятам, и никогда не позволяет им видеть кошмары..

Страна: Великобритания, Канада, СШАПродолжительность: 01:52:12Перевод: Профессиональный (полное дублирование)

ФайлКодек: XviDКачество: TC-AVCВидео: AVC, 720x352 (2.045), 29.940 fps, 2 200 Kbps (0.290 bit/pixel)Звук: Аудио #1: AC-3, 48.0 KHz, 2 ch, 384 Kbps, CBR | Rus Аудио #2: MP3, 48.0 KHz, 2 ch, 320 Kbps, CBR | Eng

Семпл

MediaInfo

Общее Уникальный идентификатор : 250074987501543607153158499950560467497 (0xBC22B0D037B594AEB9F1E44AB136DA29) Полное имя : The BFG 2016.TC.Rus.Eng.mkv Формат : Matroska Версия формата : Version 4 / Version 2 Размер файла : 2,26 Гбайт Продолжительность : 1 ч. 52 м. Общий поток : 2890 Кбит/сек Дата кодирования : UTC 2016-07-11 19:26:01 Программа кодирования : mkvmerge v8.3.0 ('Over the Horizon') 64bit Библиотека кодирования : libebml v1.3.1 + libmatroska v1.4.2

Видео Идентификатор : 1 Формат : AVC Формат/Информация : Advanced Video Codec Профиль формата : [email protected] Параметр CABAC формата : Да Параметр ReFrames формата : 3 кадра Идентификатор кодека : V_MPEG4/ISO/AVC Продолжительность : 1 ч. 52 м. Битрейт : 2200 Кбит/сек Ширина : 720 пикселей Высота : 352 пикселя Соотношение сторон : 2,045 Режим частоты кадров : Постоянный Частота кадров : 29,940 кадров/сек Цветовое пространство : YUV Субдискретизация насыщенности : 4:2:0 Битовая глубина : 8 бит Тип развёртки : Прогрессивная Бит/(Пиксели*Кадры) : 0.290 Размер потока : 1,71 Гбайт (76%) Библиотека кодирования : x264 core 148 r2638 7599210 Настройки программы : cabac=1 / ref=3 / deblock=1:-1:-1 / analyse=0x3:0x113 / me=hex / subme=7 / psy=1 / psy_rd=1.00:0.15 / mixed_ref=1 / me_range=16 / chroma_me=1 / trellis=1 / 8x8dct=1 / cqm=0 / deadzone=21,11 / fast_pskip=1 / chroma_qp_offset=-3 / threads=11 / lookahead_threads=1 / sliced_threads=0 / nr=0 / decimate=1 / interlaced=0 / bluray_compat=0 / constrained_intra=0 / bframes=3 / b_pyramid=0 / b_adapt=1 / b_bias=0 / direct=1 / weightb=1 / open_gop=1 / weightp=2 / keyint=25 / keyint_min=1 / scenecut=40 / intra_refresh=0 / rc_lookahead=37 / rc=abr / mbtree=1 / bitrate=2200 / ratetol=1.0 / qcomp=0.60 / qpmin=10 / qpmax=51 / qpstep=4 / vbv_maxrate=62500 / vbv_bufsize=78125 / nal_hrd=none / filler=0 / ip_ratio=1.40 / aq=1:1.00 Default : Да Forced : Нет

Аудио #1 Идентификатор : 2 Формат : AC-3 Формат/Информация : Audio Coding 3 Расширение режима : CM (complete main) Параметр Endianness формата : Big Идентификатор кодека : A_AC3 Продолжительность : 1 ч. 52 м. Вид битрейта : Постоянный Битрейт : 384 Кбит/сек Каналы : 2 канала Расположение каналов : Front: L R Частота : 48,0 КГц Частота кадров : 31,250 кадров/сек (1536 spf) Метод сжатия : С потерями Размер потока : 308 Мбайт (13%) Заголовок : RUS ТС Default : Да Forced : Нет

Аудио #2 Идентификатор : 3 Формат : MPEG Audio Версия формата : Version 1 Профиль формата : Layer 3 Режим : Joint stereo Расширение режима : MS Stereo Идентификатор кодека : A_MPEG/L3 Идентификатор кодека/Подсказка : MP3 Продолжительность : 1 ч. 52 м. Вид битрейта : Постоянный Битрейт : 320 Кбит/сек Каналы : 2 канала Частота : 48,0 КГц Частота кадров : 41,667 кадра/сек (1152 spf) Метод сжатия : С потерями Размер потока : 257 Мбайт (11%) Заголовок : ENG TC Default : Нет Forced : Нет

krutor.org

Скачать торрент Большой и добрый великан / The BFG (2016) BDRemux 1080р от ExKinoRay

Информация о фильмеНазвание: Большой и добрый великанОригинальное название: The BFGГод выхода: 2016Жанр: Фэнтези, экранизация, приключения, семейныйРежиссер: Стивен СпилбергВ ролях: Марк Райлэнс, Руби Барнхилл, Пенелопа Уилтон, Джемейн Клемент, Ребекка Холл, Рейф Сполл, Билл Хейдер, Оулавюр Дарри Оулафссон, Адам Годли, Майкл Адамуэйт

О фильме:В центре истории девочка по имени Софи, которая не смогла заснуть до полуночи и в окошко увидела огромного великана, который подходил к соседним домам и начинал дуть в окна спален. В полном соответствии со старинными поверьями и детскими страшилками, великан увидел Софи и унес к себе домой, в страну великанов.

Страна: Великобритания, Канада, СШАСтудия: Amblin Entertainment, DreamWorks SKG, Reliance EntertainmentПродолжительность: 01:57:06Перевод: Дублированный | Чистый звук

ФайлКодек: MPEG-4Качество: BDRemux 1080pВидео: 1920x1080, 25.8 Mbit/s, 23.976 fpsЗвук: Аудио #01: 48 kHz, AC3, 2.0, 192 Kbps | Дублированный |Аудио #02: 48 kHz, TrueHD, 7.1, 4583 kbps | Оригинал |Субтитры: Английские

MI

General Unique ID : 204211188700031457884001719652794861749 (0x99A1A4F2C961F1D2B2AD2FF22DE988B5) Complete name : G:VideoThe.BFG.2016.BDREMUX.1080p.ExKinoRay.mkv Format : Matroska Format version : Version 4 / Version 2 File size : 25.1 GiB Duration : 1 h 57 min Overall bit rate mode : Variable Overall bit rate : 30.6 Mb/s Movie name : The.BFG.2016. build by ***селезень*** Encoded date : UTC 2016-11-18 17:18:54 Writing application : mkvmerge v8.3.0 ('Over the Horizon') 64bit Writing library : libebml v1.3.1 + libmatroska v1.4.2

Video ID : 1 Format : AVC Format/Info : Advanced Video Codec Format profile : [email protected] Format settings, CABAC : Yes Format settings, ReFrames : 4 frames Codec ID : V_MPEG4/ISO/AVC Duration : 1 h 57 min Bit rate mode : Variable Bit rate : 25.8 Mb/s Maximum bit rate : 28.0 Mb/s Width : 1 920 pixels Height : 1 080 pixels Display aspect ratio : 16:9 Frame rate mode : Constant Frame rate : 23.976 (24000/1001) FPS Color space : YUV Chroma subsampling : 4:2:0 Bit depth : 8 bits Scan type : Progressive Bits/(Pixel*Frame) : 0.519 Stream size : 21.1 GiB (84%) Title : The.BFG.2016. build by ***селезень*** Language : English Default : Yes Forced : No

Audio #1 ID : 2 Format : AC-3 Format/Info : Audio Coding 3 Mode extension : CM (complete main) Format settings, Endianness : Big Codec ID : A_AC3 Duration : 1 h 57 min Bit rate mode : Constant Bit rate : 192 kb/s Channel(s) : 2 channels Channel positions : Front: L R Sampling rate : 48.0 kHz Frame rate : 31.250 FPS (1536 spf) Bit depth : 16 bits Compression mode : Lossy Stream size : 161 MiB (1%) Title : Line Language : Russian Default : Yes Forced : No

Audio #2 ID : 3 Format : Atmos / TrueHD Codec ID : A_TRUEHD Duration : 1 h 57 min Bit rate mode : Variable Bit rate : 4 583 kb/s Maximum bit rate : 7 287 kb/s Channel(s) : Object Based / 8 channels Channel positions : Object Based / Front: L C R, Side: L R, Back: L R, LFE Sampling rate : / 48.0 kHz Frame rate : 1 200.000 FPS (40 spf) Compression mode : Lossless Stream size : 3.75 GiB (15%) Title : Original Language : English Default : No Forced : No

Text #1 ID : 4 Format : UTF-8 Codec ID : S_TEXT/UTF8 Codec ID/Info : UTF-8 Plain Text Duration : 1 h 45 min Bit rate : 32 b/s Count of elements : 928 Stream size : 24.8 KiB (0%) Title : Full Language : English Default : No Forced : No

Text #2 ID : 5 Format : UTF-8 Codec ID : S_TEXT/UTF8 Codec ID/Info : UTF-8 Plain Text Duration : 1 h 47 min Bit rate : 37 b/s Count of elements : 1205 Stream size : 29.9 KiB (0%) Title : SDH Language : English Default : No Forced : No

Menu 00:00:00.000 : en:00:00:00.000 00:03:33.463 : en:00:03:33.463 00:08:02.732 : en:00:08:02.732 00:14:05.178 : en:00:14:05.178 00:19:45.851 : en:00:19:45.851 00:24:50.030 : en:00:24:50.030 00:28:29.541 : en:00:28:29.541 00:33:33.094 : en:00:33:33.094 00:36:51.418 : en:00:36:51.418 00:41:04.295 : en:00:41:04.295 00:45:48.245 : en:00:45:48.245 00:51:52.401 : en:00:51:52.401 00:57:36.662 : en:00:57:36.662 01:03:46.239 : en:01:03:46.239 01:13:41.917 : en:01:13:41.917 01:21:54.701 : en:01:21:54.701

Релиз от: Автор релиза:

krutor.org

Большой и добрый великан (2016) скачать торрент в хорошем качестве бесплатно

Описание фильма "Большой и добрый великан"

Один из наиболее известных режиссеров современного кинематографа Стивен Спилберг, в июле 2016 года представит зрителю свою новую работу - «Большой и добрый великан». Эта красочная и добрая картина, с элементами фэнтези, основана на одноименной книге Мелиссы Мэтисон.

Сюжет киноленты повествует историю малышки Софи, которая рано познала горечь утраты. Еще в юном возрасте, девочка осталось совсем одна, и была направлена в детский приют на воспитание, так как оставшихся в живых родственников, у нее просто не было. Софи очень тяжело переживает потерю родителей, и не может перестать думать о них. Нередко, ей не удается уснуть, и она смотрит в окошко, теряясь в грезах. Эта привычка, вскоре станет началом невероятных приключений малышки.

В очередной тоскливый день, Софи, наблюдая из окна, замечает огромное существо, гуляющее по городу, беззвучно передвигаясь между зданиями. Великан тоже замечает девочку, и решает унести ее вместе с собой, из чужого дома. Не смотря на то, что в сказках принято рассказывать страшные вещи о таких существах, к удивлению малышки, великан оказывается очень отзывчивым и добрым. Они быстро находят общий язык, и героиня начинает видеть в нем нового друга. Позже оказывается, что вовсе не все гиганты такие добрые и безобидные. Сородичи великана являются его абсолютной противоположностью - они неприветливы, угрюмы и имеют злобный нрав. Узнав об их коварном плане захватить мир людей, героиня собирается помешать им любой ценой. Но она явно не справится в одиночку, поэтому обращается за помощью новому большому другу. Чтобы узнать, как закончилась эта захватывающая фантастическая история, рекомендуем смотреть картину Большой и добрый великан.

Скачать Большой и добрый великан через торрент

Сиды Качество Перевод Размер Видео Аудио
Скачать Загрузка... BDRemux Дублированный | iTunes 27,07 Гб 1920x1080, 25.8 Mbit/s, 23.976 fps 48 kHz, TrueHD, 7.1, 4583 kbps | Оригинал |
Скачать Загрузка... BDRemux Дублированный | iTunes 33,60 Гб 1920x1080, 17847 Kbit/s, 23.976 fps 48 kHz, TrueHD, 7.1, 4583 kbps | Оригинал |
Скачать Загрузка... BDRip1080 Дублированный | Лицензия 12,92 Гб 1920x804 at 23.976 fps, x264, 2pass, ~12500 kbps avg English: 48 kHz, DTS, 3/2 (L,C,R,l,r) + LFE ch, ~1536.00 kbps avg
Скачать Загрузка... BDRip1080 Дублированный | Лицензия 7,02 Гб 1280x536 at 23.976 fps, x264, ~5806 kbps avg English: 48 kHz, DTS, 3/2 (L,C,R,l,r) + LFE ch, ~1536.00 kbps avg
Скачать Загрузка... WEB-DL профессиональный (полное дублирование) + оригинал (английский) 2,34 Гб 720x304 (2.37:1), 23,976 fps, XviD build 65 ~1881 kbps avg, 0.36 bit/pixel 48 kHz, AC3 Dolby Digital, 2/0 (L,R) ch, ~192 kbps avg (UKR)
Скачать Загрузка... WEB-DL Дублированный | Лицензия 780,69 Мб 720x302 (2.40:1), 23.976 fps, x264 ~816 kbps avg, 0.157 bit/pixel 48 kHz, AAC-LC, 2 (L,R) ch, ~72.00 kbps avg | RUS
Скачать Загрузка... DVD Дублированный 4,69 Гб MPEG-2, AC3 5.1, 448 Кбит/сек [Русский - дублированный]
Скачать Загрузка... DVD Дублированный 6,86 Гб MPEG-2, AC3 5.1, 448 Кбит/сек [Русский - дублированный]

У нас вы можете легко скачать Большой и добрый великан через торрент бесплатно в хорошем качестве, оставляйте комментарии и делитесь впечатлениями!

kino.kak.to

Большой и добрый великан (2016) скачать торрент в хорошем качестве бесплатно

Описание фильма "Большой и добрый великан"

Один из наиболее известных режиссеров современного кинематографа Стивен Спилберг, в июле 2016 года представит зрителю свою новую работу - «Большой и добрый великан». Эта красочная и добрая картина, с элементами фэнтези, основана на одноименной книге Мелиссы Мэтисон.

Сюжет киноленты повествует историю малышки Софи, которая рано познала горечь утраты. Еще в юном возрасте, девочка осталось совсем одна, и была направлена в детский приют на воспитание, так как оставшихся в живых родственников, у нее просто не было. Софи очень тяжело переживает потерю родителей, и не может перестать думать о них. Нередко, ей не удается уснуть, и она смотрит в окошко, теряясь в грезах. Эта привычка, вскоре станет началом невероятных приключений малышки.

В очередной тоскливый день, Софи, наблюдая из окна, замечает огромное существо, гуляющее по городу, беззвучно передвигаясь между зданиями. Великан тоже замечает девочку, и решает унести ее вместе с собой, из чужого дома. Не смотря на то, что в сказках принято рассказывать страшные вещи о таких существах, к удивлению малышки, великан оказывается очень отзывчивым и добрым. Они быстро находят общий язык, и героиня начинает видеть в нем нового друга. Позже оказывается, что вовсе не все гиганты такие добрые и безобидные. Сородичи великана являются его абсолютной противоположностью - они неприветливы, угрюмы и имеют злобный нрав. Узнав об их коварном плане захватить мир людей, героиня собирается помешать им любой ценой. Но она явно не справится в одиночку, поэтому обращается за помощью новому большому другу. Чтобы узнать, как закончилась эта захватывающая фантастическая история, рекомендуем смотреть картину Большой и добрый великан.

Скачать Большой и добрый великан через торрент

Сиды Качество Перевод Размер Видео Аудио
Скачать Загрузка... BDRemux Дублированный | iTunes 27,07 Гб 1920x1080, 25.8 Mbit/s, 23.976 fps 48 kHz, TrueHD, 7.1, 4583 kbps | Оригинал |
Скачать Загрузка... BDRemux Дублированный | iTunes 33,60 Гб 1920x1080, 17847 Kbit/s, 23.976 fps 48 kHz, TrueHD, 7.1, 4583 kbps | Оригинал |
Скачать Загрузка... BDRip1080 Дублированный | Лицензия 12,92 Гб 1920x804 at 23.976 fps, x264, 2pass, ~12500 kbps avg English: 48 kHz, DTS, 3/2 (L,C,R,l,r) + LFE ch, ~1536.00 kbps avg
Скачать Загрузка... BDRip1080 Дублированный | Лицензия 7,02 Гб 1280x536 at 23.976 fps, x264, ~5806 kbps avg English: 48 kHz, DTS, 3/2 (L,C,R,l,r) + LFE ch, ~1536.00 kbps avg
Скачать Загрузка... WEB-DL профессиональный (полное дублирование) + оригинал (английский) 2,34 Гб 720x304 (2.37:1), 23,976 fps, XviD build 65 ~1881 kbps avg, 0.36 bit/pixel 48 kHz, AC3 Dolby Digital, 2/0 (L,R) ch, ~192 kbps avg (UKR)
Скачать Загрузка... WEB-DL Дублированный | Лицензия 780,69 Мб 720x302 (2.40:1), 23.976 fps, x264 ~816 kbps avg, 0.157 bit/pixel 48 kHz, AAC-LC, 2 (L,R) ch, ~72.00 kbps avg | RUS
Скачать Загрузка... DVD Дублированный 4,69 Гб MPEG-2, AC3 5.1, 448 Кбит/сек [Русский - дублированный]
Скачать Загрузка... DVD Дублированный 6,86 Гб MPEG-2, AC3 5.1, 448 Кбит/сек [Русский - дублированный]

У нас вы можете легко скачать Большой и добрый великан через торрент бесплатно в хорошем качестве, оставляйте комментарии и делитесь впечатлениями!

kino.kak.to


Смотрите также