Великий гэтсби рутор


rutor.org :: Великий Гэтсби / The Great Gatsby (2013) BDRip 1080p ::: Скачать торрент

Информация о фильмеНазвание: Великий ГэтсбиОригинальное название: The Great GatsbyГод выхода: 2013Жанр: драма, мелодрамаРежиссер: Баз ЛурманВ ролях: Леонардо ДиКаприо, Тоби Магуайр, Кэри Маллиган, Джоэл Эдгертон, Айла Фишер, Джейсон Кларк, Амитабх Баччан, Стив Бисли, Ричард Картер, Эделейд Клеменс

О фильме: Весной 1922 года, в эпоху разлагающейся морали, блистательного джаза и «королей контрабандного алкоголя», Ник Каррауэй приезжает из Среднего Запада в Нью-Йорк. Преследуя собственную американскую мечту, он селится по соседству с таинственным, известным своими вечеринками миллионером Джеем Гэтсби, а на противоположном берегу бухты проживают его кузина Дэйзи и её муж, повеса и аристократ, Том Бьюкенен. Так Ник оказывается вовлечённым в захватывающий мир богатых - их иллюзий, любви и обманов. Он становится свидетелем происходящего в этом мире и пишет историю невозможной любви, вечных мечтаний и человеческой трагедии, которые являются отражением современных времен и нравов.

Выпущено: США, АвстралияСтудия: Warner Bros.Продолжительность: 02:22:05Перевод: Дублированный + Оригинал

ФайлКодек: x264Качество: BDRip (источник: Blu-ray Disc)Видео: 1920x800 (2,40:1), 23.976 fps, 10.5 MbpsАудио #1: AC-3, 6 ch, 448 kbps (Rus)Аудио #2: AC-3, 6 ch, 640 kbps (Eng)Субтитры: Русские (Forced), Русские, Английские

MI

Общее Уникальный идентификатор : 209563689603794892309607193597094214586 (0x9DA87F9E1DEB9DD5B59542A8DBE53BBA) Полное имя : F:РипыThe.Great.Gatsby.2013.BDRip.1080p.Rus.Eng.mkv Формат : Matroska Версия формата : Version 2 Размер файла : 11,5 Гбайт Продолжительность : 2 ч. 22 м. Общий поток : 11,6 Мбит/сек Название фильма : Великий Гэтсби / The Great Gatsby (2013) Дата кодирования : UTC 2013-09-28 20:25:16 Программа кодирования : mkvmerge v5.8.0 ('No Sleep / Pillow') built on Sep 2 2012 15:37:04 Библиотека кодирования : libebml v1.2.3 + libmatroska v1.3.0 Attachment : Yes

Видео Идентификатор : 1 Формат : AVC Формат/Информация : Advanced Video Codec Профиль формата : [email protected] Параметр CABAC формата : Да Параметр ReFrames формата : 5 кадров Идентификатор кодека : V_MPEG4/ISO/AVC Продолжительность : 2 ч. 22 м. Битрейт : 10,5 Мбит/сек Ширина : 1920 пикселей Высота : 800 пикселей Соотношение сторон : 2,40:1 Режим частоты кадров : Постоянный Частота кадров : 23,976 кадра/сек Цветовое пространство : YUV Субдискретизация насыщенности : 4:2:0 Битовая глубина : 8 бит Тип развёртки : Прогрессивная Бит/(Пиксели*Кадры) : 0.286 Размер потока : 10,2 Гбайт (89%) Заголовок : Release by N1NT3NDO Библиотека кодирования : x264 core 138 r2358 9e941d1 Настройки программы : cabac=1 / ref=5 / deblock=1:-3:-3 / analyse=0x3:0x133 / me=tesa / subme=11 / psy=1 / psy_rd=1.00:0.00 / mixed_ref=1 / me_range=32 / chroma_me=1 / trellis=2 / 8x8dct=1 / cqm=0 / deadzone=21,11 / fast_pskip=0 / chroma_qp_offset=-2 / threads=12 / lookahead_threads=1 / sliced_threads=0 / nr=0 / decimate=0 / interlaced=0 / bluray_compat=0 / constrained_intra=0 / bframes=6 / b_pyramid=2 / b_adapt=2 / b_bias=0 / direct=3 / weightb=1 / open_gop=0 / weightp=2 / keyint=240 / keyint_min=23 / scenecut=40 / intra_refresh=0 / rc_lookahead=80 / rc=2pass / mbtree=0 / bitrate=10541 / ratetol=1.0 / qcomp=0.60 / qpmin=0 / qpmax=69 / qpstep=4 / cplxblur=20.0 / qblur=0.5 / vbv_maxrate=50000 / vbv_bufsize=62500 / nal_hrd=none / ip_ratio=1.40 / pb_ratio=1.30 / aq=1:1.00 Язык : English Default : Да Forced : Нет

Аудио #1 Идентификатор : 2 Формат : AC-3 Формат/Информация : Audio Coding 3 Расширение режима : CM (complete main) Параметр Endianness формата : Big Идентификатор кодека : A_AC3 Продолжительность : 2 ч. 22 м. Вид битрейта : Постоянный Битрейт : 448 Кбит/сек Каналы : 6 каналов Расположение каналов : Front: L C R, Side: L R, LFE Частота : 48,0 КГц Битовая глубина : 16 бит Метод сжатия : С потерями Размер потока : 455 Мбайт (4%) Заголовок : Rus Язык : Russian Default : Да Forced : Нет

Аудио #2 Идентификатор : 3 Формат : AC-3 Формат/Информация : Audio Coding 3 Расширение режима : CM (complete main) Параметр Endianness формата : Big Идентификатор кодека : A_AC3 Продолжительность : 2 ч. 22 м. Вид битрейта : Постоянный Битрейт : 640 Кбит/сек Каналы : 6 каналов Расположение каналов : Front: L C R, Side: L R, LFE Частота : 48,0 КГц Битовая глубина : 16 бит Метод сжатия : С потерями Размер потока : 651 Мбайт (6%) Заголовок : Eng Язык : English Default : Нет Forced : Нет

Текст #1 Идентификатор : 4 Формат : UTF-8 Идентификатор кодека : S_TEXT/UTF8 Идентификатор кодека/Информация : UTF-8 Plain Text Заголовок : Rus (Forced) Язык : Russian Default : Да Forced : Нет

Текст #2 Идентификатор : 5 Формат : UTF-8 Идентификатор кодека : S_TEXT/UTF8 Идентификатор кодека/Информация : UTF-8 Plain Text Заголовок : Rus Язык : Russian Default : Нет Forced : Нет

Текст #3 Идентификатор : 6 Формат : UTF-8 Идентификатор кодека : S_TEXT/UTF8 Идентификатор кодека/Информация : UTF-8 Plain Text Заголовок : Eng Язык : English Default : Нет Forced : Нет

Меню 00:00:00.000 : :Chapter 01 00:11:04.080 : :Chapter 02 00:22:55.832 : :Chapter 03 00:34:26.898 : :Chapter 04 00:44:48.727 : :Chapter 05 00:55:36.332 : :Chapter 06 01:06:20.643 : :Chapter 07 01:18:27.786 : :Chapter 08 01:31:13.926 : :Chapter 09 01:44:11.954 : :Chapter 10 01:56:35.154 : :Chapter 11 02:05:46.121 : :Chapter 12 02:09:40.981 : :Chapter 13

main-rutor.org

rutor.org :: Великий Гэтсби / The Great Gatsby (2013) HDRip от New-Team | iTunes Russia

Информация о фильмеНазвание: Великий ГэтсбиОригинальное название: The Great GatsbyГод выхода: 2013Жанр: драма, мелодрамаРежиссер: Баз ЛурманВ ролях: Леонардо ДиКаприо, Тоби Магуайр, Кэри Маллиган, Джоэл Эдгертон, Айла Фишер, Джейсон Кларк, Амитабх Баччан, Стив Бисли, Ричард Картер, Эделейд Клеменс

О фильме: Весной 1922 года, в эпоху разлагающейся морали, блистательного джаза и «королей контрабандного алкоголя», Ник Каррауэй приезжает из Среднего Запада в Нью-Йорк. Преследуя собственную американскую мечту, он селится по соседству с таинственным, известным своими вечеринками миллионером Джеем Гэтсби, а на противоположном берегу бухты проживают его кузина Дэйзи и её муж, повеса и аристократ, Том Бьюкенен. Так Ник оказывается вовлечённым в захватывающий мир богатых - их иллюзий, любви и обманов. Он становится свидетелем происходящего в этом мире и пишет историю невозможной любви, вечных мечтаний и человеческой трагедии, которые являются отражением современных времен и нравов.

Страна: Австралия, СШАПродолжительность: 02:22:06Перевод: Профессиональный (дублированный) [iTunes Russia]

ФайлКодек: H.264Качество: HDRip Исходник: BDRip 1080pВидео: 640x356 (852х356 анаморф), ~2.4:1, 1500 Kbps, 23.976 fpsЗвук: Русская дорожка, AAC, 2 канала, 48.0 KHz, 128 Kbps, F L,R Английская дорожка, AAC, 2 канала, 48.0 KHz, 128 Kbps, F L,RСубтитры: Русские и Английские

iTunes Meta Tags

Media Type: Movie XID: Apple:vendor_id:2013-tt1343092 Content ID: 669947696 ScreenWriters: Баз Лурман, Крэйг Пирс, Фрэнсис Скотт Фицджеральд Producers: Люси Фишер, Катрин Нэпман, Баз Лурман Director: Баз Лурман Cast: Леонардо ДиКаприо, Тоби Магуайр, Кэри Маллиган, Джоэл Эдгертон, Айла Фишер, Джейсон Кларк, Амитабх Баччан, Стив Бисли, Ричард Картер, Эделейд Клеменс Rating: PG-13 Long Deion: Весной 1922 года, в эпоху разлагающейся морали, блистательного джаза и «королей контрабандного алкоголя», Ник Каррауэй приезжает из Среднего Запада в Нью-Йорк. Преследуя собственную американскую мечту, он селится по соседству с таинственным, известным своими вечеринками миллионером Джеем Гэтсби, а на противоположном берегу бухты проживают его кузина Дэйзи и её муж, повеса и аристократ, Том Бьюкенен. Так Ник оказывается вовлечённым в захватывающий мир богатых - их иллюзий, любви и обманов. Он становится свидетелем происходящего в этом мире и пишет историю невозможной любви, вечных мечтаний и человеческой трагедии, которые являются отражением современных времен и нравов. Deion: Весной 1922 года, в эпоху разлагающейся морали, блистательного джаза и «королей контрабандного алкоголя», Ник Каррауэй приезжает из Среднего Запада в Нью-Йорк. Преследуя собственную американскую мечту, он селится по соседству с таинственным... Release Date: 2013-05-10T07:00:00Z Genre: драма, мелодрамаArtist: Баз Лурман Name: Великий Гэтсби

MediaInfo

General Complete name : C:UsersNarekDesktopВеликий Гэтсби.mp4 Format : MPEG-4 Format profile : Base Media Codec ID : isom File size : 1.76 GiB Duration : 2h 22mn Overall bit rate mode : Variable Overall bit rate : 1 768 Kbps Movie name : Великий Гэтсби Performer : Баз Лурман Genre : драма, мелодрамаContentType : Short Film Deion : Весной 1922 года, в эпоху разлагающейся морали, блистательного джаза и «королей контрабандного алкоголя», Ник Каррауэй приезжает из Среднего Запада в Нью-Йорк. Преследуя собственную американскую мечту, он селится по соседству с таинственным... Recorded date : UTC 2013-05-10 07:00:00 Encoded date : UTC 2013-08-16 13:16:30 Tagged date : UTC 2013-08-17 13:39:27 Cover : Yes LongDeion : Весной 1922 года, в эпоху разлагающейся морали, блистательного джаза и «королей контрабандного алкоголя», Ник Каррауэй приезжает из Среднего Запада в Нью-Йорк. Преследуя собственную американскую мечту, он селится по соседству с таинственным, известным своими вечеринками миллионером Джеем Гэтсби, а на противоположном берегу бухты проживают его кузина Дэйзи и её муж, повеса и аристократ, Том Бьюкенен. Так Ник оказывается вовлечённым в захватывающий мир богатых - их иллюзий, любви и обманов. Он становится свидетелем происходящего в этом мире и пишет историю невозможной любви, вечных мечтаний и человеческой трагедии, которые являются отражением современных времен и нравов. AppleStoreCatalogID : 669947696 Vendor : Apple:vendor_id:2013-tt1343092 ContentRating : mpaa|PG-13|300|

Video ID : 1 Format : AVC Format/Info : Advanced Video Codec Format profile : [email protected] Format settings, CABAC : No Format settings, ReFrames : 3 frames Codec ID : avc1 Codec ID/Info : Advanced Video Coding Duration : 2h 22mn Bit rate : 1 500 Kbps Maximum bit rate : 7 121 Kbps Width : 640 pixels Height : 356 pixels Display aspect ratio : 2.40:1 Frame rate mode : Variable Frame rate : 23.976 fps Minimum frame rate : 23.810 fps Maximum frame rate : 24.390 fps Color space : YUV Chroma subsampling : 4:2:0 Bit depth : 8 bits Scan type : Progressive Bits/(Pixel*Frame) : 0.275 Stream size : 1.49 GiB (85%) Writing library : x264 core 130 r2273 b3065e6 Encoding settings : cabac=0 / ref=3 / deblock=1:0:0 / analyse=0x1:0x111 / me=umh / subme=9 / psy=1 / psy_rd=1.00:0.00 / mixed_ref=1 / me_range=16 / chroma_me=1 / trellis=1 / 8x8dct=0 / cqm=0 / deadzone=21,11 / fast_pskip=1 / chroma_qp_offset=-2 / threads=6 / lookahead_threads=1 / sliced_threads=0 / nr=0 / decimate=1 / interlaced=0 / bluray_compat=0 / constrained_intra=0 / bframes=0 / weightp=0 / keyint=240 / keyint_min=24 / scenecut=40 / intra_refresh=0 / rc_lookahead=40 / rc=2pass / mbtree=1 / bitrate=1500 / ratetol=1.0 / qcomp=0.60 / qpmin=0 / qpmax=69 / qpstep=4 / cplxblur=20.0 / qblur=0.5 / vbv_maxrate=5000 / vbv_bufsize=5000 / nal_hrd=none / ip_ratio=1.40 / aq=1:1.00 Encoded date : UTC 2013-08-16 19:48:36 Tagged date : UTC 2013-08-16 13:17:53 Color primaries : BT.709 Transfer characteristics : BT.709 Matrix coefficients : BT.709

Audio #1 ID : 2 Format : AAC Format/Info : Advanced Audio Codec Format profile : LC Codec ID : 40 Duration : 2h 22mn Bit rate mode : Variable Bit rate : 128 Kbps Maximum bit rate : 174 Kbps Channel(s) : 2 channels Channel positions : Front: L R Sampling rate : 48.0 KHz Compression mode : Lossy Stream size : 130 MiB (7%) Language : Russian Encoded date : UTC 2013-08-16 13:17:46 Tagged date : UTC 2013-08-16 13:17:53

Audio #2 ID : 3 Format : AAC Format/Info : Advanced Audio Codec Format profile : LC Codec ID : 40 Duration : 2h 22mn Bit rate mode : Variable Bit rate : 128 Kbps Maximum bit rate : 164 Kbps Channel(s) : 2 channels Channel positions : Front: L R Sampling rate : 48.0 KHz Compression mode : Lossy Stream size : 130 MiB (7%) Language : English Encoded date : UTC 2013-08-16 13:17:50 Tagged date : UTC 2013-08-16 13:17:53

Text #1 ID : 4 Format : Timed Text Muxing mode : sbtl Codec ID : tx3g Duration : 2h 9mn Bit rate mode : Variable Bit rate : 112 bps Stream size : 106 KiB (0%) Language : Russian Encoded date : UTC 2013-08-16 13:17:53 Tagged date : UTC 2013-08-16 13:17:53

Text #2 ID : 5 Format : Timed Text Muxing mode : sbtl Codec ID : tx3g Duration : 2h 8mn Bit rate mode : Variable Bit rate : 85 bps Stream size : 80.4 KiB (0%) Language : English Encoded date : UTC 2013-08-16 13:17:53 Tagged date : UTC 2013-08-16 13:17:53

Menu ID : 6 Codec ID : text Duration : 2h 22mn Encoded date : UTC 2013-08-17 13:39:27 Tagged date : UTC 2013-08-17 13:39:27 Bit rate mode : VBR Duration_LastFrame : -474317

x264 лог

x264 [info]: frame I:3786 Avg QP:19.17 size: 32332 PSNR Mean Y:45.29 U:52.82 V:52.93 Avg:46.07 Global:45.08 x264 [info]: frame P:200626 Avg QP:21.78 size: 7357 PSNR Mean Y:42.32 U:46.10 V:46.00 Avg:43.16 Global:42.25 x264 [info]: mb I I16..4: 23.9% 0.0% 76.1% x264 [info]: mb P I16..4: 1.4% 0.0% 3.6% P16..4: 42.4% 18.6% 8.8% 0.0% 0.0% skip:25.2% x264 [info]: coded y,uvDC,uvAC intra: 66.4% 79.5% 51.6% inter: 28.1% 39.3% 7.5% x264 [info]: i16 v,h,dc,p: 52% 15% 7% 25% x264 [info]: i4 v,h,dc,ddl,ddr,vr,hd,vl,hu: 27% 6% 5% 10% 12% 14% 9% 11% 7% x264 [info]: i8c dc,h,v,p: 45% 14% 32% 9% x264 [info]: ref P L0: 73.6% 15.0% 11.4% x264 [info]: SSIM Mean Y:0.9823356 (17.529db) x264 [info]: PSNR Mean Y:42.373 U:46.221 V:46.133 Avg:43.216 Global:42.286 kb/s:1499.87

main-rutor.org

Скачать торрент Великий Гэтсби / The Great Gatsby (2013) BDRip 720p от NNNB

Великий Гэтсби / The Great Gatsby«Нельзя вернуть прошлое? Ну, конечно, можно!»Русское название: Великий ГэтсбиОригинальное название: The Great GatsbyГод выпуска: 2013Жанр: драма, мелодрамаВыпущено: Австралия, СШАРежиссер: Баз Лурман В ролях: Леонардо ДиКаприо , Тоби Магуайр , Кэри Маллиган , Джоэл Эдгертон , Айла Фишер , Джейсон Кларк , Элизабет Дебики , Каллэн МакОлифф , Джек Томпсон , Амитабх Баччан , Лиза Адам , Фрэнк Элдридж Перевод: Дублированный, Авторский (одноголосый)Сюжет фильма: Весной 1922 года, в эпоху разлагающейся морали, блистательного джаза и «королей контрабандного алкоголя», Ник Каррауэй приезжает из Среднего Запада в Нью-Йорк. Преследуя собственную американскую мечту, он селится по соседству с таинственным, известным своими вечеринками миллионером Джеем Гэтсби, а на противоположном берегу бухты проживают его кузина Дэйзи и её муж, повеса и аристократ, Том Бьюкенен. Так Ник оказывается вовлечённым в захватывающий мир богатых - их иллюзий, любви и обманов. Он становится свидетелем происходящего в этом мире и пишет историю невозможной любви, вечных мечтаний и человеческой трагедии, которые являются отражением современных времен и нравов.

Качество: BDRip 720pФормат: AVC \(библиотека кодирования x.264\)Контейнер (Расширение): MKVВидео: 1280x534, 6086 Кбит/сек, 23,976 кадр/сек, 0,371 Бит/[Пиксели*Кадры]Аудио №1: русский / AC3 / 5.1 / 48 kHz / 448 kbps / 16 bit |Дублированный, Blu-ray CEE| Аудио №2: русский / AC3 / 5.1 / 48 kHz / 640 kbps / 16 bit |Авторский, Юрий Сербин| Аудио №3: английский / AC3 / 5.1 / 48 kHz / 640 kbps /Субтитры: русские (Forced), русские, русские (voronine), английские, английские (SDH), английские (SDH-COLORED)Навигация по главам(Чаптеры): есть - подписанныеПродолжительность: 02:22:06

Автор рипа: Сообщество:

MediaInfo

Format : Matroska Format version : Version 2 File size : 7.76 GiB Duration : 2h 22mn Overall bit rate : 7 815 Kbps Movie name : The Great Gatsby.(2013).BDRip.720p.[denis100] Encoded date : UTC 2015-12-16 14:48:15 Writing application : mkvmerge v5.8.0 ('No Sleep / Pillow') built on Sep 2 2012 15:37:04 Writing library : libebml v1.2.3 + libmatroska v1.3.0

Video ID : 1 Format : AVC Format/Info : Advanced Video Codec Format profile : [email protected] Format settings, CABAC : No Format settings, ReFrames : 11 frames Codec ID : V_MPEG4/ISO/AVC Duration : 2h 22mn Bit rate : 6 086 Kbps Width : 1 280 pixels Height : 534 pixels Display aspect ratio : 2.40:1 Frame rate : 23.976 fps Color space : YUV Chroma subsampling : 4:2:0 Bit depth : 8 bits Scan type : Progressive Bits/(Pixel*Frame) : 0.371 Stream size : 5.89 GiB (76%) Title : The Great Gatsby.(2013).BDRip.720p.[denis100] Writing library : x264 core 148 r2638 7599210 Encoding settings : cabac=0 / ref=11 / deblock=1:-3:-3 / analyse=0x3:0x133 / me=umh / subme=11 / psy=1 / psy_rd=1.00:0.00 / mixed_ref=1 / me_range=32 / chroma_me=1 / trellis=2 / 8x8dct=1 / cqm=0 / deadzone=21,11 / fast_pskip=0 / chroma_qp_offset=-2 / threads=6 / lookahead_threads=1 / sliced_threads=0 / nr=0 / decimate=1 / interlaced=0 / bluray_compat=0 / constrained_intra=0 / bframes=10 / b_pyramid=2 / b_adapt=2 / b_bias=0 / direct=3 / weightb=1 / open_gop=0 / weightp=2 / keyint=240 / keyint_min=23 / scenecut=40 / intra_refresh=0 / rc=2pass / mbtree=0 / bitrate=6086 / ratetol=1.0 / qcomp=0.60 / qpmin=0 / qpmax=69 / qpstep=4 / cplxblur=20.0 / qblur=0.5 / ip_ratio=1.40 / pb_ratio=1.30 / aq=2:1.00 Language : English Default : Yes Forced : No

Audio #1 ID : 2 Format : AC-3 Format/Info : Audio Coding 3 Mode extension : CM (complete main) Codec ID : A_AC3 Duration : 2h 22mn Bit rate mode : Constant Bit rate : 448 Kbps Channel(s) : 6 channels Channel positions : Front: L C R, Side: L R, LFE Sampling rate : 48.0 KHz Bit depth : 16 bits Compression mode : Lossy Stream size : 455 MiB (6%) Title : Дублированный, Blu-ray CEE Language : Russian Default : Yes Forced : No

Audio #2 ID : 3 Format : AC-3 Format/Info : Audio Coding 3 Mode extension : CM (complete main) Codec ID : A_AC3 Duration : 2h 22mn Bit rate mode : Constant Bit rate : 640 Kbps Channel(s) : 6 channels Channel positions : Front: L C R, Side: L R, LFE Sampling rate : 48.0 KHz Bit depth : 16 bits Compression mode : Lossy Stream size : 651 MiB (8%) Title : Авторский, Юрий Сербин Language : Russian Default : No Forced : No

Audio #3 ID : 4 Format : AC-3 Format/Info : Audio Coding 3 Mode extension : CM (complete main) Codec ID : A_AC3 Duration : 2h 22mn Bit rate mode : Constant Bit rate : 640 Kbps Channel(s) : 6 channels Channel positions : Front: L C R, Side: L R, LFE Sampling rate : 48.0 KHz Bit depth : 16 bits Compression mode : Lossy Stream size : 651 MiB (8%) Language : English Default : No Forced : No

Text #1 ID : 5 Format : UTF-8 Codec ID : S_TEXT/UTF8 Codec ID/Info : UTF-8 Plain Text Title : Forced Language : Russian Default : Yes Forced : No

Text #2 ID : 6 Format : UTF-8 Codec ID : S_TEXT/UTF8 Codec ID/Info : UTF-8 Plain Text Language : Russian Default : No Forced : No

Text #3 ID : 7 Format : UTF-8 Codec ID : S_TEXT/UTF8 Codec ID/Info : UTF-8 Plain Text Title : voronine Language : Russian Default : No Forced : No

Text #4 ID : 8 Format : UTF-8 Codec ID : S_TEXT/UTF8 Codec ID/Info : UTF-8 Plain Text Language : English Default : No Forced : No

Text #5 ID : 9 Format : UTF-8 Codec ID : S_TEXT/UTF8 Codec ID/Info : UTF-8 Plain Text Title : SDH Language : English Default : No Forced : No

Text #6 ID : 10 Format : UTF-8 Codec ID : S_TEXT/UTF8 Codec ID/Info : UTF-8 Plain Text Title : SDH-COLORED Language : English Default : No Forced : No

Menu 00:00:00.000 : en:The East Egg 00:11:04.080 : en:Myrtle Wilson 00:22:55.832 : en:Invitation 00:34:26.898 : en:Lunch With Gatsby 00:44:48.727 : en:Reacquainted 00:55:36.332 : en:Rich and Poor 01:06:20.643 : en:A Party for Daisy 01:18:27.786 : en:Lovers 01:31:13.926 : en:Going Into Town 01:44:11.954 : en:Confronting Tom 01:56:35.154 : en:Trouble on the Road 02:05:46.121 : en:The Driver 02:09:40.981 : en:Revenge

x264

x264 [info]: frame I:2231 Avg QP:14.47 size:150368 x264 [info]: frame P:54368 Avg QP:17.12 size: 57406 x264 [info]: frame B:147813 Avg QP:19.03 size: 20489 x264 [info]: consecutive B-frames: 4.4% 5.5% 9.0% 47.4% 10.7% 16.2% 2.9% 3.0% 0.4%

krutor.org

rutor.org :: Великий Гэтсби / The Great Gatsby (2013) BDRip-AVC от HQCLUB

Великий Гэтсби / The Great Gatsby (2013) BDRip-AVC от HQCLUB

Информация о фильме:Название: Великий ГэтсбиОригинальное название: The Great GatsbyГод выхода: 2013Жанр: драма, мелодрамаРежиссер: Баз ЛурманВ ролях: Леонардо ДиКаприо, Тоби Магуайр, Кэри Маллиган, Джоэл Эдгертон, Айла Фишер, Джейсон Кларк, Амитабх Баччан, Стив Бисли, Ричард Картер, Эделейд Клеменс

О фильме: Весной 1922 года, в эпоху разлагающейся морали, блистательного джаза и «королей контрабандного алкоголя», Ник Каррауэй приезжает из Среднего Запада в Нью-Йорк. Преследуя собственную американскую мечту, он селится по соседству с таинственным, известным своими вечеринками миллионером Джеем Гэтсби, а на противоположном берегу бухты проживают его кузина Дэйзи и её муж, повеса и аристократ, Том Бьюкенен. Так Ник оказывается вовлечённым в захватывающий мир богатых — их иллюзий, любви и обманов. Он становится свидетелем происходящего в этом мире и пишет историю невозможной любви, вечных мечтаний и человеческой трагедии, которые являются отражением современных времен и нравов.

«Нельзя вернуть прошлое? Ну, конечно, можно!»

Релиз от - Автор рипа: MOSFET

Выпущено: Австралия, СШАПродолжительность: 02:22:05Перевод: Профессиональный (полное дублирование) + Оригинальная звуковая дорожка+ Авторский (одноголосый закадровый) Ю. Сербин (Отдельно на http) + Украинская дублированная звуковая дорожка (Отдельно на http)Субтитры: Русские (форсированные, полные) BD, русские (полные) R5, украинские (форсированные, полные) BD, английские (обычные, SDH, SDH-COLORED) (*.srt, отключаемые)

ЦитатаКто-то писал:Сохранены оригинальные чаптеры как на Blu-ray.

Файл:Формат: MKVКачество: BDRip-AVC (источник: BLUEBIRD / Blu-ray Disc [EUR] / 1080p)Видео: 1024x426 (2,40:1), 23.976 fps, [email protected], 2pass, ~2028 kbps avg, 0.19 bit/pixelАудио #1: 48 kHz, AC3, 3/2 (L,C,R,l,r) + LFE ch, ~448.00 kbps avg (RUS, DUB)Аудио #2: 48 kHz, AC3, 3/2 (L,C,R,l,r) + LFE ch, ~448.00 kbps avg (ENG)Аудио #3: 48 kHz, AC3, 3/2 (L,C,R,l,r) + LFE ch, ~448.00 kbps avg (RUS, AVO) Ю. Сербин (Отдельно на http) Аудио #4: 48 kHz, AC3, 3/2 (L,C,R,l,r) + LFE ch, ~448.00 kbps avg (UKR. DUB) (Отдельно на http)Размер: 2974,79 MB (2/3 DVD)Скачать: Сэмпл

MediaINFO

Полное имя : Velikij.Getsbi.2013.DUAL.BDRip-AVC.x264.AC3.-HQCLUB.mkv Формат : Matroska Версия формата : Version 4 / Version 2 Размер файла : 2,91 Гбайт Продолжительность : 2 ч. 22 м. Общий поток : 2927 Кбит/сек Дата кодирования : UTC 2013-11-08 16:42:59 Программа кодирования : mkvmerge v6.5.0 ('Isn't she lovely') built on Oct 20 2013 12:50:05 Библиотека кодирования : libebml v1.3.0 + libmatroska v1.4.1

Видео Идентификатор : 1 Формат : AVC Формат/Информация : Advanced Video Codec Профиль формата : [email protected] Параметр CABAC формата : Да Параметр ReFrames формата : 10 кадров Идентификатор кодека : V_MPEG4/ISO/AVC Продолжительность : 2 ч. 22 м. Битрейт : 2028 Кбит/сек Ширина : 1024 пикселя Высота : 426 пикселей Соотношение сторон : 2,40:1 Режим частоты кадров : Постоянный Частота кадров : 23,976 кадра/сек Цветовое пространство : YUV Субдискретизация насыщенности : 4:2:0 Битовая глубина : 8 бит Тип развёртки : Прогрессивная Бит/(Пиксели*Кадры) : 0.194 Размер потока : 1,96 Гбайт (67%) Заголовок : Великий Гэтсби / The Great Gatsby (2013) BDRip-AVC by MOSFET | HQCLUB.NET Библиотека кодирования : x264 core 133 r2334 a3ac64b Настройки программы : cabac=1 / ref=10 / deblock=1:-2:-1 / analyse=0x3:0x113 / me=esa / subme=10 / psy=1 / psy_rd=1.00:0.00 / mixed_ref=1 / me_range=64 / chroma_me=1 / trellis=2 / 8x8dct=1 / cqm=0 / deadzone=21,11 / fast_pskip=0 / chroma_qp_offset=-2 / threads=12 / lookahead_threads=3 / sliced_threads=0 / nr=0 / decimate=1 / interlaced=0 / bluray_compat=0 / constrained_intra=0 / bframes=10 / b_pyramid=2 / b_adapt=2 / b_bias=0 / direct=3 / weightb=1 / open_gop=0 / weightp=2 / keyint=240 / keyint_min=23 / scenecut=40 / intra_refresh=0 / rc_lookahead=50 / rc=2pass / mbtree=1 / bitrate=2028 / ratetol=1.0 / qcomp=0.70 / qpmin=0 / qpmax=69 / qpstep=4 / cplxblur=20.0 / qblur=0.5 / vbv_maxrate=50000 / vbv_bufsize=62500 / nal_hrd=none / ip_ratio=1.40 / aq=1:0.80 Язык : English Default : Да Forced : Нет

Аудио #1 Идентификатор : 2 Формат : AC-3 Формат/Информация : Audio Coding 3 Расширение режима : CM (complete main) Параметр Endianness формата : Big Идентификатор кодека : A_AC3 Продолжительность : 2 ч. 22 м. Вид битрейта : Постоянный Битрейт : 448 Кбит/сек Каналы : 6 каналов Расположение каналов : Front: L C R, Side: L R, LFE Частота : 48,0 КГц Битовая глубина : 16 бит Метод сжатия : С потерями Размер потока : 455 Мбайт (15%) Заголовок : Профессиональный (полное дублирование) Blu-ray EUR Язык : Russian Default : Да Forced : Нет

Аудио #2 Идентификатор : 3 Формат : AC-3 Формат/Информация : Audio Coding 3 Расширение режима : CM (complete main) Параметр Endianness формата : Big Идентификатор кодека : A_AC3 Продолжительность : 2 ч. 22 м. Вид битрейта : Постоянный Битрейт : 448 Кбит/сек Каналы : 6 каналов Расположение каналов : Front: L C R, Side: L R, LFE Частота : 48,0 КГц Битовая глубина : 16 бит Метод сжатия : С потерями Размер потока : 455 Мбайт (15%) Заголовок : Оригинальная звуковая дорожка Язык : English Default : Нет Forced : Нет

Текст #1 Идентификатор : 4 Формат : UTF-8 Идентификатор кодека : S_TEXT/UTF8 Идентификатор кодека/Информация : UTF-8 Plain Text Заголовок : Русские (форсированные) BD Язык : Russian Default : Да Forced : Нет

Текст #2 Идентификатор : 5 Формат : UTF-8 Идентификатор кодека : S_TEXT/UTF8 Идентификатор кодека/Информация : UTF-8 Plain Text Заголовок : Русские (полные) BD Язык : Russian Default : Нет Forced : Нет

Текст #3 Идентификатор : 6 Формат : UTF-8 Идентификатор кодека : S_TEXT/UTF8 Идентификатор кодека/Информация : UTF-8 Plain Text Заголовок : Русские (полные) DUB Язык : Russian Default : Нет Forced : Нет

Текст #4 Идентификатор : 7 Формат : UTF-8 Идентификатор кодека : S_TEXT/UTF8 Идентификатор кодека/Информация : UTF-8 Plain Text Заголовок : Украинские (форсированные) BD Язык : Ukrainian Default : Нет Forced : Нет

Текст #5 Идентификатор : 8 Формат : UTF-8 Идентификатор кодека : S_TEXT/UTF8 Идентификатор кодека/Информация : UTF-8 Plain Text Заголовок : Украинские (полные) BD Язык : Ukrainian Default : Нет Forced : Нет

Текст #6 Идентификатор : 9 Формат : UTF-8 Идентификатор кодека : S_TEXT/UTF8 Идентификатор кодека/Информация : UTF-8 Plain Text Заголовок : Английские (полные) Язык : English Default : Нет Forced : Нет

Текст #7 Идентификатор : 10 Формат : UTF-8 Идентификатор кодека : S_TEXT/UTF8 Идентификатор кодека/Информация : UTF-8 Plain Text Заголовок : Английские (полные, SDH) Язык : English Default : Нет Forced : Нет

Текст #8 Идентификатор : 11 Формат : UTF-8 Идентификатор кодека : S_TEXT/UTF8 Идентификатор кодека/Информация : UTF-8 Plain Text Заголовок : Английские (полные, SDH-COLORED) Язык : English Default : Нет Forced : Нет

Меню 00:00:00.000 : en:00:00:00.000 00:11:04.080 : en:00:11:04.080 00:22:55.833 : en:00:22:55.833 00:34:26.898 : en:00:34:26.898 00:44:48.728 : en:00:44:48.728 00:55:36.333 : en:00:55:36.333 01:06:20.643 : en:01:06:20.643 01:18:27.786 : en:01:18:27.786 01:31:13.927 : en:01:31:13.927 01:44:11.954 : en:01:44:11.954 01:56:35.155 : en:01:56:35.155 02:05:46.122 : en:02:05:46.122 02:09:40.982 : en:02:09:40.982

x264 log

x264 [info]: frame I:2322 Avg QP:17.47 size: 73323 x264 [info]: frame P:53298 Avg QP:21.29 size: 20670 x264 [info]: frame B:148792 Avg QP:24.64 size: 5976

x264 [info]: consecutive B-frames: 3.8% 4.8% 13.5% 41.3% 12.3% 17.0% 2.7% 3.4% 0.5% 0.4% 0.3%

x264 [info]: ref P L0: 53.9% 14.3% 14.0% 5.1% 3.4% 2.9% 2.1% 1.4% 1.1% 1.2% 0.5% 0.0% x264 [info]: ref B L0: 79.6% 9.0% 5.0% 1.7% 1.9% 1.1% 1.0% 0.5% 0.3% x264 [info]: ref B L1: 94.1% 5.9%

ЦитатаКто-то писал:Перевод Юрия Сербина выполнен в рамках сервиса от HDCLUB "Озвучивание" совместно с E180.ru и dvd100.ru. Спонсоры HDCLUB: tambov68, oak, serdg71, RAUL, dsk71, v1111o, Luka69, Kain_Rasiel, u6868, Snaip, Didier. Работа над дорогой: Nadoelo.

main-rutor.org


Смотрите также